  0
SECTION
  2
HEADER
  9
$ACADVER
  1
AC1018
  9
$ACADMAINTVER
 70
     0
  9
$DWGCODEPAGE
  3
ANSI_936
  9
$INSBASE
 10
0.0
 20
0.0
 30
0.0
  9
$EXTMIN
 10
511.9577605090522
 20
-13.78465493535041
 30
0.0
  9
$EXTMAX
 10
2107.65034967001
 20
1382.233484784461
 30
0.0
  9
$LIMMIN
 10
0.0
 20
0.0
  9
$LIMMAX
 10
420.0
 20
297.0
  9
$ORTHOMODE
 70
     1
  9
$REGENMODE
 70
     1
  9
$FILLMODE
 70
     1
  9
$QTEXTMODE
 70
     0
  9
$MIRRTEXT
 70
     0
  9
$LTSCALE
 40
1.0
  9
$ATTMODE
 70
     1
  9
$TEXTSIZE
 40
2.5
  9
$TRACEWID
 40
1.0
  9
$TEXTSTYLE
  7
Standard
  9
$CLAYER
  8
标注
  9
$CELTYPE
  6
ByLayer
  9
$CECOLOR
 62
   256
  9
$CELTSCALE
 40
1.0
  9
$DISPSILH
 70
     0
  9
$DIMSCALE
 40
1.0
  9
$DIMASZ
 40
12.0
  9
$DIMEXO
 40
20.0
  9
$DIMDLI
 40
3.75
  9
$DIMRND
 40
0.0
  9
$DIMDLE
 40
0.0
  9
$DIMEXE
 40
1.25
  9
$DIMTP
 40
0.0
  9
$DIMTM
 40
0.0
  9
$DIMTXT
 40
10.0
  9
$DIMCEN
 40
2.5
  9
$DIMTSZ
 40
0.0
  9
$DIMTOL
 70
     0
  9
$DIMLIM
 70
     0
  9
$DIMTIH
 70
     0
  9
$DIMTOH
 70
     0
  9
$DIMSE1
 70
     0
  9
$DIMSE2
 70
     0
  9
$DIMTAD
 70
     0
  9
$DIMZIN
 70
     8
  9
$DIMBLK
  1

  9
$DIMASO
 70
     1
  9
$DIMSHO
 70
     1
  9
$DIMPOST
  1
mm
  9
$DIMAPOST
  1
"
  9
$DIMALT
 70
     1
  9
$DIMALTD
 70
     3
  9
$DIMALTF
 40
0.03937007874016
  9
$DIMLFAC
 40
1.0
  9
$DIMTOFL
 70
     1
  9
$DIMTVP
 40
0.0
  9
$DIMTIX
 70
     0
  9
$DIMSOXD
 70
     0
  9
$DIMSAH
 70
     0
  9
$DIMBLK1
  1

  9
$DIMBLK2
  1

  9
$DIMSTYLE
  2
mav
  9
$DIMCLRD
 70
     0
  9
$DIMCLRE
 70
     0
  9
$DIMCLRT
 70
     0
  9
$DIMTFAC
 40
1.0
  9
$DIMGAP
 40
5.0
  9
$DIMJUST
 70
     0
  9
$DIMSD1
 70
     0
  9
$DIMSD2
 70
     0
  9
$DIMTOLJ
 70
     0
  9
$DIMTZIN
 70
     8
  9
$DIMALTZ
 70
     0
  9
$DIMALTTZ
 70
     0
  9
$DIMUPT
 70
     0
  9
$DIMDEC
 70
     1
  9
$DIMTDEC
 70
     1
  9
$DIMALTU
 70
     7
  9
$DIMALTTD
 70
     3
  9
$DIMTXSTY
  7
Standard
  9
$DIMAUNIT
 70
     0
  9
$DIMADEC
 70
     0
  9
$DIMALTRND
 40
0.0
  9
$DIMAZIN
 70
     0
  9
$DIMDSEP
 70
    44
  9
$DIMATFIT
 70
     3
  9
$DIMFRAC
 70
     0
  9
$DIMLDRBLK
  1

  9
$DIMLUNIT
 70
     2
  9
$DIMLWD
 70
    -2
  9
$DIMLWE
 70
    -2
  9
$DIMTMOVE
 70
     0
  9
$LUNITS
 70
     2
  9
$LUPREC
 70
     4
  9
$SKETCHINC
 40
1.0
  9
$FILLETRAD
 40
0.0
  9
$AUNITS
 70
     0
  9
$AUPREC
 70
     0
  9
$MENU
  1
.
  9
$ELEVATION
 40
0.0
  9
$PELEVATION
 40
0.0
  9
$THICKNESS
 40
0.0
  9
$LIMCHECK
 70
     0
  9
$CHAMFERA
 40
0.0
  9
$CHAMFERB
 40
0.0
  9
$CHAMFERC
 40
0.0
  9
$CHAMFERD
 40
0.0
  9
$SKPOLY
 70
     0
  9
$TDCREATE
 40
2455976.789748982
  9
$TDUCREATE
 40
2455976.456415648
  9
$TDUPDATE
 40
2456050.839914642
  9
$TDUUPDATE
 40
2456050.506581308
  9
$TDINDWG
 40
0.0320943750
  9
$TDUSRTIMER
 40
0.0320931019
  9
$USRTIMER
 70
     1
  9
$ANGBASE
 50
0.0
  9
$ANGDIR
 70
     0
  9
$PDMODE
 70
     0
  9
$PDSIZE
 40
0.0
  9
$PLINEWID
 40
0.0
  9
$SPLFRAME
 70
     0
  9
$SPLINETYPE
 70
     6
  9
$SPLINESEGS
 70
     8
  9
$HANDSEED
  5
723
  9
$SURFTAB1
 70
     6
  9
$SURFTAB2
 70
     6
  9
$SURFTYPE
 70
     6
  9
$SURFU
 70
     6
  9
$SURFV
 70
     6
  9
$UCSBASE
  2

  9
$UCSNAME
  2

  9
$UCSORG
 10
0.0
 20
0.0
 30
0.0
  9
$UCSXDIR
 10
1.0
 20
0.0
 30
0.0
  9
$UCSYDIR
 10
0.0
 20
1.0
 30
0.0
  9
$UCSORTHOREF
  2

  9
$UCSORTHOVIEW
 70
     0
  9
$UCSORGTOP
 10
0.0
 20
0.0
 30
0.0
  9
$UCSORGBOTTOM
 10
0.0
 20
0.0
 30
0.0
  9
$UCSORGLEFT
 10
0.0
 20
0.0
 30
0.0
  9
$UCSORGRIGHT
 10
0.0
 20
0.0
 30
0.0
  9
$UCSORGFRONT
 10
0.0
 20
0.0
 30
0.0
  9
$UCSORGBACK
 10
0.0
 20
0.0
 30
0.0
  9
$PUCSBASE
  2

  9
$PUCSNAME
  2

  9
$PUCSORG
 10
0.0
 20
0.0
 30
0.0
  9
$PUCSXDIR
 10
1.0
 20
0.0
 30
0.0
  9
$PUCSYDIR
 10
0.0
 20
1.0
 30
0.0
  9
$PUCSORTHOREF
  2

  9
$PUCSORTHOVIEW
 70
     0
  9
$PUCSORGTOP
 10
0.0
 20
0.0
 30
0.0
  9
$PUCSORGBOTTOM
 10
0.0
 20
0.0
 30
0.0
  9
$PUCSORGLEFT
 10
0.0
 20
0.0
 30
0.0
  9
$PUCSORGRIGHT
 10
0.0
 20
0.0
 30
0.0
  9
$PUCSORGFRONT
 10
0.0
 20
0.0
 30
0.0
  9
$PUCSORGBACK
 10
0.0
 20
0.0
 30
0.0
  9
$USERI1
 70
     0
  9
$USERI2
 70
     0
  9
$USERI3
 70
     0
  9
$USERI4
 70
     0
  9
$USERI5
 70
     0
  9
$USERR1
 40
0.0
  9
$USERR2
 40
0.0
  9
$USERR3
 40
0.0
  9
$USERR4
 40
0.0
  9
$USERR5
 40
0.0
  9
$WORLDVIEW
 70
     1
  9
$SHADEDGE
 70
     3
  9
$SHADEDIF
 70
    70
  9
$TILEMODE
 70
     1
  9
$MAXACTVP
 70
    64
  9
$PINSBASE
 10
0.0
 20
0.0
 30
0.0
  9
$PLIMCHECK
 70
     0
  9
$PEXTMIN
 10
1.000000000000000E+20
 20
1.000000000000000E+20
 30
1.000000000000000E+20
  9
$PEXTMAX
 10
-1.000000000000000E+20
 20
-1.000000000000000E+20
 30
-1.000000000000000E+20
  9
$PLIMMIN
 10
0.0
 20
0.0
  9
$PLIMMAX
 10
420.0
 20
297.0
  9
$UNITMODE
 70
     0
  9
$VISRETAIN
 70
     1
  9
$PLINEGEN
 70
     0
  9
$PSLTSCALE
 70
     1
  9
$TREEDEPTH
 70
  3020
  9
$CMLSTYLE
  2
Standard
  9
$CMLJUST
 70
     0
  9
$CMLSCALE
 40
20.0
  9
$PROXYGRAPHICS
 70
     1
  9
$MEASUREMENT
 70
     1
  9
$CELWEIGHT
370
    -1
  9
$ENDCAPS
280
     0
  9
$JOINSTYLE
280
     0
  9
$LWDISPLAY
290
     0
  9
$INSUNITS
 70
     4
  9
$HYPERLINKBASE
  1

  9
$STYLESHEET
  1
MONOCHROME.CTB
  9
$XEDIT
290
     1
  9
$CEPSNTYPE
380
     0
  9
$PSTYLEMODE
290
     1
  9
$FINGERPRINTGUID
  2
{1E3F51EA-1AF3-4ACB-A358-1F7AE8D52B56}
  9
$VERSIONGUID
  2
{43AC8BBD-F76F-424B-87C4-92FDF0ED0344}
  9
$EXTNAMES
290
     1
  9
$PSVPSCALE
 40
0.0
  9
$OLESTARTUP
290
     0
  9
$SORTENTS
280
   127
  9
$INDEXCTL
280
     0
  9
$HIDETEXT
280
     1
  9
$XCLIPFRAME
290
     0
  9
$HALOGAP
280
     0
  9
$OBSCOLOR
 70
   257
  9
$OBSLTYPE
280
     0
  9
$INTERSECTIONDISPLAY
280
     0
  9
$INTERSECTIONCOLOR
 70
   257
  9
$DIMASSOC
280
     2
  9
$PROJECTNAME
  1

  0
ENDSEC
  0
SECTION
  2
CLASSES
  0
CLASS
  1
ACDBDICTIONARYWDFLT
  2
AcDbDictionaryWithDefault
  3
ObjectDBX Classes
 90
        0
 91
        1
280
     0
281
     0
  0
CLASS
  1
DIMASSOC
  2
AcDbDimAssoc
  3
"AcDbDimAssoc|Product Desc:     AcDim ARX App For Dimension|Company:          Autodesk, Inc.|WEB Address:      www.autodesk.com"
 90
        0
 91
        3
280
     0
281
     0
  0
CLASS
  1
SORTENTSTABLE
  2
AcDbSortentsTable
  3
ObjectDBX Classes
 90
        0
 91
        0
280
     0
281
     0
  0
ENDSEC
  0
SECTION
  2
TABLES
  0
TABLE
  2
VPORT
  5
8
330
0
100
AcDbSymbolTable
 70
     2
  0
VPORT
  5
722
330
8
100
AcDbSymbolTableRecord
100
AcDbViewportTableRecord
  2
*Active
 70
     0
 10
0.0
 20
0.0
 11
1.0
 21
1.0
 12
1636.655799591633
 22
380.3710142920172
 13
0.0
 23
0.0
 14
10.0
 24
10.0
 15
10.0
 25
10.0
 16
0.0
 26
0.0
 36
1.0
 17
0.0
 27
0.0
 37
0.0
 40
1128.793071091348
 41
1.510883482714468
 42
50.0
 43
0.0
 44
0.0
 50
0.0
 51
0.0
 71
     0
 72
  1000
 73
     1
 74
     3
 75
     0
 76
     0
 77
     0
 78
     0
281
     0
 65
     1
110
0.0
120
0.0
130
0.0
111
1.0
121
0.0
131
0.0
112
0.0
122
1.0
132
0.0
 79
     0
146
0.0
  0
ENDTAB
  0
TABLE
  2
LTYPE
  5
5
330
0
100
AcDbSymbolTable
 70
     2
  0
LTYPE
  5
14
330
5
100
AcDbSymbolTableRecord
100
AcDbLinetypeTableRecord
  2
ByBlock
 70
     0
  3

 72
    65
 73
     0
 40
0.0
  0
LTYPE
  5
15
330
5
100
AcDbSymbolTableRecord
100
AcDbLinetypeTableRecord
  2
ByLayer
 70
     0
  3

 72
    65
 73
     0
 40
0.0
  0
LTYPE
  5
16
330
5
100
AcDbSymbolTableRecord
100
AcDbLinetypeTableRecord
  2
Continuous
 70
     0
  3
Solid line
 72
    65
 73
     0
 40
0.0
  0
LTYPE
  5
83
330
5
100
AcDbSymbolTableRecord
100
AcDbLinetypeTableRecord
  2
HIDDENX2
 70
     0
  3
Hidden (2x) ____ ____ ____ ____ ____ ____ ____
 72
    65
 73
     2
 40
19.05
 49
12.7
 74
     0
 49
-6.349999999999997
 74
     0
  0
ENDTAB
  0
TABLE
  2
LAYER
  5
2
102
{ACAD_XDICTIONARY
360
25E
102
}
330
0
100
AcDbSymbolTable
 70
     4
  0
LAYER
  5
10
330
2
100
AcDbSymbolTableRecord
100
AcDbLayerTableRecord
  2
0
 70
     0
 62
     7
  6
Continuous
370
    -3
390
F
  0
LAYER
  5
84
330
2
100
AcDbSymbolTableRecord
100
AcDbLayerTableRecord
  2
标注
 70
     0
 62
    80
  6
Continuous
370
    -3
390
F
1001
AcAecLayerStandard
1000

1000

  0
LAYER
  5
85
330
2
100
AcDbSymbolTableRecord
100
AcDbLayerTableRecord
  2
Defpoints
 70
     0
 62
     7
  6
Continuous
290
     0
370
    -3
390
F
  0
LAYER
  5
86
330
2
100
AcDbSymbolTableRecord
100
AcDbLayerTableRecord
  2
虚线
 70
     0
 62
   130
  6
HIDDENX2
370
    35
390
F
1001
AcAecLayerStandard
1000

1000

  0
ENDTAB
  0
TABLE
  2
STYLE
  5
3
330
0
100
AcDbSymbolTable
 70
     1
  0
STYLE
  5
11
330
3
100
AcDbSymbolTableRecord
100
AcDbTextStyleTableRecord
  2
Standard
 70
     0
 40
0.0
 41
1.0
 50
0.0
 71
     0
 42
2.5
  3
txt
  4

  0
ENDTAB
  0
TABLE
  2
VIEW
  5
6
330
0
100
AcDbSymbolTable
 70
     0
  0
ENDTAB
  0
TABLE
  2
UCS
  5
7
330
0
100
AcDbSymbolTable
 70
     0
  0
ENDTAB
  0
TABLE
  2
APPID
  5
9
330
0
100
AcDbSymbolTable
 70
     7
  0
APPID
  5
12
330
9
100
AcDbSymbolTableRecord
100
AcDbRegAppTableRecord
  2
ACAD
 70
     0
  0
APPID
  5
88
330
9
100
AcDbSymbolTableRecord
100
AcDbRegAppTableRecord
  2
ACAD_PSEXT
 70
     0
  0
APPID
  5
89
330
9
100
AcDbSymbolTableRecord
100
AcDbRegAppTableRecord
  2
AcAecLayerStandard
 70
     0
  0
APPID
  5
8A
330
9
100
AcDbSymbolTableRecord
100
AcDbRegAppTableRecord
  2
ACAD_DSTYLE_DIMEXT_LENGTH
 70
     0
  0
APPID
  5
8B
330
9
100
AcDbSymbolTableRecord
100
AcDbRegAppTableRecord
  2
ACAD_DSTYLE_DIMEXT_ENABLED
 70
     0
  0
APPID
  5
8C
330
9
100
AcDbSymbolTableRecord
100
AcDbRegAppTableRecord
  2
ACAD_DSTYLE_DIMJOGGED_JOGANGLE_SYMBOL
 70
     0
  0
APPID
  5
8D
330
9
100
AcDbSymbolTableRecord
100
AcDbRegAppTableRecord
  2
ACAD_DSTYLE_DIMARC_LENGTH_SYMBOL
 70
     0
  0
ENDTAB
  0
TABLE
  2
DIMSTYLE
  5
A
330
0
100
AcDbSymbolTable
 70
     3
100
AcDbDimStyleTable
 71
     2
340
87
340
29
  0
DIMSTYLE
105
29
330
A
100
AcDbSymbolTableRecord
100
AcDbDimStyleTableRecord
  2
ISO-25
 70
     0
  3
"
  4
"
 41
2.5
 42
0.625
 43
3.75
 44
1.25
 73
     0
 74
     0
 77
     1
 78
     8
140
2.5
141
2.5
143
0.03937007874016
147
0.625
170
     1
171
     3
172
     1
271
     1
272
     1
273
     7
274
     3
283
     0
284
     8
340
11
  0
DIMSTYLE
105
87
102
{ACAD_REACTORS
330
69C
330
69B
102
}
330
A
100
AcDbSymbolTableRecord
100
AcDbDimStyleTableRecord
  2
mav
 70
     0
  3
mm
  4
"
 41
12.0
 42
20.0
 43
3.75
 44
1.25
 73
     0
 74
     0
 78
     8
140
10.0
141
2.5
143
0.03937007874016
147
5.0
170
     1
171
     3
172
     1
271
     1
272
     1
273
     7
274
     3
278
    44
283
     0
284
     8
340
11
1001
ACAD_DSTYLE_DIMEXT_LENGTH
1070
   378
1040
1.25
1001
ACAD_DSTYLE_DIMEXT_ENABLED
1070
   383
1070
     0
1001
ACAD_DSTYLE_DIMARC_LENGTH_SYMBOL
1070
   379
1070
     0
1001
ACAD_DSTYLE_DIMJOGGED_JOGANGLE_SYMBOL
1070
   384
1040
1.570796326794896
  0
DIMSTYLE
105
25D
330
A
100
AcDbSymbolTableRecord
100
AcDbDimStyleTableRecord
  2
副本Standard
 70
     0
  4
"
 41
16.0
 42
22.0
 44
8.0
 73
     0
 74
     0
 78
     8
 79
     2
140
16.0
143
0.03937
147
5.0
171
     1
172
     1
176
   256
177
   256
178
   256
179
     1
271
     1
272
     1
274
     1
278
    44
340
11
  0
ENDTAB
  0
TABLE
  2
BLOCK_RECORD
  5
1
330
0
100
AcDbSymbolTable
 70
    72
  0
BLOCK_RECORD
  5
21
330
1
100
AcDbSymbolTableRecord
100
AcDbBlockTableRecord
  2
*Model_Space
340
24
  0
BLOCK_RECORD
  5
1D
330
1
100
AcDbSymbolTableRecord
100
AcDbBlockTableRecord
  2
*Paper_Space
340
20
  0
BLOCK_RECORD
  5
25
330
1
100
AcDbSymbolTableRecord
100
AcDbBlockTableRecord
  2
*Paper_Space0
340
28
  0
BLOCK_RECORD
  5
2D
330
1
100
AcDbSymbolTableRecord
100
AcDbBlockTableRecord
  2
*D1
340
0
  0
BLOCK_RECORD
  5
35
330
1
100
AcDbSymbolTableRecord
100
AcDbBlockTableRecord
  2
*D2
340
0
  0
BLOCK_RECORD
  5
41
330
1
100
AcDbSymbolTableRecord
100
AcDbBlockTableRecord
  2
*D3
340
0
  0
BLOCK_RECORD
  5
4D
330
1
100
AcDbSymbolTableRecord
100
AcDbBlockTableRecord
  2
*D4
340
0
  0
BLOCK_RECORD
  5
55
330
1
100
AcDbSymbolTableRecord
100
AcDbBlockTableRecord
  2
*D5
340
0
  0
BLOCK_RECORD
  5
5D
330
1
100
AcDbSymbolTableRecord
100
AcDbBlockTableRecord
  2
*D6
340
0
  0
BLOCK_RECORD
  5
6B
330
1
100
AcDbSymbolTableRecord
100
AcDbBlockTableRecord
  2
*D7
340
0
  0
BLOCK_RECORD
  5
77
330
1
100
AcDbSymbolTableRecord
100
AcDbBlockTableRecord
  2
*D8
340
0
  0
BLOCK_RECORD
  5
DC
330
1
100
AcDbSymbolTableRecord
100
AcDbBlockTableRecord
  2
*D9
340
0
  0
BLOCK_RECORD
  5
E8
330
1
100
AcDbSymbolTableRecord
100
AcDbBlockTableRecord
  2
*D10
340
0
  0
BLOCK_RECORD
  5
F6
330
1
100
AcDbSymbolTableRecord
100
AcDbBlockTableRecord
  2
*D11
340
0
  0
BLOCK_RECORD
  5
107
330
1
100
AcDbSymbolTableRecord
100
AcDbBlockTableRecord
  2
*D12
340
0
  0
BLOCK_RECORD
  5
113
330
1
100
AcDbSymbolTableRecord
100
AcDbBlockTableRecord
  2
*D13
340
0
  0
BLOCK_RECORD
  5
11B
330
1
100
AcDbSymbolTableRecord
100
AcDbBlockTableRecord
  2
*D14
340
0
  0
BLOCK_RECORD
  5
12E
330
1
100
AcDbSymbolTableRecord
100
AcDbBlockTableRecord
  2
*D15
340
0
  0
BLOCK_RECORD
  5
13A
330
1
100
AcDbSymbolTableRecord
100
AcDbBlockTableRecord
  2
*D16
340
0
  0
BLOCK_RECORD
  5
1EF
330
1
100
AcDbSymbolTableRecord
100
AcDbBlockTableRecord
  2
*D17
340
0
  0
BLOCK_RECORD
  5
218
330
1
100
AcDbSymbolTableRecord
100
AcDbBlockTableRecord
  2
*D18
340
0
  0
BLOCK_RECORD
  5
228
330
1
100
AcDbSymbolTableRecord
100
AcDbBlockTableRecord
  2
*D19
340
0
  0
BLOCK_RECORD
  5
238
330
1
100
AcDbSymbolTableRecord
100
AcDbBlockTableRecord
  2
*D20
340
0
  0
BLOCK_RECORD
  5
28F
330
1
100
AcDbSymbolTableRecord
100
AcDbBlockTableRecord
  2
*D21
340
0
  0
BLOCK_RECORD
  5
2A9
330
1
100
AcDbSymbolTableRecord
100
AcDbBlockTableRecord
  2
*D22
340
0
  0
BLOCK_RECORD
  5
2C3
330
1
100
AcDbSymbolTableRecord
100
AcDbBlockTableRecord
  2
*D23
340
0
  0
BLOCK_RECORD
  5
2EB
330
1
100
AcDbSymbolTableRecord
100
AcDbBlockTableRecord
  2
*D24
340
0
  0
BLOCK_RECORD
  5
2FB
330
1
100
AcDbSymbolTableRecord
100
AcDbBlockTableRecord
  2
*D25
340
0
  0
BLOCK_RECORD
  5
30B
330
1
100
AcDbSymbolTableRecord
100
AcDbBlockTableRecord
  2
*D26
340
0
  0
BLOCK_RECORD
  5
33C
330
1
100
AcDbSymbolTableRecord
100
AcDbBlockTableRecord
  2
*D27
340
0
  0
BLOCK_RECORD
  5
344
330
1
100
AcDbSymbolTableRecord
100
AcDbBlockTableRecord
  2
*D28
340
0
  0
BLOCK_RECORD
  5
351
330
1
100
AcDbSymbolTableRecord
100
AcDbBlockTableRecord
  2
*D29
340
0
  0
BLOCK_RECORD
  5
35E
330
1
100
AcDbSymbolTableRecord
100
AcDbBlockTableRecord
  2
*D30
340
0
  0
BLOCK_RECORD
  5
36B
330
1
100
AcDbSymbolTableRecord
100
AcDbBlockTableRecord
  2
*D31
340
0
  0
BLOCK_RECORD
  5
3CF
330
1
100
AcDbSymbolTableRecord
100
AcDbBlockTableRecord
  2
*D32
340
0
  0
BLOCK_RECORD
  5
3DC
330
1
100
AcDbSymbolTableRecord
100
AcDbBlockTableRecord
  2
*D33
340
0
  0
BLOCK_RECORD
  5
3E9
330
1
100
AcDbSymbolTableRecord
100
AcDbBlockTableRecord
  2
*D34
340
0
  0
BLOCK_RECORD
  5
3F1
330
1
100
AcDbSymbolTableRecord
100
AcDbBlockTableRecord
  2
*D35
340
0
  0
BLOCK_RECORD
  5
3F9
330
1
100
AcDbSymbolTableRecord
100
AcDbBlockTableRecord
  2
*D36
340
0
  0
BLOCK_RECORD
  5
433
330
1
100
AcDbSymbolTableRecord
100
AcDbBlockTableRecord
  2
*D37
340
0
  0
BLOCK_RECORD
  5
440
330
1
100
AcDbSymbolTableRecord
100
AcDbBlockTableRecord
  2
*D38
340
0
  0
BLOCK_RECORD
  5
461
330
1
100
AcDbSymbolTableRecord
100
AcDbBlockTableRecord
  2
*D39
340
0
  0
BLOCK_RECORD
  5
469
330
1
100
AcDbSymbolTableRecord
100
AcDbBlockTableRecord
  2
*D40
340
0
  0
BLOCK_RECORD
  5
471
330
1
100
AcDbSymbolTableRecord
100
AcDbBlockTableRecord
  2
*D41
340
0
  0
BLOCK_RECORD
  5
48F
330
1
100
AcDbSymbolTableRecord
100
AcDbBlockTableRecord
  2
*D42
340
0
  0
BLOCK_RECORD
  5
49C
330
1
100
AcDbSymbolTableRecord
100
AcDbBlockTableRecord
  2
*D43
340
0
  0
BLOCK_RECORD
  5
4A9
330
1
100
AcDbSymbolTableRecord
100
AcDbBlockTableRecord
  2
*D44
340
0
  0
BLOCK_RECORD
  5
4B6
330
1
100
AcDbSymbolTableRecord
100
AcDbBlockTableRecord
  2
*D45
340
0
  0
BLOCK_RECORD
  5
4BE
330
1
100
AcDbSymbolTableRecord
100
AcDbBlockTableRecord
  2
*D46
340
0
  0
BLOCK_RECORD
  5
4C6
330
1
100
AcDbSymbolTableRecord
100
AcDbBlockTableRecord
  2
*D47
340
0
  0
BLOCK_RECORD
  5
4CE
330
1
100
AcDbSymbolTableRecord
100
AcDbBlockTableRecord
  2
*D48
340
0
  0
BLOCK_RECORD
  5
4D6
330
1
100
AcDbSymbolTableRecord
100
AcDbBlockTableRecord
  2
*D49
340
0
  0
BLOCK_RECORD
  5
4DE
330
1
100
AcDbSymbolTableRecord
100
AcDbBlockTableRecord
  2
*D50
340
0
  0
BLOCK_RECORD
  5
4E6
330
1
100
AcDbSymbolTableRecord
100
AcDbBlockTableRecord
  2
*D51
340
0
  0
BLOCK_RECORD
  5
548
330
1
100
AcDbSymbolTableRecord
100
AcDbBlockTableRecord
  2
*D52
340
0
  0
BLOCK_RECORD
  5
550
330
1
100
AcDbSymbolTableRecord
100
AcDbBlockTableRecord
  2
*D53
340
0
  0
BLOCK_RECORD
  5
558
330
1
100
AcDbSymbolTableRecord
100
AcDbBlockTableRecord
  2
*D54
340
0
  0
BLOCK_RECORD
  5
560
330
1
100
AcDbSymbolTableRecord
100
AcDbBlockTableRecord
  2
*D55
340
0
  0
BLOCK_RECORD
  5
568
330
1
100
AcDbSymbolTableRecord
100
AcDbBlockTableRecord
  2
*D56
340
0
  0
BLOCK_RECORD
  5
570
330
1
100
AcDbSymbolTableRecord
100
AcDbBlockTableRecord
  2
*D57
340
0
  0
BLOCK_RECORD
  5
578
330
1
100
AcDbSymbolTableRecord
100
AcDbBlockTableRecord
  2
*D58
340
0
  0
BLOCK_RECORD
  5
580
330
1
100
AcDbSymbolTableRecord
100
AcDbBlockTableRecord
  2
*D59
340
0
  0
BLOCK_RECORD
  5
58D
330
1
100
AcDbSymbolTableRecord
100
AcDbBlockTableRecord
  2
*D60
340
0
  0
BLOCK_RECORD
  5
59A
330
1
100
AcDbSymbolTableRecord
100
AcDbBlockTableRecord
  2
*D61
340
0
  0
BLOCK_RECORD
  5
639
330
1
100
AcDbSymbolTableRecord
100
AcDbBlockTableRecord
  2
*D62
340
0
  0
BLOCK_RECORD
  5
646
330
1
100
AcDbSymbolTableRecord
100
AcDbBlockTableRecord
  2
*D63
340
0
  0
BLOCK_RECORD
  5
653
330
1
100
AcDbSymbolTableRecord
100
AcDbBlockTableRecord
  2
*D64
340
0
  0
BLOCK_RECORD
  5
65B
330
1
100
AcDbSymbolTableRecord
100
AcDbBlockTableRecord
  2
*D65
340
0
  0
BLOCK_RECORD
  5
663
330
1
100
AcDbSymbolTableRecord
100
AcDbBlockTableRecord
  2
*D66
340
0
  0
BLOCK_RECORD
  5
69D
330
1
100
AcDbSymbolTableRecord
100
AcDbBlockTableRecord
  2
*D67
340
0
  0
BLOCK_RECORD
  5
6AA
330
1
100
AcDbSymbolTableRecord
100
AcDbBlockTableRecord
  2
*D68
340
0
  0
BLOCK_RECORD
  5
6B7
330
1
100
AcDbSymbolTableRecord
100
AcDbBlockTableRecord
  2
*D69
340
0
  0
BLOCK_RECORD
  5
6BF
330
1
100
AcDbSymbolTableRecord
100
AcDbBlockTableRecord
  2
*D70
340
0
  0
BLOCK_RECORD
  5
6C7
330
1
100
AcDbSymbolTableRecord
100
AcDbBlockTableRecord
  2
*D71
340
0
  0
ENDTAB
  0
ENDSEC
  0
SECTION
  2
BLOCKS
  0
BLOCK
  5
22
330
21
100
AcDbEntity
  8
0
100
AcDbBlockBegin
  2
*Model_Space
 70
     0
 10
0.0
 20
0.0
 30
0.0
  3
*Model_Space
  1

  0
ENDBLK
  5
23
330
21
100
AcDbEntity
  8
0
100
AcDbBlockEnd
  0
BLOCK
  5
1E
330
1D
100
AcDbEntity
 67
     1
  8
0
100
AcDbBlockBegin
  2
*Paper_Space
 70
     0
 10
0.0
 20
0.0
 30
0.0
  3
*Paper_Space
  1

  0
ENDBLK
  5
1F
330
1D
100
AcDbEntity
 67
     1
  8
0
100
AcDbBlockEnd
  0
BLOCK
  5
26
330
25
100
AcDbEntity
  8
0
100
AcDbBlockBegin
  2
*Paper_Space0
 70
     0
 10
0.0
 20
0.0
 30
0.0
  3
*Paper_Space0
  1

  0
ENDBLK
  5
27
330
25
100
AcDbEntity
  8
0
100
AcDbBlockEnd
  0
BLOCK
  5
2E
330
2D
100
AcDbEntity
  8
0
100
AcDbBlockBegin
  2
*D1
 70
     1
 10
0.0
 20
0.0
 30
0.0
  3
*D1
  1

  0
LINE
  5
2F
330
2D
100
AcDbEntity
  8
标注
 62
     0
370
    -2
100
AcDbLine
 10
1767.096055369673
 20
445.9058458477811
 30
0.0
 11
1854.639884338829
 21
498.2516003023603
 31
0.0
  0
MTEXT
  5
30
330
2D
100
AcDbEntity
  8
标注
 62
     0
100
AcDbMText
 10
1799.303411967024
 20
479.7279714612176
 30
0.0
 40
15.0
 41
0.0
 71
     5
 72
     1
  1
2-R165
 11
0.8582728330309457
 21
0.5131936711233239
 31
0.0
 73
     1
 44
1.0
  0
SOLID
  5
31
330
2D
100
AcDbEntity
  8
标注
 62
     0
100
AcDbTrace
 10
1853.613496996583
 20
499.9681459684223
 30
0.0
 11
1855.666271681076
 21
496.5350546362985
 31
0.0
 12
1864.939158335201
 22
504.4099243558402
 32
0.0
 13
1864.939158335201
 23
504.4099243558402
 33
0.0
  0
POINT
  5
32
330
2D
100
AcDbEntity
  8
Defpoints
 62
     0
100
AcDbPoint
 10
1864.939158335201
 20
504.4099243558402
 30
0.0
  0
POINT
  5
33
330
2D
100
AcDbEntity
  8
Defpoints
 62
     0
100
AcDbPoint
 10
1723.324140885114
 20
419.7329686205033
 30
0.0
  0
ENDBLK
  5
34
330
2D
100
AcDbEntity
  8
0
100
AcDbBlockEnd
  0
BLOCK
  5
36
330
35
100
AcDbEntity
  8
0
100
AcDbBlockBegin
  2
*D2
 70
     1
 10
0.0
 20
0.0
 30
0.0
  3
*D2
  1

  0
LINE
  5
37
330
35
100
AcDbEntity
  8
标注
 62
     0
370
    -2
100
AcDbLine
 10
1662.188124199838
 20
591.6137249719261
 30
0.0
 11
1955.312206437451
 21
591.613724971926
 31
0.0
  0
LINE
  5
38
330
35
100
AcDbEntity
  8
标注
 62
     0
370
    -2
100
AcDbLine
 10
1790.324140885113
 20
111.6240772959479
 30
0.0
 11
1955.312206437451
 21
111.6240772959478
 31
0.0
  0
LINE
  5
39
330
35
100
AcDbEntity
  8
标注
 62
     0
370
    -2
100
AcDbLine
 10
1954.062206437451
 20
579.613724971926
 30
0.0
 11
1954.062206437451
 21
123.6240772959478
 31
0.0
  0
SOLID
  5
3A
330
35
100
AcDbEntity
  8
标注
 62
     0
100
AcDbTrace
 10
1952.062206437451
 20
579.613724971926
 30
0.0
 11
1956.062206437451
 21
579.613724971926
 31
0.0
 12
1954.062206437451
 22
591.613724971926
 32
0.0
 13
1954.062206437451
 23
591.613724971926
 33
0.0
  0
SOLID
  5
3B
330
35
100
AcDbEntity
  8
标注
 62
     0
100
AcDbTrace
 10
1952.062206437451
 20
123.6240772959478
 30
0.0
 11
1956.062206437451
 21
123.6240772959478
 31
0.0
 12
1954.062206437451
 22
111.6240772959478
 32
0.0
 13
1954.062206437451
 23
111.6240772959478
 33
0.0
  0
MTEXT
  5
3C
330
35
100
AcDbEntity
  8
标注
 62
     0
100
AcDbMText
 10
1941.562206437451
 20
351.6189011339372
 30
0.0
 40
15.0
 41
0.0
 71
     5
 72
     1
  1
480
 11
0.0000000000000001
 21
1.0
 31
0.0
 73
     1
 44
1.0
  0
POINT
  5
3D
330
35
100
AcDbEntity
  8
Defpoints
 62
     0
100
AcDbPoint
 10
1655.188124199838
 20
591.6137249719261
 30
0.0
  0
POINT
  5
3E
330
35
100
AcDbEntity
  8
Defpoints
 62
     0
100
AcDbPoint
 10
1783.324140885113
 20
111.6240772959479
 30
0.0
  0
POINT
  5
3F
330
35
100
AcDbEntity
  8
Defpoints
 62
     0
100
AcDbPoint
 10
1954.062206437451
 20
111.6240772959478
 30
0.0
  0
ENDBLK
  5
40
330
35
100
AcDbEntity
  8
0
100
AcDbBlockEnd
  0
BLOCK
  5
42
330
41
100
AcDbEntity
  8
0
100
AcDbBlockBegin
  2
*D3
 70
     1
 10
0.0
 20
0.0
 30
0.0
  3
*D3
  1

  0
LINE
  5
43
330
41
100
AcDbEntity
  8
标注
 62
     0
370
    -2
100
AcDbLine
 10
1428.324140885113
 20
209.6240772959482
 30
0.0
 11
1428.324140885113
 21
46.99956590887086
 31
0.0
  0
LINE
  5
44
330
41
100
AcDbEntity
  8
标注
 62
     0
370
    -2
100
AcDbLine
 10
1888.324140885114
 20
209.6240772959482
 30
0.0
 11
1888.324140885114
 21
46.99956590887086
 31
0.0
  0
LINE
  5
45
330
41
100
AcDbEntity
  8
标注
 62
     0
370
    -2
100
AcDbLine
 10
1440.324140885113
 20
48.24956590887087
 30
0.0
 11
1876.324140885113
 21
48.24956590887087
 31
0.0
  0
SOLID
  5
46
330
41
100
AcDbEntity
  8
标注
 62
     0
100
AcDbTrace
 10
1440.324140885113
 20
50.24956590887086
 30
0.0
 11
1440.324140885113
 21
46.24956590887085
 31
0.0
 12
1428.324140885113
 22
48.24956590887087
 32
0.0
 13
1428.324140885113
 23
48.24956590887087
 33
0.0
  0
SOLID
  5
47
330
41
100
AcDbEntity
  8
标注
 62
     0
100
AcDbTrace
 10
1876.324140885113
 20
50.24956590887086
 30
0.0
 11
1876.324140885113
 21
46.24956590887085
 31
0.0
 12
1888.324140885114
 22
48.24956590887087
 32
0.0
 13
1888.324140885114
 23
48.24956590887087
 33
0.0
  0
MTEXT
  5
48
330
41
100
AcDbEntity
  8
标注
 62
     0
100
AcDbMText
 10
1658.324140885113
 20
60.74956590887087
 30
0.0
 40
15.0
 41
0.0
 71
     5
 72
     1
  1
460
 73
     1
 44
1.0
  0
POINT
  5
49
330
41
100
AcDbEntity
  8
Defpoints
 62
     0
100
AcDbPoint
 10
1428.324140885113
 20
216.6240772959481
 30
0.0
  0
POINT
  5
4A
330
41
100
AcDbEntity
  8
Defpoints
 62
     0
100
AcDbPoint
 10
1888.324140885114
 20
216.6240772959481
 30
0.0
  0
POINT
  5
4B
330
41
100
AcDbEntity
  8
Defpoints
 62
     0
100
AcDbPoint
 10
1888.324140885114
 20
48.24956590887087
 30
0.0
  0
ENDBLK
  5
4C
330
41
100
AcDbEntity
  8
0
100
AcDbBlockEnd
  0
BLOCK
  5
4E
330
4D
100
AcDbEntity
  8
0
100
AcDbBlockBegin
  2
*D4
 70
     1
 10
0.0
 20
0.0
 30
0.0
  3
*D4
  1

  0
LINE
  5
4F
330
4D
100
AcDbEntity
  8
标注
 62
     0
370
    -2
100
AcDbLine
 10
1779.154845446391
 20
221.6107571076672
 30
0.0
 11
1842.977137162262
 21
145.2761969128613
 31
0.0
  0
MTEXT
  5
50
330
4D
100
AcDbEntity
  8
标注
 62
     0
100
AcDbMText
 10
1816.807179768044
 20
196.0644419109397
 30
0.0
 40
15.0
 41
0.0
 71
     5
 72
     1
  1
2-R105
 11
0.6414300674961809
 21
-0.7671815094955332
 31
0.0
 73
     1
 44
1.0
  0
SOLID
  5
51
330
4D
100
AcDbEntity
  8
标注
 62
     0
100
AcDbTrace
 10
1844.511500181252
 20
146.5590570478537
 30
0.0
 11
1841.442774143271
 21
143.993336777869
 31
0.0
 12
1850.674297972216
 22
136.0700187989149
 32
0.0
 13
1850.674297972216
 23
136.0700187989149
 33
0.0
  0
POINT
  5
52
330
4D
100
AcDbEntity
  8
Defpoints
 62
     0
100
AcDbPoint
 10
1850.674297972216
 20
136.0700187989149
 30
0.0
  0
POINT
  5
53
330
4D
100
AcDbEntity
  8
Defpoints
 62
     0
100
AcDbPoint
 10
1783.324140885114
 20
216.6240772959485
 30
0.0
  0
ENDBLK
  5
54
330
4D
100
AcDbEntity
  8
0
100
AcDbBlockEnd
  0
BLOCK
  5
56
330
55
100
AcDbEntity
  8
0
100
AcDbBlockBegin
  2
*D5
 70
     1
 10
0.0
 20
0.0
 30
0.0
  3
*D5
  1

  0
LINE
  5
57
330
55
100
AcDbEntity
  8
标注
 62
     0
370
    -2
100
AcDbLine
 10
1713.619271438607
 20
498.6429885255691
 30
0.0
 11
1724.649647222594
 21
574.8488335117907
 31
0.0
  0
MTEXT
  5
58
330
55
100
AcDbEntity
  8
标注
 62
     0
100
AcDbMText
 10
1705.903870797721
 20
532.5984386470238
 30
0.0
 40
15.0
 41
0.0
 71
     5
 72
     1
  1
R475
 11
0.1432516335582736
 21
0.9896862985223581
 31
0.0
 73
     1
 44
1.0
  0
SOLID
  5
59
330
55
100
AcDbEntity
  8
标注
 62
     0
100
AcDbTrace
 10
1722.670274625549
 20
575.1353367789072
 30
0.0
 11
1726.629019819639
 21
574.5623302446744
 31
0.0
 12
1726.368666825293
 22
586.7250690940591
 32
0.0
 13
1726.368666825293
 23
586.7250690940591
 33
0.0
  0
POINT
  5
5A
330
55
100
AcDbEntity
  8
Defpoints
 62
     0
100
AcDbPoint
 10
1726.368666825293
 20
586.7250690940591
 30
0.0
  0
POINT
  5
5B
330
55
100
AcDbEntity
  8
Defpoints
 62
     0
100
AcDbPoint
 10
1658.324140885115
 20
116.6240772959481
 30
0.0
  0
ENDBLK
  5
5C
330
55
100
AcDbEntity
  8
0
100
AcDbBlockEnd
  0
BLOCK
  5
5E
330
5D
100
AcDbEntity
  8
0
100
AcDbBlockBegin
  2
*D6
 70
     1
 10
0.0
 20
0.0
 30
0.0
  3
*D6
  1

  0
LINE
  5
5F
330
5D
100
AcDbEntity
  8
标注
 62
     0
370
    -2
100
AcDbLine
 10
1648.188124199838
 20
104.6240772959481
 30
0.0
 11
1630.094752879406
 21
104.6240772959481
 31
0.0
  0
LINE
  5
60
330
5D
100
AcDbEntity
  8
标注
 62
     0
370
    -2
100
AcDbLine
 10
1648.188124199838
 20
111.624077295948
 30
0.0
 11
1630.094752879406
 21
111.624077295948
 31
0.0
  0
LINE
  5
61
330
5D
100
AcDbEntity
  8
标注
 62
     0
370
    -2
100
AcDbLine
 10
1631.344752879406
 20
92.62407729594809
 30
0.0
 11
1631.344752879406
 21
80.62407729594809
 31
0.0
  0
LINE
  5
62
330
5D
100
AcDbEntity
  8
标注
 62
     0
370
    -2
100
AcDbLine
 10
1631.344752879406
 20
123.624077295948
 30
0.0
 11
1631.344752879406
 21
155.624077295948
 31
0.0
  0
LINE
  5
63
330
5D
100
AcDbEntity
  8
标注
 62
     0
370
    -2
100
AcDbLine
 10
1631.344752879406
 20
104.6240772959481
 30
0.0
 11
1631.344752879406
 21
111.624077295948
 31
0.0
  0
SOLID
  5
64
330
5D
100
AcDbEntity
  8
标注
 62
     0
100
AcDbTrace
 10
1629.344752879406
 20
92.62407729594809
 30
0.0
 11
1633.344752879406
 21
92.62407729594809
 31
0.0
 12
1631.344752879406
 22
104.6240772959481
 32
0.0
 13
1631.344752879406
 23
104.6240772959481
 33
0.0
  0
SOLID
  5
65
330
5D
100
AcDbEntity
  8
标注
 62
     0
100
AcDbTrace
 10
1629.344752879406
 20
123.624077295948
 30
0.0
 11
1633.344752879406
 21
123.624077295948
 31
0.0
 12
1631.344752879406
 22
111.624077295948
 32
0.0
 13
1631.344752879406
 23
111.624077295948
 33
0.0
  0
MTEXT
  5
66
330
5D
100
AcDbEntity
  8
标注
 62
     0
100
AcDbMText
 10
1618.844752879406
 20
145.6240772959483
 30
0.0
 40
15.0
 41
0.0
 71
     5
 72
     1
  1
7
 11
0.0000000000000001
 21
1.0
 31
0.0
 73
     1
 44
1.0
  0
POINT
  5
67
330
5D
100
AcDbEntity
  8
Defpoints
 62
     0
100
AcDbPoint
 10
1655.188124199838
 20
104.6240772959481
 30
0.0
  0
POINT
  5
68
330
5D
100
AcDbEntity
  8
Defpoints
 62
     0
100
AcDbPoint
 10
1655.188124199838
 20
111.624077295948
 30
0.0
  0
POINT
  5
69
330
5D
100
AcDbEntity
  8
Defpoints
 62
     0
100
AcDbPoint
 10
1631.344752879406
 20
111.624077295948
 30
0.0
  0
ENDBLK
  5
6A
330
5D
100
AcDbEntity
  8
0
100
AcDbBlockEnd
  0
BLOCK
  5
6C
330
6B
100
AcDbEntity
  8
0
100
AcDbBlockBegin
  2
*D7
 70
     1
 10
0.0
 20
0.0
 30
0.0
  3
*D7
  1

  0
LINE
  5
6D
330
6B
100
AcDbEntity
  8
标注
 62
     0
370
    -2
100
AcDbLine
 10
1790.324140885114
 20
104.6240772959481
 30
0.0
 11
2001.847179963326
 21
104.6240772959481
 31
0.0
  0
LINE
  5
6E
330
6B
100
AcDbEntity
  8
标注
 62
     0
370
    -2
100
AcDbLine
 10
1662.188124199838
 20
598.6138753200862
 30
0.0
 11
2001.847179963327
 21
598.6138753200862
 31
0.0
  0
LINE
  5
6F
330
6B
100
AcDbEntity
  8
标注
 62
     0
370
    -2
100
AcDbLine
 10
2000.597179963326
 20
116.6240772959481
 30
0.0
 11
2000.597179963326
 21
586.6138753200861
 31
0.0
  0
SOLID
  5
70
330
6B
100
AcDbEntity
  8
标注
 62
     0
100
AcDbTrace
 10
1998.597179963326
 20
116.6240772959481
 30
0.0
 11
2002.597179963326
 21
116.6240772959481
 31
0.0
 12
2000.597179963326
 22
104.6240772959481
 32
0.0
 13
2000.597179963326
 23
104.6240772959481
 33
0.0
  0
SOLID
  5
71
330
6B
100
AcDbEntity
  8
标注
 62
     0
100
AcDbTrace
 10
1998.597179963326
 20
586.6138753200861
 30
0.0
 11
2002.597179963327
 21
586.6138753200861
 31
0.0
 12
2000.597179963326
 22
598.6138753200862
 32
0.0
 13
2000.597179963326
 23
598.6138753200862
 33
0.0
  0
MTEXT
  5
72
330
6B
100
AcDbEntity
  8
标注
 62
     0
100
AcDbMText
 10
1988.097179963326
 20
351.6189763080175
 30
0.0
 40
15.0
 41
0.0
 71
     5
 72
     1
  1
494
 11
0.0000000000000001
 21
1.0
 31
0.0
 73
     1
 44
1.0
  0
POINT
  5
73
330
6B
100
AcDbEntity
  8
Defpoints
 62
     0
100
AcDbPoint
 10
1783.324140885113
 20
104.6240772959481
 30
0.0
  0
POINT
  5
74
330
6B
100
AcDbEntity
  8
Defpoints
 62
     0
100
AcDbPoint
 10
1655.188124199838
 20
598.6138753200862
 30
0.0
  0
POINT
  5
75
330
6B
100
AcDbEntity
  8
Defpoints
 62
     0
100
AcDbPoint
 10
2000.597179963326
 20
598.6138753200862
 30
0.0
  0
ENDBLK
  5
76
330
6B
100
AcDbEntity
  8
0
100
AcDbBlockEnd
  0
BLOCK
  5
78
330
77
100
AcDbEntity
  8
0
100
AcDbBlockBegin
  2
*D8
 70
     1
 10
0.0
 20
0.0
 30
0.0
  3
*D8
  1

  0
LINE
  5
79
330
77
100
AcDbEntity
  8
标注
 62
     0
370
    -2
100
AcDbLine
 10
1421.324140885113
 20
209.6240772959482
 30
0.0
 11
1421.324140885113
 21
14.27779737384117
 31
0.0
  0
LINE
  5
7A
330
77
100
AcDbEntity
  8
标注
 62
     0
370
    -2
100
AcDbLine
 10
1895.324140885113
 20
209.6240772959482
 30
0.0
 11
1895.324140885113
 21
14.27779737384117
 31
0.0
  0
LINE
  5
7B
330
77
100
AcDbEntity
  8
标注
 62
     0
370
    -2
100
AcDbLine
 10
1433.324140885114
 20
15.52779737384117
 30
0.0
 11
1883.324140885114
 21
15.52779737384117
 31
0.0
  0
SOLID
  5
7C
330
77
100
AcDbEntity
  8
标注
 62
     0
100
AcDbTrace
 10
1433.324140885114
 20
17.52779737384116
 30
0.0
 11
1433.324140885114
 21
13.52779737384117
 31
0.0
 12
1421.324140885113
 22
15.52779737384117
 32
0.0
 13
1421.324140885113
 23
15.52779737384117
 33
0.0
  0
SOLID
  5
7D
330
77
100
AcDbEntity
  8
标注
 62
     0
100
AcDbTrace
 10
1883.324140885114
 20
17.52779737384116
 30
0.0
 11
1883.324140885114
 21
13.52779737384117
 31
0.0
 12
1895.324140885113
 22
15.52779737384117
 32
0.0
 13
1895.324140885113
 23
15.52779737384117
 33
0.0
  0
MTEXT
  5
7E
330
77
100
AcDbEntity
  8
标注
 62
     0
100
AcDbMText
 10
1658.324140885113
 20
28.02779737384117
 30
0.0
 40
15.0
 41
0.0
 71
     5
 72
     1
  1
474
 73
     1
 44
1.0
  0
POINT
  5
7F
330
77
100
AcDbEntity
  8
Defpoints
 62
     0
100
AcDbPoint
 10
1421.324140885113
 20
216.6240772959481
 30
0.0
  0
POINT
  5
80
330
77
100
AcDbEntity
  8
Defpoints
 62
     0
100
AcDbPoint
 10
1895.324140885113
 20
216.6240772959481
 30
0.0
  0
POINT
  5
81
330
77
100
AcDbEntity
  8
Defpoints
 62
     0
100
AcDbPoint
 10
1895.324140885113
 20
15.52779737384117
 30
0.0
  0
ENDBLK
  5
82
330
77
100
AcDbEntity
  8
0
100
AcDbBlockEnd
  0
BLOCK
  5
E6
330
DC
100
AcDbEntity
  8
0
100
AcDbBlockBegin
  2
*D9
 70
     1
 10
0.0
 20
0.0
 30
0.0
  3
*D9
  1

  0
LINE
  5
1C1
330
DC
100
AcDbEntity
  8
标注
 62
     0
370
    -2
100
AcDbLine
 10
402.0499509234626
 20
662.5935315758002
 30
0.0
 11
682.1740331610757
 21
662.5935315758002
 31
0.0
  0
LINE
  5
1C2
330
DC
100
AcDbEntity
  8
标注
 62
     0
370
    -2
100
AcDbLine
 10
530.1859676087376
 20
182.603883899822
 30
0.0
 11
682.1740331610754
 21
182.6038838998219
 31
0.0
  0
LINE
  5
1C3
330
DC
100
AcDbEntity
  8
标注
 62
     0
370
    -2
100
AcDbLine
 10
680.9240331610757
 20
650.5935315758001
 30
0.0
 11
680.9240331610757
 21
440.0987077378109
 31
0.0
  0
LINE
  5
1C4
330
DC
100
AcDbEntity
  8
标注
 62
     0
370
    -2
100
AcDbLine
 10
680.9240331610756
 20
194.6038838998219
 30
0.0
 11
680.9240331610757
 21
405.0987077378109
 31
0.0
  0
SOLID
  5
1C5
330
DC
100
AcDbEntity
  8
标注
 62
     0
100
AcDbTrace
 10
678.9240331610757
 20
650.5935315758001
 30
0.0
 11
682.9240331610757
 21
650.5935315758001
 31
0.0
 12
680.9240331610757
 22
662.5935315758002
 32
0.0
 13
680.9240331610757
 23
662.5935315758002
 33
0.0
  0
SOLID
  5
1C6
330
DC
100
AcDbEntity
  8
标注
 62
     0
100
AcDbTrace
 10
678.9240331610756
 20
194.6038838998219
 30
0.0
 11
682.9240331610756
 21
194.6038838998219
 31
0.0
 12
680.9240331610756
 22
182.6038838998219
 32
0.0
 13
680.9240331610756
 23
182.6038838998219
 33
0.0
  0
MTEXT
  5
1C7
330
DC
100
AcDbEntity
  8
标注
 62
     0
100
AcDbMText
 10
680.9240331610756
 20
422.5987077378111
 30
0.0
 40
10.0
 41
0.0
 71
     5
 72
     1
  1
480
 11
0.0000000000000001
 21
1.0
 31
0.0
 73
     1
 44
1.0
  0
POINT
  5
1C8
330
DC
100
AcDbEntity
  8
Defpoints
 62
     0
100
AcDbPoint
 10
382.0499509234628
 20
662.5935315758002
 30
0.0
  0
POINT
  5
1C9
330
DC
100
AcDbEntity
  8
Defpoints
 62
     0
100
AcDbPoint
 10
510.1859676087376
 20
182.603883899822
 30
0.0
  0
POINT
  5
1CA
330
DC
100
AcDbEntity
  8
Defpoints
 62
     0
100
AcDbPoint
 10
680.9240331610756
 20
182.6038838998219
 30
0.0
  0
ENDBLK
  5
E7
330
DC
100
AcDbEntity
  8
0
100
AcDbBlockEnd
  0
BLOCK
  5
F4
330
E8
100
AcDbEntity
  8
0
100
AcDbBlockBegin
  2
*D10
 70
     1
 10
0.0
 20
0.0
 30
0.0
  3
*D10
  1

  0
LINE
  5
123
330
E8
100
AcDbEntity
  8
标注
 62
     0
370
    -2
100
AcDbLine
 10
375.0499509234628
 20
175.6038838998222
 30
0.0
 11
356.9565796030308
 21
175.6038838998222
 31
0.0
  0
LINE
  5
124
330
E8
100
AcDbEntity
  8
标注
 62
     0
370
    -2
100
AcDbLine
 10
375.0499509234628
 20
182.603883899822
 30
0.0
 11
356.9565796030308
 21
182.603883899822
 31
0.0
  0
LINE
  5
125
330
E8
100
AcDbEntity
  8
标注
 62
     0
370
    -2
100
AcDbLine
 10
358.2065796030308
 20
163.6038838998221
 30
0.0
 11
358.2065796030308
 21
151.6038838998222
 31
0.0
  0
LINE
  5
126
330
E8
100
AcDbEntity
  8
标注
 62
     0
370
    -2
100
AcDbLine
 10
358.2065796030308
 20
194.6038838998221
 30
0.0
 11
358.2065796030308
 21
226.6038838998221
 31
0.0
  0
LINE
  5
127
330
E8
100
AcDbEntity
  8
标注
 62
     0
370
    -2
100
AcDbLine
 10
358.2065796030308
 20
175.6038838998222
 30
0.0
 11
358.2065796030308
 21
182.603883899822
 31
0.0
  0
SOLID
  5
128
330
E8
100
AcDbEntity
  8
标注
 62
     0
100
AcDbTrace
 10
356.2065796030308
 20
163.6038838998221
 30
0.0
 11
360.2065796030308
 21
163.6038838998221
 31
0.0
 12
358.2065796030308
 22
175.6038838998222
 32
0.0
 13
358.2065796030308
 23
175.6038838998222
 33
0.0
  0
SOLID
  5
129
330
E8
100
AcDbEntity
  8
标注
 62
     0
100
AcDbTrace
 10
356.2065796030308
 20
194.6038838998221
 30
0.0
 11
360.2065796030308
 21
194.6038838998221
 31
0.0
 12
358.2065796030308
 22
182.603883899822
 32
0.0
 13
358.2065796030308
 23
182.603883899822
 33
0.0
  0
MTEXT
  5
12A
330
E8
100
AcDbEntity
  8
标注
 62
     0
100
AcDbMText
 10
345.7065796030308
 20
216.6038838998221
 30
0.0
 40
15.0
 41
0.0
 71
     5
 72
     1
  1
7
 11
0.0000000000000001
 21
1.0
 31
0.0
 73
     1
 44
1.0
  0
POINT
  5
12B
330
E8
100
AcDbEntity
  8
Defpoints
 62
     0
100
AcDbPoint
 10
382.0499509234628
 20
175.6038838998222
 30
0.0
  0
POINT
  5
12C
330
E8
100
AcDbEntity
  8
Defpoints
 62
     0
100
AcDbPoint
 10
382.0499509234628
 20
182.603883899822
 30
0.0
  0
POINT
  5
12D
330
E8
100
AcDbEntity
  8
Defpoints
 62
     0
100
AcDbPoint
 10
358.2065796030308
 20
182.603883899822
 30
0.0
  0
ENDBLK
  5
F5
330
E8
100
AcDbEntity
  8
0
100
AcDbBlockEnd
  0
BLOCK
  5
FC
330
F6
100
AcDbEntity
  8
0
100
AcDbBlockBegin
  2
*D11
 70
     1
 10
0.0
 20
0.0
 30
0.0
  3
*D11
  1

  0
LINE
  5
1DF
330
F6
100
AcDbEntity
  8
标注
 62
     0
370
    -2
100
AcDbLine
 10
541.1628879099987
 20
545.1113043634378
 30
0.0
 11
581.5017110624531
 21
569.2314069062341
 31
0.0
  0
MTEXT
  5
1E0
330
F6
100
AcDbEntity
  8
标注
 62
     0
100
AcDbMText
 10
476.7924254326777
 20
506.6217790291886
 30
0.0
 40
10.0
 41
0.0
 71
     5
 72
     1
  1
R165mm [R6 1/2"]
 11
0.8582728330309457
 21
0.5131936711233239
 31
0.0
 73
     1
 44
1.0
  0
SOLID
  5
1E1
330
F6
100
AcDbEntity
  8
标注
 62
     0
100
AcDbTrace
 10
580.4753237202065
 20
570.9479525722961
 30
0.0
 11
582.5280984047
 21
567.5148612401723
 31
0.0
 12
591.8009850588246
 22
575.389730959714
 32
0.0
 13
591.8009850588246
 23
575.389730959714
 33
0.0
  0
POINT
  5
1E2
330
F6
100
AcDbEntity
  8
Defpoints
 62
     0
100
AcDbPoint
 10
591.8009850588246
 20
575.389730959714
 30
0.0
  0
POINT
  5
1E3
330
F6
100
AcDbEntity
  8
Defpoints
 62
     0
100
AcDbPoint
 10
450.1859676087376
 20
490.7127752243771
 30
0.0
  0
ENDBLK
  5
FD
330
F6
100
AcDbEntity
  8
0
100
AcDbBlockEnd
  0
BLOCK
  5
111
330
107
100
AcDbEntity
  8
0
100
AcDbBlockBegin
  2
*D12
 70
     1
 10
0.0
 20
0.0
 30
0.0
  3
*D12
  1

  0
LINE
  5
1CB
330
107
100
AcDbEntity
  8
标注
 62
     0
370
    -2
100
AcDbLine
 10
155.1859676087376
 20
267.6038838998222
 30
0.0
 11
155.1859676087376
 21
117.9793725127449
 31
0.0
  0
LINE
  5
1CC
330
107
100
AcDbEntity
  8
标注
 62
     0
370
    -2
100
AcDbLine
 10
615.1859676087387
 20
267.6038838998222
 30
0.0
 11
615.1859676087387
 21
117.9793725127449
 31
0.0
  0
LINE
  5
1CD
330
107
100
AcDbEntity
  8
标注
 62
     0
370
    -2
100
AcDbLine
 10
167.1859676087376
 20
119.2293725127449
 30
0.0
 11
316.019300942071
 21
119.2293725127449
 31
0.0
  0
LINE
  5
1CE
330
107
100
AcDbEntity
  8
标注
 62
     0
370
    -2
100
AcDbLine
 10
603.1859676087387
 20
119.2293725127449
 30
0.0
 11
454.3526342754041
 21
119.2293725127449
 31
0.0
  0
SOLID
  5
1CF
330
107
100
AcDbEntity
  8
标注
 62
     0
100
AcDbTrace
 10
167.1859676087376
 20
121.2293725127449
 30
0.0
 11
167.1859676087376
 21
117.2293725127449
 31
0.0
 12
155.1859676087376
 22
119.2293725127449
 32
0.0
 13
155.1859676087376
 23
119.2293725127449
 33
0.0
  0
SOLID
  5
1D0
330
107
100
AcDbEntity
  8
标注
 62
     0
100
AcDbTrace
 10
603.1859676087387
 20
121.2293725127449
 30
0.0
 11
603.1859676087387
 21
117.2293725127449
 31
0.0
 12
615.1859676087387
 22
119.2293725127449
 32
0.0
 13
615.1859676087387
 23
119.2293725127449
 33
0.0
  0
MTEXT
  5
1D1
330
107
100
AcDbEntity
  8
标注
 62
     0
100
AcDbMText
 10
385.1859676087376
 20
119.2293725127449
 30
0.0
 40
10.0
 41
0.0
 71
     5
 72
     1
  1
460mm [18 1/8"]
 73
     1
 44
1.0
  0
POINT
  5
1D2
330
107
100
AcDbEntity
  8
Defpoints
 62
     0
100
AcDbPoint
 10
155.1859676087376
 20
287.6038838998222
 30
0.0
  0
POINT
  5
1D3
330
107
100
AcDbEntity
  8
Defpoints
 62
     0
100
AcDbPoint
 10
615.1859676087387
 20
287.6038838998222
 30
0.0
  0
POINT
  5
1D4
330
107
100
AcDbEntity
  8
Defpoints
 62
     0
100
AcDbPoint
 10
615.1859676087387
 20
119.2293725127449
 30
0.0
  0
ENDBLK
  5
112
330
107
100
AcDbEntity
  8
0
100
AcDbBlockEnd
  0
BLOCK
  5
119
330
113
100
AcDbEntity
  8
0
100
AcDbBlockBegin
  2
*D13
 70
     1
 10
0.0
 20
0.0
 30
0.0
  3
*D13
  1

  0
LINE
  5
1E4
330
113
100
AcDbEntity
  8
标注
 62
     0
370
    -2
100
AcDbLine
 10
539.9590132416874
 20
251.9938755007346
 30
0.0
 11
569.8389638858846
 21
216.2560035167346
 31
0.0
  0
MTEXT
  5
1E5
330
113
100
AcDbEntity
  8
标注
 62
     0
100
AcDbMText
 10
492.3862832357204
 20
308.8931707883198
 30
0.0
 40
10.0
 41
0.0
 71
     5
 72
     1
  1
R105mm [R4 1/8"]
 11
0.6414300674961849
 21
-0.7671815094955298
 31
0.0
 73
     1
 44
1.0
  0
SOLID
  5
1E6
330
113
100
AcDbEntity
  8
标注
 62
     0
100
AcDbTrace
 10
571.3733269048756
 20
217.5388636517269
 30
0.0
 11
568.3046008668932
 21
214.9731433817422
 31
0.0
 12
577.5361246958388
 22
207.0498254027882
 32
0.0
 13
577.5361246958388
 23
207.0498254027882
 33
0.0
  0
POINT
  5
1E7
330
113
100
AcDbEntity
  8
Defpoints
 62
     0
100
AcDbPoint
 10
577.5361246958388
 20
207.0498254027882
 30
0.0
  0
POINT
  5
1E8
330
113
100
AcDbEntity
  8
Defpoints
 62
     0
100
AcDbPoint
 10
510.185967608737
 20
287.6038838998218
 30
0.0
  0
ENDBLK
  5
11A
330
113
100
AcDbEntity
  8
0
100
AcDbBlockEnd
  0
BLOCK
  5
121
330
11B
100
AcDbEntity
  8
0
100
AcDbBlockBegin
  2
*D14
 70
     1
 10
0.0
 20
0.0
 30
0.0
  3
*D14
  1

  0
LINE
  5
1E9
330
11B
100
AcDbEntity
  8
标注
 62
     0
370
    -2
100
AcDbLine
 10
303.5695609460507
 20
588.6842610168939
 30
0.0
 11
292.8615800210713
 21
641.3055562094519
 31
0.0
  0
MTEXT
  5
1EA
330
11B
100
AcDbEntity
  8
标注
 62
     0
100
AcDbMText
 10
319.8542801389799
 20
508.6576881473034
 30
0.0
 40
10.0
 41
0.0
 71
     5
 72
     1
  1
R475mm [R18 3/4"]
 11
0.1994047248113789
 21
-0.9799172188113127
 31
0.0
 73
     1
 44
1.0
  0
SOLID
  5
1EB
330
11B
100
AcDbEntity
  8
标注
 62
     0
100
AcDbTrace
 10
294.821414458694
 20
641.7043656590748
 30
0.0
 11
290.9017455834487
 21
640.9067467598291
 31
0.0
 12
290.4687233233348
 22
653.0645628351877
 32
0.0
 13
290.4687233233348
 23
653.0645628351877
 33
0.0
  0
POINT
  5
1EC
330
11B
100
AcDbEntity
  8
Defpoints
 62
     0
100
AcDbPoint
 10
290.4687233233348
 20
653.0645628351877
 30
0.0
  0
POINT
  5
1ED
330
11B
100
AcDbEntity
  8
Defpoints
 62
     0
100
AcDbPoint
 10
385.185967608738
 20
187.6038838998223
 30
0.0
  0
ENDBLK
  5
122
330
11B
100
AcDbEntity
  8
0
100
AcDbBlockEnd
  0
BLOCK
  5
138
330
12E
100
AcDbEntity
  8
0
100
AcDbBlockBegin
  2
*D15
 70
     1
 10
0.0
 20
0.0
 30
0.0
  3
*D15
  1

  0
LINE
  5
12F
330
12E
100
AcDbEntity
  8
标注
 62
     0
370
    -2
100
AcDbLine
 10
517.1859676087376
 20
175.6038838998222
 30
0.0
 11
728.7090066869507
 21
175.6038838998221
 31
0.0
  0
LINE
  5
130
330
12E
100
AcDbEntity
  8
标注
 62
     0
370
    -2
100
AcDbLine
 10
389.0499509234628
 20
669.5936819239602
 30
0.0
 11
728.7090066869507
 21
669.5936819239602
 31
0.0
  0
LINE
  5
131
330
12E
100
AcDbEntity
  8
标注
 62
     0
370
    -2
100
AcDbLine
 10
727.4590066869507
 20
187.6038838998221
 30
0.0
 11
727.4590066869507
 21
657.5936819239602
 31
0.0
  0
SOLID
  5
132
330
12E
100
AcDbEntity
  8
标注
 62
     0
100
AcDbTrace
 10
725.4590066869507
 20
187.6038838998221
 30
0.0
 11
729.4590066869507
 21
187.6038838998221
 31
0.0
 12
727.4590066869507
 22
175.6038838998221
 32
0.0
 13
727.4590066869507
 23
175.6038838998221
 33
0.0
  0
SOLID
  5
133
330
12E
100
AcDbEntity
  8
标注
 62
     0
100
AcDbTrace
 10
725.4590066869507
 20
657.5936819239602
 30
0.0
 11
729.4590066869507
 21
657.5936819239602
 31
0.0
 12
727.4590066869507
 22
669.5936819239602
 32
0.0
 13
727.4590066869507
 23
669.5936819239602
 33
0.0
  0
MTEXT
  5
134
330
12E
100
AcDbEntity
  8
标注
 62
     0
100
AcDbMText
 10
714.9590066869507
 20
422.5987829118913
 30
0.0
 40
15.0
 41
0.0
 71
     5
 72
     1
  1
494
 11
0.0000000000000001
 21
1.0
 31
0.0
 73
     1
 44
1.0
  0
POINT
  5
135
330
12E
100
AcDbEntity
  8
Defpoints
 62
     0
100
AcDbPoint
 10
510.1859676087376
 20
175.6038838998222
 30
0.0
  0
POINT
  5
136
330
12E
100
AcDbEntity
  8
Defpoints
 62
     0
100
AcDbPoint
 10
382.0499509234628
 20
669.5936819239602
 30
0.0
  0
POINT
  5
137
330
12E
100
AcDbEntity
  8
Defpoints
 62
     0
100
AcDbPoint
 10
727.4590066869507
 20
669.5936819239602
 30
0.0
  0
ENDBLK
  5
139
330
12E
100
AcDbEntity
  8
0
100
AcDbBlockEnd
  0
BLOCK
  5
144
330
13A
100
AcDbEntity
  8
0
100
AcDbBlockBegin
  2
*D16
 70
     1
 10
0.0
 20
0.0
 30
0.0
  3
*D16
  1

  0
LINE
  5
13B
330
13A
100
AcDbEntity
  8
标注
 62
     0
370
    -2
100
AcDbLine
 10
148.1859676087376
 20
280.6038838998222
 30
0.0
 11
148.1859676087376
 21
85.25760397771524
 31
0.0
  0
LINE
  5
13C
330
13A
100
AcDbEntity
  8
标注
 62
     0
370
    -2
100
AcDbLine
 10
622.1859676087376
 20
280.6038838998222
 30
0.0
 11
622.1859676087376
 21
85.25760397771524
 31
0.0
  0
LINE
  5
13D
330
13A
100
AcDbEntity
  8
标注
 62
     0
370
    -2
100
AcDbLine
 10
160.1859676087376
 20
86.50760397771522
 30
0.0
 11
610.1859676087376
 21
86.50760397771522
 31
0.0
  0
SOLID
  5
13E
330
13A
100
AcDbEntity
  8
标注
 62
     0
100
AcDbTrace
 10
160.1859676087376
 20
88.50760397771521
 30
0.0
 11
160.1859676087376
 21
84.50760397771523
 31
0.0
 12
148.1859676087376
 22
86.50760397771522
 32
0.0
 13
148.1859676087376
 23
86.50760397771522
 33
0.0
  0
SOLID
  5
13F
330
13A
100
AcDbEntity
  8
标注
 62
     0
100
AcDbTrace
 10
610.1859676087376
 20
88.50760397771521
 30
0.0
 11
610.1859676087376
 21
84.50760397771523
 31
0.0
 12
622.1859676087376
 22
86.50760397771522
 32
0.0
 13
622.1859676087376
 23
86.50760397771522
 33
0.0
  0
MTEXT
  5
140
330
13A
100
AcDbEntity
  8
标注
 62
     0
100
AcDbMText
 10
385.1859676087376
 20
99.00760397771522
 30
0.0
 40
15.0
 41
0.0
 71
     5
 72
     1
  1
474
 73
     1
 44
1.0
  0
POINT
  5
141
330
13A
100
AcDbEntity
  8
Defpoints
 62
     0
100
AcDbPoint
 10
148.1859676087376
 20
287.6038838998222
 30
0.0
  0
POINT
  5
142
330
13A
100
AcDbEntity
  8
Defpoints
 62
     0
100
AcDbPoint
 10
622.1859676087376
 20
287.6038838998222
 30
0.0
  0
POINT
  5
143
330
13A
100
AcDbEntity
  8
Defpoints
 62
     0
100
AcDbPoint
 10
622.1859676087376
 20
86.50760397771522
 30
0.0
  0
ENDBLK
  5
145
330
13A
100
AcDbEntity
  8
0
100
AcDbBlockEnd
  0
BLOCK
  5
1FA
330
1EF
100
AcDbEntity
  8
0
100
AcDbBlockBegin
  2
*D17
 70
     1
 10
0.0
 20
0.0
 30
0.0
  3
*D17
  1

  0
LINE
  5
206
330
1EF
100
AcDbEntity
  8
标注
 62
     0
370
    -2
100
AcDbLine
 10
402.0499509234626
 20
662.5935315758002
 30
0.0
 11
682.9965224126407
 21
662.5935315758002
 31
0.0
  0
LINE
  5
207
330
1EF
100
AcDbEntity
  8
标注
 62
     0
370
    -2
100
AcDbLine
 10
530.1859676087376
 20
182.603883899822
 30
0.0
 11
682.9965224126405
 21
182.6038838998219
 31
0.0
  0
LINE
  5
208
330
1EF
100
AcDbEntity
  8
标注
 62
     0
370
    -2
100
AcDbLine
 10
681.7465224126407
 20
650.5935315758001
 30
0.0
 11
681.7465224126407
 21
493.4320410711443
 31
0.0
  0
LINE
  5
209
330
1EF
100
AcDbEntity
  8
标注
 62
     0
370
    -2
100
AcDbLine
 10
681.7465224126406
 20
194.6038838998219
 30
0.0
 11
681.7465224126407
 21
351.7653744044777
 31
0.0
  0
SOLID
  5
20A
330
1EF
100
AcDbEntity
  8
标注
 62
     0
100
AcDbTrace
 10
679.7465224126407
 20
650.5935315758001
 30
0.0
 11
683.7465224126407
 21
650.5935315758001
 31
0.0
 12
681.7465224126407
 22
662.5935315758002
 32
0.0
 13
681.7465224126407
 23
662.5935315758002
 33
0.0
  0
SOLID
  5
20B
330
1EF
100
AcDbEntity
  8
标注
 62
     0
100
AcDbTrace
 10
679.7465224126406
 20
194.6038838998219
 30
0.0
 11
683.7465224126406
 21
194.6038838998219
 31
0.0
 12
681.7465224126406
 22
182.6038838998219
 32
0.0
 13
681.7465224126406
 23
182.6038838998219
 33
0.0
  0
MTEXT
  5
20C
330
1EF
100
AcDbEntity
  8
标注
 62
     0
100
AcDbMText
 10
681.7465224126406
 20
422.5987077378111
 30
0.0
 40
10.0
 41
0.0
 71
     5
 72
     1
  1
480mm [18 7/8"]
 11
0.0000000000000001
 21
1.0
 31
0.0
 73
     1
 44
1.0
  0
POINT
  5
20D
330
1EF
100
AcDbEntity
  8
Defpoints
 62
     0
100
AcDbPoint
 10
382.0499509234628
 20
662.5935315758002
 30
0.0
  0
POINT
  5
20E
330
1EF
100
AcDbEntity
  8
Defpoints
 62
     0
100
AcDbPoint
 10
510.1859676087376
 20
182.603883899822
 30
0.0
  0
POINT
  5
20F
330
1EF
100
AcDbEntity
  8
Defpoints
 62
     0
100
AcDbPoint
 10
681.7465224126406
 20
182.6038838998219
 30
0.0
  0
ENDBLK
  5
1FB
330
1EF
100
AcDbEntity
  8
0
100
AcDbBlockEnd
  0
BLOCK
  5
21E
330
218
100
AcDbEntity
  8
0
100
AcDbBlockBegin
  2
*D18
 70
     1
 10
0.0
 20
0.0
 30
0.0
  3
*D18
  1

  0
LINE
  5
24C
330
218
100
AcDbEntity
  8
标注
 62
     0
370
    -2
100
AcDbLine
 10
547.5091385408139
 20
592.7382641951527
 30
0.0
 11
555.7919615988628
 21
601.4212845330911
 31
0.0
  0
MTEXT
  5
24D
330
218
100
AcDbEntity
  8
标注
 62
     0
100
AcDbMText
 10
495.7414944280072
 20
538.4693870830381
 30
0.0
 40
10.0
 41
0.0
 71
     5
 72
     1
  1
R165mm [R6 1/2"]
 11
0.6902352548374208
 21
0.7235850281615292
 31
0.0
 73
     1
 44
1.0
  0
SOLID
  5
24E
330
218
100
AcDbEntity
  8
标注
 62
     0
100
AcDbTrace
 10
554.3447915425398
 20
602.801755042766
 30
0.0
 11
557.239131655186
 21
600.0408140234164
 31
0.0
 12
564.0747846569118
 22
610.1043048710295
 32
0.0
 13
564.0747846569118
 23
610.1043048710295
 33
0.0
  0
POINT
  5
24F
330
218
100
AcDbEntity
  8
Defpoints
 62
     0
100
AcDbPoint
 10
564.0747846569118
 20
610.1043048710295
 30
0.0
  0
POINT
  5
250
330
218
100
AcDbEntity
  8
Defpoints
 62
     0
100
AcDbPoint
 10
450.1859676087376
 20
490.7127752243773
 30
0.0
  0
ENDBLK
  5
21F
330
218
100
AcDbEntity
  8
0
100
AcDbBlockEnd
  0
BLOCK
  5
22E
330
228
100
AcDbEntity
  8
0
100
AcDbBlockBegin
  2
*D19
 70
     1
 10
0.0
 20
0.0
 30
0.0
  3
*D19
  1

  0
LINE
  5
251
330
228
100
AcDbEntity
  8
标注
 62
     0
370
    -2
100
AcDbLine
 10
574.0912957957069
 20
237.8333200159787
 30
0.0
 11
583.5587518234056
 21
230.4599031442982
 31
0.0
  0
MTEXT
  5
252
330
228
100
AcDbEntity
  8
标注
 62
     0
100
AcDbMText
 10
515.5771578467329
 20
283.4051326256708
 30
0.0
 40
10.0
 41
0.0
 71
     5
 72
     1
  1
R105mm [R4 1/8"]
 11
0.7889546689749303
 21
-0.6144514059733757
 31
0.0
 73
     1
 44
1.0
  0
SOLID
  5
253
330
228
100
AcDbEntity
  8
标注
 62
     0
100
AcDbTrace
 10
584.7876546353527
 20
232.0378124822481
 30
0.0
 11
582.3298490114592
 21
228.8819938063484
 31
0.0
 12
593.0262078511052
 22
223.0864862726177
 32
0.0
 13
593.0262078511052
 23
223.0864862726177
 33
0.0
  0
POINT
  5
254
330
228
100
AcDbEntity
  8
Defpoints
 62
     0
100
AcDbPoint
 10
593.0262078511052
 20
223.0864862726177
 30
0.0
  0
POINT
  5
255
330
228
100
AcDbEntity
  8
Defpoints
 62
     0
100
AcDbPoint
 10
510.1859676087374
 20
287.6038838998223
 30
0.0
  0
ENDBLK
  5
22F
330
228
100
AcDbEntity
  8
0
100
AcDbBlockEnd
  0
BLOCK
  5
23E
330
238
100
AcDbEntity
  8
0
100
AcDbBlockBegin
  2
*D20
 70
     1
 10
0.0
 20
0.0
 30
0.0
  3
*D20
  1

  0
LINE
  5
247
330
238
100
AcDbEntity
  8
标注
 62
     0
370
    -2
100
AcDbLine
 10
243.258059871084
 20
608.8783243963197
 30
0.0
 11
236.7110038934112
 21
618.9349668790383
 31
0.0
  0
MTEXT
  5
248
330
238
100
AcDbEntity
  8
标注
 62
     0
100
AcDbMText
 10
284.1771597315385
 20
546.0243088793288
 30
0.0
 40
10.0
 41
0.0
 71
     5
 72
     1
  1
R165mm [R6 1/2"]
 11
0.5455879981393938
 21
-0.8380535402265472
 31
0.0
 73
     1
 44
1.0
  0
SOLID
  5
249
330
238
100
AcDbEntity
  8
标注
 62
     0
100
AcDbTrace
 10
238.3871109738644
 20
620.0261428753171
 30
0.0
 11
235.0348968129581
 21
617.8437908827596
 31
0.0
 12
230.1639479157385
 22
628.9916093617571
 32
0.0
 13
230.1639479157385
 23
628.9916093617571
 33
0.0
  0
POINT
  5
24A
330
238
100
AcDbEntity
  8
Defpoints
 62
     0
100
AcDbPoint
 10
230.1639479157385
 20
628.9916093617571
 30
0.0
  0
POINT
  5
24B
330
238
100
AcDbEntity
  8
Defpoints
 62
     0
100
AcDbPoint
 10
320.1859676087384
 20
490.7127752243765
 30
0.0
  0
ENDBLK
  5
23F
330
238
100
AcDbEntity
  8
0
100
AcDbBlockEnd
  0
BLOCK
  5
29A
330
28F
100
AcDbEntity
  8
0
100
AcDbBlockBegin
  2
*D21
 70
     1
 10
0.0
 20
0.0
 30
0.0
  3
*D21
  1

  0
LINE
  5
2DC
330
28F
100
AcDbEntity
  8
标注
 62
     0
370
    -2
100
AcDbLine
 10
980.9172644298481
 20
637.2976071052228
 30
0.0
 11
731.9960273171377
 21
637.2976071052228
 31
0.0
  0
LINE
  5
2DD
330
28F
100
AcDbEntity
  8
标注
 62
     0
370
    -2
100
AcDbLine
 10
980.9172644298458
 20
153.2976071052228
 30
0.0
 11
731.9960273171377
 21
153.2976071052229
 31
0.0
  0
LINE
  5
2DE
330
28F
100
AcDbEntity
  8
标注
 62
     0
370
    -2
100
AcDbLine
 10
733.2460273171379
 20
625.2976071052228
 30
0.0
 11
733.2460273171379
 21
446.9642737718896
 31
0.0
  0
LINE
  5
2DF
330
28F
100
AcDbEntity
  8
标注
 62
     0
370
    -2
100
AcDbLine
 10
733.2460273171378
 20
165.2976071052229
 30
0.0
 11
733.2460273171379
 21
343.6309404385562
 31
0.0
  0
SOLID
  5
2E0
330
28F
100
AcDbEntity
  8
标注
 62
     0
100
AcDbTrace
 10
731.2460273171377
 20
625.2976071052228
 30
0.0
 11
735.2460273171377
 21
625.2976071052228
 31
0.0
 12
733.2460273171379
 22
637.2976071052228
 32
0.0
 13
733.2460273171379
 23
637.2976071052228
 33
0.0
  0
SOLID
  5
2E1
330
28F
100
AcDbEntity
  8
标注
 62
     0
100
AcDbTrace
 10
731.2460273171377
 20
165.2976071052229
 30
0.0
 11
735.2460273171377
 21
165.2976071052229
 31
0.0
 12
733.2460273171378
 22
153.2976071052229
 32
0.0
 13
733.2460273171378
 23
153.2976071052229
 33
0.0
  0
MTEXT
  5
2E2
330
28F
100
AcDbEntity
  8
标注
 62
     0
100
AcDbMText
 10
733.2460273171378
 20
395.297607105223
 30
0.0
 40
10.0
 41
0.0
 71
     5
 72
     1
  1
484mm [19"]
 11
0.0000000000000001
 21
1.0
 31
0.0
 73
     1
 44
1.0
  0
POINT
  5
2E3
330
28F
100
AcDbEntity
  8
Defpoints
 62
     0
100
AcDbPoint
 10
1000.917264429848
 20
637.2976071052228
 30
0.0
  0
POINT
  5
2E4
330
28F
100
AcDbEntity
  8
Defpoints
 62
     0
100
AcDbPoint
 10
1000.917264429846
 20
153.2976071052228
 30
0.0
  0
POINT
  5
2E5
330
28F
100
AcDbEntity
  8
Defpoints
 62
     0
100
AcDbPoint
 10
733.2460273171378
 20
153.2976071052229
 30
0.0
  0
ENDBLK
  5
29B
330
28F
100
AcDbEntity
  8
0
100
AcDbBlockEnd
  0
BLOCK
  5
2B4
330
2A9
100
AcDbEntity
  8
0
100
AcDbBlockBegin
  2
*D22
 70
     1
 10
0.0
 20
0.0
 30
0.0
  3
*D22
  1

  0
LINE
  5
2B7
330
2A9
100
AcDbEntity
  8
标注
 62
     0
370
    -2
100
AcDbLine
 10
1457.240628276275
 20
580.3353852052327
 30
0.0
 11
1645.251352526545
 21
580.3353852052327
 31
0.0
  0
LINE
  5
2B8
330
2A9
100
AcDbEntity
  8
标注
 62
     0
370
    -2
100
AcDbLine
 10
1417.917264429845
 20
153.2976071052226
 30
0.0
 11
1645.251352526545
 21
153.2976071052225
 31
0.0
  0
LINE
  5
2B9
330
2A9
100
AcDbEntity
  8
标注
 62
     0
370
    -2
100
AcDbLine
 10
1644.001352526546
 20
568.3353852052327
 30
0.0
 11
1644.001352526545
 21
438.4831628218943
 31
0.0
  0
LINE
  5
2BA
330
2A9
100
AcDbEntity
  8
标注
 62
     0
370
    -2
100
AcDbLine
 10
1644.001352526545
 20
165.2976071052225
 30
0.0
 11
1644.001352526545
 21
295.1498294885611
 31
0.0
  0
SOLID
  5
2BB
330
2A9
100
AcDbEntity
  8
标注
 62
     0
100
AcDbTrace
 10
1642.001352526546
 20
568.3353852052327
 30
0.0
 11
1646.001352526545
 21
568.3353852052327
 31
0.0
 12
1644.001352526546
 22
580.3353852052327
 32
0.0
 13
1644.001352526546
 23
580.3353852052327
 33
0.0
  0
SOLID
  5
2BC
330
2A9
100
AcDbEntity
  8
标注
 62
     0
100
AcDbTrace
 10
1642.001352526545
 20
165.2976071052225
 30
0.0
 11
1646.001352526545
 21
165.2976071052225
 31
0.0
 12
1644.001352526545
 22
153.2976071052225
 32
0.0
 13
1644.001352526545
 23
153.2976071052225
 33
0.0
  0
MTEXT
  5
2BD
330
2A9
100
AcDbEntity
  8
标注
 62
     0
100
AcDbMText
 10
1644.001352526545
 20
366.816496155228
 30
0.0
 40
10.0
 41
0.0
 71
     5
 72
     1
  1
427mm [16 7/8"]
 11
0.0000000000000001
 21
1.0
 31
0.0
 73
     1
 44
1.0
  0
POINT
  5
2BE
330
2A9
100
AcDbEntity
  8
Defpoints
 62
     0
100
AcDbPoint
 10
1437.240628276275
 20
580.3353852052327
 30
0.0
  0
POINT
  5
2BF
330
2A9
100
AcDbEntity
  8
Defpoints
 62
     0
100
AcDbPoint
 10
1397.917264429845
 20
153.2976071052226
 30
0.0
  0
POINT
  5
2C0
330
2A9
100
AcDbEntity
  8
Defpoints
 62
     0
100
AcDbPoint
 10
1644.001352526545
 20
153.2976071052225
 30
0.0
  0
ENDBLK
  5
2B5
330
2A9
100
AcDbEntity
  8
0
100
AcDbBlockEnd
  0
BLOCK
  5
2CE
330
2C3
100
AcDbEntity
  8
0
100
AcDbBlockBegin
  2
*D23
 70
     1
 10
0.0
 20
0.0
 30
0.0
  3
*D23
  1

  0
LINE
  5
2D1
330
2C3
100
AcDbEntity
  8
标注
 62
     0
370
    -2
100
AcDbLine
 10
1566.917264429846
 20
347.2976071052226
 30
0.0
 11
1566.917264429846
 21
85.7031337169808
 31
0.0
  0
LINE
  5
2D2
330
2C3
100
AcDbEntity
  8
标注
 62
     0
370
    -2
100
AcDbLine
 10
796.9172644298451
 20
375.2976071052227
 30
0.0
 11
796.9172644298451
 21
85.7031337169808
 31
0.0
  0
LINE
  5
2D3
330
2C3
100
AcDbEntity
  8
标注
 62
     0
370
    -2
100
AcDbLine
 10
1554.917264429846
 20
86.9531337169808
 30
0.0
 11
1253.583931096512
 21
86.9531337169808
 31
0.0
  0
LINE
  5
2D4
330
2C3
100
AcDbEntity
  8
标注
 62
     0
370
    -2
100
AcDbLine
 10
808.917264429845
 20
86.9531337169808
 30
0.0
 11
1110.250597763179
 21
86.9531337169808
 31
0.0
  0
SOLID
  5
2D5
330
2C3
100
AcDbEntity
  8
标注
 62
     0
100
AcDbTrace
 10
1554.917264429846
 20
88.9531337169808
 30
0.0
 11
1554.917264429846
 21
84.95313371698079
 31
0.0
 12
1566.917264429846
 22
86.9531337169808
 32
0.0
 13
1566.917264429846
 23
86.9531337169808
 33
0.0
  0
SOLID
  5
2D6
330
2C3
100
AcDbEntity
  8
标注
 62
     0
100
AcDbTrace
 10
808.917264429845
 20
88.9531337169808
 30
0.0
 11
808.917264429845
 21
84.95313371698079
 31
0.0
 12
796.9172644298451
 22
86.9531337169808
 32
0.0
 13
796.9172644298451
 23
86.9531337169808
 33
0.0
  0
MTEXT
  5
2D7
330
2C3
100
AcDbEntity
  8
标注
 62
     0
100
AcDbMText
 10
1181.917264429845
 20
86.9531337169808
 30
0.0
 40
10.0
 41
0.0
 71
     5
 72
     1
  1
770mm [30 3/8"]
 73
     1
 44
1.0
  0
POINT
  5
2D8
330
2C3
100
AcDbEntity
  8
Defpoints
 62
     0
100
AcDbPoint
 10
1566.917264429846
 20
367.2976071052227
 30
0.0
  0
POINT
  5
2D9
330
2C3
100
AcDbEntity
  8
Defpoints
 62
     0
100
AcDbPoint
 10
796.9172644298451
 20
395.2976071052228
 30
0.0
  0
POINT
  5
2DA
330
2C3
100
AcDbEntity
  8
Defpoints
 62
     0
100
AcDbPoint
 10
796.9172644298451
 20
86.9531337169808
 30
0.0
  0
ENDBLK
  5
2CF
330
2C3
100
AcDbEntity
  8
0
100
AcDbBlockEnd
  0
BLOCK
  5
2F1
330
2EB
100
AcDbEntity
  8
0
100
AcDbBlockBegin
  2
*D24
 70
     1
 10
0.0
 20
0.0
 30
0.0
  3
*D24
  1

  0
LINE
  5
2F4
330
2EB
100
AcDbEntity
  8
标注
 62
     0
370
    -2
100
AcDbLine
 10
1519.656166814102
 20
530.3480370431773
 30
0.0
 11
1528.633934151666
 21
538.3104294997548
 31
0.0
  0
MTEXT
  5
2F5
330
2EB
100
AcDbEntity
  8
标注
 62
     0
100
AcDbMText
 10
1464.792033084541
 20
481.6889720307596
 30
0.0
 40
10.0
 41
0.0
 71
     5
 72
     1
  1
R94mm [R3 3/4"]
 11
0.7481472781303691
 21
0.6635327047147867
 31
0.0
 73
     1
 44
1.0
  0
SOLID
  5
2F6
330
2EB
100
AcDbEntity
  8
标注
 62
     0
100
AcDbTrace
 10
1527.306868742237
 20
539.8067240560155
 30
0.0
 11
1529.960999561096
 21
536.8141349434941
 31
0.0
 12
1537.611701489231
 22
546.2728219563322
 32
0.0
 13
1537.611701489231
 23
546.2728219563322
 33
0.0
  0
POINT
  5
2F7
330
2EB
100
AcDbEntity
  8
Defpoints
 62
     0
100
AcDbPoint
 10
1537.611701489231
 20
546.2728219563322
 30
0.0
  0
POINT
  5
2F8
330
2EB
100
AcDbEntity
  8
Defpoints
 62
     0
100
AcDbPoint
 10
1467.285857344976
 20
483.9007477131426
 30
0.0
  0
ENDBLK
  5
2F2
330
2EB
100
AcDbEntity
  8
0
100
AcDbBlockEnd
  0
BLOCK
  5
301
330
2FB
100
AcDbEntity
  8
0
100
AcDbBlockBegin
  2
*D25
 70
     1
 10
0.0
 20
0.0
 30
0.0
  3
*D25
  1

  0
LINE
  5
304
330
2FB
100
AcDbEntity
  8
标注
 62
     0
370
    -2
100
AcDbLine
 10
854.0621325672644
 20
590.2090843048815
 30
0.0
 11
846.2373862065554
 21
599.3070700374808
 31
0.0
  0
MTEXT
  5
305
330
2FB
100
AcDbEntity
  8
标注
 62
     0
100
AcDbMText
 10
902.4234121577562
 20
533.9784780409021
 30
0.0
 40
10.0
 41
0.0
 71
     5
 72
     1
  1
R104mm [R4 1/8"]
 11
0.6520621967257341
 21
-0.7581654777165802
 31
0.0
 73
     1
 44
1.0
  0
SOLID
  5
306
330
2FB
100
AcDbEntity
  8
标注
 62
     0
100
AcDbTrace
 10
847.7537171619886
 20
600.6111944309322
 30
0.0
 11
844.7210552511219
 21
598.0029456440294
 31
0.0
 12
838.4126398458466
 22
608.4050557700797
 32
0.0
 13
838.4126398458466
 23
608.4050557700797
 33
0.0
  0
POINT
  5
307
330
2FB
100
AcDbEntity
  8
Defpoints
 62
     0
100
AcDbPoint
 10
838.4126398458466
 20
608.4050557700797
 30
0.0
  0
POINT
  5
308
330
2FB
100
AcDbEntity
  8
Defpoints
 62
     0
100
AcDbPoint
 10
906.227108305323
 20
529.5558460875554
 30
0.0
  0
ENDBLK
  5
302
330
2FB
100
AcDbEntity
  8
0
100
AcDbBlockEnd
  0
BLOCK
  5
311
330
30B
100
AcDbEntity
  8
0
100
AcDbBlockBegin
  2
*D26
 70
     1
 10
0.0
 20
0.0
 30
0.0
  3
*D26
  1

  0
LINE
  5
314
330
30B
100
AcDbEntity
  8
标注
 62
     0
370
    -2
100
AcDbLine
 10
844.7553071968869
 20
580.7536748353149
 30
0.0
 11
835.5345370306212
 21
588.4333491474786
 31
0.0
  0
MTEXT
  5
315
330
30B
100
AcDbEntity
  8
标注
 62
     0
100
AcDbMText
 10
901.7447894744991
 20
533.2890211004126
 30
0.0
 40
10.0
 41
0.0
 71
     5
 72
     1
  1
R104mm [R4 1/8"]
 11
0.7683975138554496
 21
-0.6399728593469916
 31
0.0
 73
     1
 44
1.0
  0
SOLID
  5
316
330
30B
100
AcDbEntity
  8
标注
 62
     0
100
AcDbTrace
 10
836.8144827493152
 20
589.9701441751897
 30
0.0
 11
834.2545913119275
 21
586.8965541197677
 31
0.0
 12
826.3137668643558
 22
596.1130234596422
 32
0.0
 13
826.3137668643558
 23
596.1130234596422
 33
0.0
  0
POINT
  5
317
330
30B
100
AcDbEntity
  8
Defpoints
 62
     0
100
AcDbPoint
 10
826.3137668643558
 20
596.1130234596422
 30
0.0
  0
POINT
  5
318
330
30B
100
AcDbEntity
  8
Defpoints
 62
     0
100
AcDbPoint
 10
906.2271083053227
 20
529.5558460875554
 30
0.0
  0
ENDBLK
  5
312
330
30B
100
AcDbEntity
  8
0
100
AcDbBlockEnd
  0
BLOCK
  5
342
330
33C
100
AcDbEntity
  8
0
100
AcDbBlockBegin
  2
*D27
 70
     1
 10
0.0
 20
0.0
 30
0.0
  3
*D27
  1

  0
LINE
  5
3B4
330
33C
100
AcDbEntity
  8
标注
 62
     0
370
    -2
100
AcDbLine
 10
1582.531363008635
 20
580.7536748353141
 30
0.0
 11
1591.7521331749
 21
588.4333491474782
 31
0.0
  0
MTEXT
  5
3B5
330
33C
100
AcDbEntity
  8
标注
 62
     0
100
AcDbMText
 10
1525.541880731022
 20
533.2890211004122
 30
0.0
 40
10.0
 41
0.0
 71
     5
 72
     1
  1
R104mm [R4 1/8"]
 11
0.7683975138554514
 21
0.6399728593469895
 31
0.0
 73
     1
 44
1.0
  0
SOLID
  5
3B6
330
33C
100
AcDbEntity
  8
标注
 62
     0
100
AcDbTrace
 10
1590.472187456206
 20
589.9701441751893
 30
0.0
 11
1593.032078893594
 21
586.8965541197674
 31
0.0
 12
1600.972903341166
 22
596.1130234596421
 32
0.0
 13
1600.972903341166
 23
596.1130234596421
 33
0.0
  0
POINT
  5
3B7
330
33C
100
AcDbEntity
  8
Defpoints
 62
     0
100
AcDbPoint
 10
1600.972903341166
 20
596.1130234596421
 30
0.0
  0
POINT
  5
3B8
330
33C
100
AcDbEntity
  8
Defpoints
 62
     0
100
AcDbPoint
 10
1521.059561900199
 20
529.5558460875554
 30
0.0
  0
ENDBLK
  5
343
330
33C
100
AcDbEntity
  8
0
100
AcDbBlockEnd
  0
BLOCK
  5
34F
330
344
100
AcDbEntity
  8
0
100
AcDbBlockBegin
  2
*D28
 70
     1
 10
0.0
 20
0.0
 30
0.0
  3
*D28
  1

  0
LINE
  5
3AA
330
344
100
AcDbEntity
  8
标注
 62
     0
370
    -2
100
AcDbLine
 10
1446.369405775674
 20
637.2976071052228
 30
0.0
 11
1695.290642888385
 21
637.2976071052228
 31
0.0
  0
LINE
  5
3AB
330
344
100
AcDbEntity
  8
标注
 62
     0
370
    -2
100
AcDbLine
 10
1446.369405775677
 20
153.2976071052228
 30
0.0
 11
1695.290642888385
 21
153.2976071052227
 31
0.0
  0
LINE
  5
3AC
330
344
100
AcDbEntity
  8
标注
 62
     0
370
    -2
100
AcDbLine
 10
1694.040642888385
 20
625.2976071052228
 30
0.0
 11
1694.040642888385
 21
446.9642737718893
 31
0.0
  0
LINE
  5
3AD
330
344
100
AcDbEntity
  8
标注
 62
     0
370
    -2
100
AcDbLine
 10
1694.040642888385
 20
165.2976071052226
 30
0.0
 11
1694.040642888385
 21
343.6309404385561
 31
0.0
  0
SOLID
  5
3AE
330
344
100
AcDbEntity
  8
标注
 62
     0
100
AcDbTrace
 10
1692.040642888385
 20
625.2976071052228
 30
0.0
 11
1696.040642888385
 21
625.2976071052228
 31
0.0
 12
1694.040642888385
 22
637.2976071052228
 32
0.0
 13
1694.040642888385
 23
637.2976071052228
 33
0.0
  0
SOLID
  5
3AF
330
344
100
AcDbEntity
  8
标注
 62
     0
100
AcDbTrace
 10
1692.040642888385
 20
165.2976071052226
 30
0.0
 11
1696.040642888385
 21
165.2976071052226
 31
0.0
 12
1694.040642888385
 22
153.2976071052227
 32
0.0
 13
1694.040642888385
 23
153.2976071052227
 33
0.0
  0
MTEXT
  5
3B0
330
344
100
AcDbEntity
  8
标注
 62
     0
100
AcDbMText
 10
1694.040642888385
 20
395.2976071052232
 30
0.0
 40
10.0
 41
0.0
 71
     5
 72
     1
  1
484mm [19"]
 11
0.0000000000000001
 21
1.0
 31
0.0
 73
     1
 44
1.0
  0
POINT
  5
3B1
330
344
100
AcDbEntity
  8
Defpoints
 62
     0
100
AcDbPoint
 10
1426.369405775674
 20
637.2976071052228
 30
0.0
  0
POINT
  5
3B2
330
344
100
AcDbEntity
  8
Defpoints
 62
     0
100
AcDbPoint
 10
1426.369405775676
 20
153.2976071052228
 30
0.0
  0
POINT
  5
3B3
330
344
100
AcDbEntity
  8
Defpoints
 62
     0
100
AcDbPoint
 10
1694.040642888385
 20
153.2976071052227
 30
0.0
  0
ENDBLK
  5
350
330
344
100
AcDbEntity
  8
0
100
AcDbBlockEnd
  0
BLOCK
  5
35C
330
351
100
AcDbEntity
  8
0
100
AcDbBlockBegin
  2
*D29
 70
     1
 10
0.0
 20
0.0
 30
0.0
  3
*D29
  1

  0
LINE
  5
3A0
330
351
100
AcDbEntity
  8
标注
 62
     0
370
    -2
100
AcDbLine
 10
970.0460419292475
 20
580.3353852052327
 30
0.0
 11
782.0353176789771
 21
580.3353852052327
 31
0.0
  0
LINE
  5
3A1
330
351
100
AcDbEntity
  8
标注
 62
     0
370
    -2
100
AcDbLine
 10
1009.369405775677
 20
153.2976071052226
 30
0.0
 11
782.0353176789767
 21
153.2976071052227
 31
0.0
  0
LINE
  5
3A2
330
351
100
AcDbEntity
  8
标注
 62
     0
370
    -2
100
AcDbLine
 10
783.2853176789767
 20
568.3353852052327
 30
0.0
 11
783.2853176789767
 21
438.4831628218945
 31
0.0
  0
LINE
  5
3A3
330
351
100
AcDbEntity
  8
标注
 62
     0
370
    -2
100
AcDbLine
 10
783.2853176789767
 20
165.2976071052226
 30
0.0
 11
783.2853176789767
 21
295.1498294885612
 31
0.0
  0
SOLID
  5
3A4
330
351
100
AcDbEntity
  8
标注
 62
     0
100
AcDbTrace
 10
781.2853176789769
 20
568.3353852052327
 30
0.0
 11
785.285317678977
 21
568.3353852052327
 31
0.0
 12
783.2853176789767
 22
580.3353852052327
 32
0.0
 13
783.2853176789767
 23
580.3353852052327
 33
0.0
  0
SOLID
  5
3A5
330
351
100
AcDbEntity
  8
标注
 62
     0
100
AcDbTrace
 10
781.2853176789769
 20
165.2976071052226
 30
0.0
 11
785.2853176789769
 21
165.2976071052226
 31
0.0
 12
783.2853176789767
 22
153.2976071052227
 32
0.0
 13
783.2853176789767
 23
153.2976071052227
 33
0.0
  0
MTEXT
  5
3A6
330
351
100
AcDbEntity
  8
标注
 62
     0
100
AcDbMText
 10
783.2853176789767
 20
366.816496155228
 30
0.0
 40
10.0
 41
0.0
 71
     5
 72
     1
  1
427mm [16 7/8"]
 11
0.0000000000000001
 21
1.0
 31
0.0
 73
     1
 44
1.0
  0
POINT
  5
3A7
330
351
100
AcDbEntity
  8
Defpoints
 62
     0
100
AcDbPoint
 10
990.0460419292476
 20
580.3353852052327
 30
0.0
  0
POINT
  5
3A8
330
351
100
AcDbEntity
  8
Defpoints
 62
     0
100
AcDbPoint
 10
1029.369405775677
 20
153.2976071052226
 30
0.0
  0
POINT
  5
3A9
330
351
100
AcDbEntity
  8
Defpoints
 62
     0
100
AcDbPoint
 10
783.2853176789767
 20
153.2976071052227
 30
0.0
  0
ENDBLK
  5
35D
330
351
100
AcDbEntity
  8
0
100
AcDbBlockEnd
  0
BLOCK
  5
369
330
35E
100
AcDbEntity
  8
0
100
AcDbBlockBegin
  2
*D30
 70
     1
 10
0.0
 20
0.0
 30
0.0
  3
*D30
  1

  0
LINE
  5
3B9
330
35E
100
AcDbEntity
  8
标注
 62
     0
370
    -2
100
AcDbLine
 10
860.3694057756765
 20
347.2976071052228
 30
0.0
 11
860.3694057756765
 21
85.70313371698096
 31
0.0
  0
LINE
  5
3BA
330
35E
100
AcDbEntity
  8
标注
 62
     0
370
    -2
100
AcDbLine
 10
1630.369405775678
 20
375.297607105223
 30
0.0
 11
1630.369405775678
 21
85.70313371698096
 31
0.0
  0
LINE
  5
3BB
330
35E
100
AcDbEntity
  8
标注
 62
     0
370
    -2
100
AcDbLine
 10
872.3694057756766
 20
86.95313371698096
 30
0.0
 11
1173.70273910901
 21
86.95313371698096
 31
0.0
  0
LINE
  5
3BC
330
35E
100
AcDbEntity
  8
标注
 62
     0
370
    -2
100
AcDbLine
 10
1618.369405775678
 20
86.95313371698096
 30
0.0
 11
1317.036072442343
 21
86.95313371698096
 31
0.0
  0
SOLID
  5
3BD
330
35E
100
AcDbEntity
  8
标注
 62
     0
100
AcDbTrace
 10
872.3694057756766
 20
88.95313371698097
 30
0.0
 11
872.3694057756766
 21
84.95313371698097
 31
0.0
 12
860.3694057756765
 22
86.95313371698096
 32
0.0
 13
860.3694057756765
 23
86.95313371698096
 33
0.0
  0
SOLID
  5
3BE
330
35E
100
AcDbEntity
  8
标注
 62
     0
100
AcDbTrace
 10
1618.369405775678
 20
88.95313371698097
 30
0.0
 11
1618.369405775678
 21
84.95313371698097
 31
0.0
 12
1630.369405775678
 22
86.95313371698096
 32
0.0
 13
1630.369405775678
 23
86.95313371698096
 33
0.0
  0
MTEXT
  5
3BF
330
35E
100
AcDbEntity
  8
标注
 62
     0
100
AcDbMText
 10
1245.369405775677
 20
86.95313371698096
 30
0.0
 40
10.0
 41
0.0
 71
     5
 72
     1
  1
770mm [30 3/8"]
 73
     1
 44
1.0
  0
POINT
  5
3C0
330
35E
100
AcDbEntity
  8
Defpoints
 62
     0
100
AcDbPoint
 10
860.3694057756765
 20
367.2976071052228
 30
0.0
  0
POINT
  5
3C1
330
35E
100
AcDbEntity
  8
Defpoints
 62
     0
100
AcDbPoint
 10
1630.369405775678
 20
395.297607105223
 30
0.0
  0
POINT
  5
3C2
330
35E
100
AcDbEntity
  8
Defpoints
 62
     0
100
AcDbPoint
 10
1630.369405775678
 20
86.95313371698096
 30
0.0
  0
ENDBLK
  5
36A
330
35E
100
AcDbEntity
  8
0
100
AcDbBlockEnd
  0
BLOCK
  5
371
330
36B
100
AcDbEntity
  8
0
100
AcDbBlockBegin
  2
*D31
 70
     1
 10
0.0
 20
0.0
 30
0.0
  3
*D31
  1

  0
LINE
  5
39B
330
36B
100
AcDbEntity
  8
标注
 62
     0
370
    -2
100
AcDbLine
 10
907.6305033914204
 20
530.3480370431773
 30
0.0
 11
898.6527360538561
 21
538.3104294997547
 31
0.0
  0
MTEXT
  5
39C
330
36B
100
AcDbEntity
  8
标注
 62
     0
100
AcDbMText
 10
962.4946371209807
 20
481.6889720307596
 30
0.0
 40
10.0
 41
0.0
 71
     5
 72
     1
  1
R94mm [R3 3/4"]
 11
0.7481472781303693
 21
-0.6635327047147863
 31
0.0
 73
     1
 44
1.0
  0
SOLID
  5
39D
330
36B
100
AcDbEntity
  8
标注
 62
     0
100
AcDbTrace
 10
899.9798014632856
 20
539.8067240560155
 30
0.0
 11
897.3256706444265
 21
536.8141349434941
 31
0.0
 12
889.6749687162916
 22
546.2728219563322
 32
0.0
 13
889.6749687162916
 23
546.2728219563322
 33
0.0
  0
POINT
  5
39E
330
36B
100
AcDbEntity
  8
Defpoints
 62
     0
100
AcDbPoint
 10
889.6749687162916
 20
546.2728219563322
 30
0.0
  0
POINT
  5
39F
330
36B
100
AcDbEntity
  8
Defpoints
 62
     0
100
AcDbPoint
 10
960.0008128605459
 20
483.9007477131426
 30
0.0
  0
ENDBLK
  5
372
330
36B
100
AcDbEntity
  8
0
100
AcDbBlockEnd
  0
BLOCK
  5
3D0
330
3CF
100
AcDbEntity
  8
0
100
AcDbBlockBegin
  2
*D32
 70
     1
 10
0.0
 20
0.0
 30
0.0
  3
*D32
  1

  0
LINE
  5
3D1
330
3CF
100
AcDbEntity
  8
标注
370
    -2
100
AcDbLine
 10
629.7668300292172
 20
350.801507957659
 30
0.0
 11
629.7668300292172
 21
86.99512986037294
 31
0.0
  0
LINE
  5
3D2
330
3CF
100
AcDbEntity
  8
标注
370
    -2
100
AcDbLine
 10
1407.766830029219
 20
350.8015079576574
 30
0.0
 11
1407.766830029219
 21
86.99512986037294
 31
0.0
  0
LINE
  5
3D3
330
3CF
100
AcDbEntity
  8
标注
370
    -2
100
AcDbLine
 10
645.7668300292167
 20
93.99512986037294
 30
0.0
 11
917.5168300292179
 21
93.99512986037294
 31
0.0
  0
LINE
  5
3D4
330
3CF
100
AcDbEntity
  8
标注
370
    -2
100
AcDbLine
 10
1391.766830029219
 20
93.99512986037294
 30
0.0
 11
1120.016830029218
 21
93.99512986037294
 31
0.0
  0
SOLID
  5
3D5
330
3CF
100
AcDbEntity
  8
标注
100
AcDbTrace
 10
645.7668300292167
 20
96.66179652703965
 30
0.0
 11
645.7668300292167
 21
91.3284631937063
 31
0.0
 12
629.7668300292172
 22
93.99512986037294
 32
0.0
 13
629.7668300292172
 23
93.99512986037294
 33
0.0
  0
SOLID
  5
3D6
330
3CF
100
AcDbEntity
  8
标注
100
AcDbTrace
 10
1391.766830029219
 20
96.66179652703965
 30
0.0
 11
1391.766830029219
 21
91.3284631937063
 31
0.0
 12
1407.766830029219
 22
93.99512986037294
 32
0.0
 13
1407.766830029219
 23
93.99512986037294
 33
0.0
  0
MTEXT
  5
3D7
330
3CF
100
AcDbEntity
  8
标注
100
AcDbMText
 10
1018.766830029218
 20
93.99512986037294
 30
0.0
 40
15.0
 41
0.0
 71
     5
 72
     1
  1
\A1;778mm [30 5/8"]
 73
     1
 44
1.0
  0
POINT
  5
3D8
330
3CF
100
AcDbEntity
  8
Defpoints
 62
     0
100
AcDbPoint
 10
629.7668300292172
 20
382.8015079576592
 30
0.0
  0
POINT
  5
3D9
330
3CF
100
AcDbEntity
  8
Defpoints
 62
     0
100
AcDbPoint
 10
1407.766830029219
 20
382.8015079576575
 30
0.0
  0
POINT
  5
3DA
330
3CF
100
AcDbEntity
  8
Defpoints
 62
     0
100
AcDbPoint
 10
1407.766830029219
 20
93.99512986037294
 30
0.0
  0
ENDBLK
  5
3DB
330
3CF
100
AcDbEntity
  8
0
100
AcDbBlockEnd
  0
BLOCK
  5
3DD
330
3DC
100
AcDbEntity
  8
0
100
AcDbBlockBegin
  2
*D33
 70
     1
 10
0.0
 20
0.0
 30
0.0
  3
*D33
  1

  0
LINE
  5
3DE
330
3DC
100
AcDbEntity
  8
标注
370
    -2
100
AcDbLine
 10
1250.766830029241
 20
168.8015079576649
 30
0.0
 11
1498.459419190176
 21
168.8015079576648
 31
0.0
  0
LINE
  5
3DF
330
3DC
100
AcDbEntity
  8
标注
370
    -2
100
AcDbLine
 10
1250.766830029216
 20
596.8015079576572
 30
0.0
 11
1498.459419190176
 21
596.8015079576572
 31
0.0
  0
LINE
  5
3E0
330
3DC
100
AcDbEntity
  8
标注
370
    -2
100
AcDbLine
 10
1491.459419190176
 20
184.8015079576648
 30
0.0
 11
1491.459419190176
 21
282.8015079576612
 31
0.0
  0
LINE
  5
3E1
330
3DC
100
AcDbEntity
  8
标注
370
    -2
100
AcDbLine
 10
1491.459419190176
 20
580.8015079576572
 30
0.0
 11
1491.459419190176
 21
482.8015079576612
 31
0.0
  0
SOLID
  5
3E2
330
3DC
100
AcDbEntity
  8
标注
100
AcDbTrace
 10
1488.792752523509
 20
184.8015079576648
 30
0.0
 11
1494.126085856843
 21
184.8015079576648
 31
0.0
 12
1491.459419190176
 22
168.8015079576648
 32
0.0
 13
1491.459419190176
 23
168.8015079576648
 33
0.0
  0
SOLID
  5
3E3
330
3DC
100
AcDbEntity
  8
标注
100
AcDbTrace
 10
1488.79275252351
 20
580.8015079576572
 30
0.0
 11
1494.126085856843
 21
580.8015079576572
 31
0.0
 12
1491.459419190176
 22
596.8015079576572
 32
0.0
 13
1491.459419190176
 23
596.8015079576572
 33
0.0
  0
MTEXT
  5
3E4
330
3DC
100
AcDbEntity
  8
标注
100
AcDbMText
 10
1491.459419190176
 20
382.8015079576614
 30
0.0
 40
15.0
 41
0.0
 71
     5
 72
     1
  1
\A1;428mm [16 7/8"]
 11
0.0000000000000001
 21
1.0
 31
0.0
 73
     1
 44
1.0
  0
POINT
  5
3E5
330
3DC
100
AcDbEntity
  8
Defpoints
 62
     0
100
AcDbPoint
 10
1218.766830029241
 20
168.8015079576649
 30
0.0
  0
POINT
  5
3E6
330
3DC
100
AcDbEntity
  8
Defpoints
 62
     0
100
AcDbPoint
 10
1218.766830029216
 20
596.8015079576572
 30
0.0
  0
POINT
  5
3E7
330
3DC
100
AcDbEntity
  8
Defpoints
 62
     0
100
AcDbPoint
 10
1491.459419190176
 20
596.8015079576572
 30
0.0
  0
ENDBLK
  5
3E8
330
3DC
100
AcDbEntity
  8
0
100
AcDbBlockEnd
  0
BLOCK
  5
3EA
330
3E9
100
AcDbEntity
  8
0
100
AcDbBlockBegin
  2
*D34
 70
     1
 10
0.0
 20
0.0
 30
0.0
  3
*D34
  1

  0
LINE
  5
3EB
330
3E9
100
AcDbEntity
  8
标注
370
    -2
100
AcDbLine
 10
1373.734820030951
 20
460.1197358878569
 30
0.0
 11
1389.712732965753
 21
460.9601514088375
 31
0.0
  0
MTEXT
  5
3EC
330
3E9
100
AcDbEntity
  8
标注
100
AcDbMText
 10
1255.148747467972
 20
453.8822769430803
 30
0.0
 40
15.0
 41
0.0
 71
     5
 72
     1
  1
\A1;R1504mm [R59 1/4"]
 11
0.9986195584250902
 21
0.0525259700612775
 31
0.0
 73
     1
 44
1.0
  0
SOLID
  5
3ED
330
3E9
100
AcDbEntity
  8
标注
100
AcDbTrace
 10
1389.572663712256
 20
463.6231368979708
 30
0.0
 11
1389.85280221925
 21
458.2971659197038
 31
0.0
 12
1405.690645900555
 22
461.8005669298177
 32
0.0
 13
1405.690645900555
 23
461.8005669298177
 33
0.0
  0
POINT
  5
3EE
330
3E9
100
AcDbEntity
  8
Defpoints
 62
     0
100
AcDbPoint
 10
1405.690645900555
 20
461.8005669298177
 30
0.0
  0
POINT
  5
3EF
330
3E9
100
AcDbEntity
  8
Defpoints
 62
     0
100
AcDbPoint
 10
-96.23316997078131
 20
382.8015079576575
 30
0.0
  0
ENDBLK
  5
3F0
330
3E9
100
AcDbEntity
  8
0
100
AcDbBlockEnd
  0
BLOCK
  5
3F2
330
3F1
100
AcDbEntity
  8
0
100
AcDbBlockBegin
  2
*D35
 70
     1
 10
0.0
 20
0.0
 30
0.0
  3
*D35
  1

  0
LINE
  5
3F3
330
3F1
100
AcDbEntity
  8
标注
370
    -2
100
AcDbLine
 10
1342.207889930399
 20
214.1405650510263
 30
0.0
 11
1350.788029537584
 21
200.6357065059985
 31
0.0
  0
MTEXT
  5
3F4
330
3F1
100
AcDbEntity
  8
标注
100
AcDbMText
 10
1287.241370571869
 20
300.6560651051107
 30
0.0
 40
15.0
 41
0.0
 71
     5
 72
     1
  1
\A1;R94mm [R3 3/4"]
 11
0.5362587254490792
 21
-0.8440536590642382
 31
0.0
 73
     1
 44
1.0
  0
SOLID
  5
3F5
330
3F1
100
AcDbEntity
  8
标注
100
AcDbTrace
 10
1353.038839295089
 20
202.0657297738627
 30
0.0
 11
1348.53721978008
 21
199.2056832381342
 31
0.0
 12
1359.36816914477
 22
187.1308479609706
 32
0.0
 13
1359.36816914477
 23
187.1308479609706
 33
0.0
  0
POINT
  5
3F6
330
3F1
100
AcDbEntity
  8
Defpoints
 62
     0
100
AcDbPoint
 10
1359.36816914477
 20
187.1308479609706
 30
0.0
  0
POINT
  5
3F7
330
3F1
100
AcDbEntity
  8
Defpoints
 62
     0
100
AcDbPoint
 10
1308.959848952556
 20
266.4718919130091
 30
0.0
  0
ENDBLK
  5
3F8
330
3F1
100
AcDbEntity
  8
0
100
AcDbBlockEnd
  0
BLOCK
  5
3FA
330
3F9
100
AcDbEntity
  8
0
100
AcDbBlockBegin
  2
*D36
 70
     1
 10
0.0
 20
0.0
 30
0.0
  3
*D36
  1

  0
LINE
  5
3FB
330
3F9
100
AcDbEntity
  8
标注
370
    -2
100
AcDbLine
 10
768.8298879591493
 20
201.8658556621562
 30
0.0
 11
768.1481549616059
 21
185.8803860062449
 31
0.0
  0
MTEXT
  5
3FC
330
3F9
100
AcDbEntity
  8
标注
100
AcDbMText
 10
773.99614583116
 20
323.005742898359
 30
0.0
 40
15.0
 41
0.0
 71
     5
 72
     1
  1
\A1;R1204mm [R47 3/8"]
 11
0.0426083123464778
 21
0.9990918534944547
 31
0.0
 73
     1
 44
1.0
  0
SOLID
  5
3FD
330
3F9
100
AcDbEntity
  8
标注
100
AcDbTrace
 10
765.483910018954
 20
185.9940081725021
 30
0.0
 11
770.8123999042578
 21
185.7667638399876
 31
0.0
 12
767.4664219640622
 22
169.8949163503337
 32
0.0
 13
767.4664219640622
 23
169.8949163503337
 33
0.0
  0
POINT
  5
3FE
330
3F9
100
AcDbEntity
  8
Defpoints
 62
     0
100
AcDbPoint
 10
767.4664219640622
 20
169.8949163503337
 30
0.0
  0
POINT
  5
3FF
330
3F9
100
AcDbEntity
  8
Defpoints
 62
     0
100
AcDbPoint
 10
818.7668300292202
 20
1372.801507957657
 30
0.0
  0
ENDBLK
  5
400
330
3F9
100
AcDbEntity
  8
0
100
AcDbBlockEnd
  0
BLOCK
  5
43E
330
433
100
AcDbEntity
  8
0
100
AcDbBlockBegin
  2
*D37
 70
     1
 10
0.0
 20
0.0
 30
0.0
  3
*D37
  1

  0
LINE
  5
44D
330
433
100
AcDbEntity
  8
标注
370
    -2
100
AcDbLine
 10
1833.766402191076
 20
227.9959571961931
 30
0.0
 11
2092.458991352011
 21
227.9959571961931
 31
0.0
  0
LINE
  5
44E
330
433
100
AcDbEntity
  8
标注
370
    -2
100
AcDbLine
 10
1833.766402191051
 20
655.9959571961857
 30
0.0
 11
2092.458991352011
 21
655.9959571961857
 31
0.0
  0
LINE
  5
44F
330
433
100
AcDbEntity
  8
标注
370
    -2
100
AcDbLine
 10
2084.458991352011
 20
243.9959571961931
 30
0.0
 11
2084.458991352011
 21
415.6626238628561
 31
0.0
  0
LINE
  5
450
330
433
100
AcDbEntity
  8
标注
370
    -2
100
AcDbLine
 10
2084.458991352011
 20
639.9959571961857
 30
0.0
 11
2084.458991352011
 21
468.3292905295227
 31
0.0
  0
SOLID
  5
451
330
433
100
AcDbEntity
  8
标注
100
AcDbTrace
 10
2081.792324685345
 20
243.9959571961931
 30
0.0
 11
2087.125658018678
 21
243.9959571961931
 31
0.0
 12
2084.458991352011
 22
227.9959571961931
 32
0.0
 13
2084.458991352011
 23
227.9959571961931
 33
0.0
  0
SOLID
  5
452
330
433
100
AcDbEntity
  8
标注
100
AcDbTrace
 10
2081.792324685345
 20
639.9959571961857
 30
0.0
 11
2087.125658018678
 21
639.9959571961857
 31
0.0
 12
2084.458991352011
 22
655.9959571961857
 32
0.0
 13
2084.458991352011
 23
655.9959571961857
 33
0.0
  0
MTEXT
  5
453
330
433
100
AcDbEntity
  8
标注
100
AcDbMText
 10
2084.458991352011
 20
441.9959571961896
 30
0.0
 40
16.0
 41
0.0
 71
     5
 72
     1
  1
\A1;428
 11
0.0000000000000001
 21
1.0
 31
0.0
 73
     1
 44
1.0
  0
POINT
  5
454
330
433
100
AcDbEntity
  8
Defpoints
 62
     0
100
AcDbPoint
 10
1811.766402191076
 20
227.9959571961931
 30
0.0
  0
POINT
  5
455
330
433
100
AcDbEntity
  8
Defpoints
 62
     0
100
AcDbPoint
 10
1811.766402191051
 20
655.9959571961857
 30
0.0
  0
POINT
  5
456
330
433
100
AcDbEntity
  8
Defpoints
 62
     0
100
AcDbPoint
 10
2084.458991352011
 20
655.9959571961857
 30
0.0
  0
ENDBLK
  5
43F
330
433
100
AcDbEntity
  8
0
100
AcDbBlockEnd
  0
BLOCK
  5
44B
330
440
100
AcDbEntity
  8
0
100
AcDbBlockBegin
  2
*D38
 70
     1
 10
0.0
 20
0.0
 30
0.0
  3
*D38
  1

  0
LINE
  5
457
330
440
100
AcDbEntity
  8
标注
370
    -2
100
AcDbLine
 10
1222.766402191052
 20
419.9959571961874
 30
0.0
 11
1222.766402191052
 21
145.1895790989011
 31
0.0
  0
LINE
  5
458
330
440
100
AcDbEntity
  8
标注
370
    -2
100
AcDbLine
 10
2000.766402191054
 20
419.9959571961856
 30
0.0
 11
2000.766402191054
 21
145.1895790989011
 31
0.0
  0
LINE
  5
459
330
440
100
AcDbEntity
  8
标注
370
    -2
100
AcDbLine
 10
1238.766402191052
 20
153.1895790989012
 30
0.0
 11
1585.43306885772
 21
153.1895790989012
 31
0.0
  0
LINE
  5
45A
330
440
100
AcDbEntity
  8
标注
370
    -2
100
AcDbLine
 10
1984.766402191054
 20
153.1895790989012
 30
0.0
 11
1638.099735524386
 21
153.1895790989012
 31
0.0
  0
SOLID
  5
45B
330
440
100
AcDbEntity
  8
标注
100
AcDbTrace
 10
1238.766402191052
 20
155.8562457655678
 30
0.0
 11
1238.766402191052
 21
150.5229124322345
 31
0.0
 12
1222.766402191052
 22
153.1895790989012
 32
0.0
 13
1222.766402191052
 23
153.1895790989012
 33
0.0
  0
SOLID
  5
45C
330
440
100
AcDbEntity
  8
标注
100
AcDbTrace
 10
1984.766402191054
 20
155.8562457655678
 30
0.0
 11
1984.766402191054
 21
150.5229124322345
 31
0.0
 12
2000.766402191054
 22
153.1895790989012
 32
0.0
 13
2000.766402191054
 23
153.1895790989012
 33
0.0
  0
MTEXT
  5
45D
330
440
100
AcDbEntity
  8
标注
100
AcDbMText
 10
1611.766402191053
 20
153.1895790989012
 30
0.0
 40
16.0
 41
0.0
 71
     5
 72
     1
  1
\A1;778
 73
     1
 44
1.0
  0
POINT
  5
45E
330
440
100
AcDbEntity
  8
Defpoints
 62
     0
100
AcDbPoint
 10
1222.766402191052
 20
441.9959571961872
 30
0.0
  0
POINT
  5
45F
330
440
100
AcDbEntity
  8
Defpoints
 62
     0
100
AcDbPoint
 10
2000.766402191054
 20
441.9959571961856
 30
0.0
  0
POINT
  5
460
330
440
100
AcDbEntity
  8
Defpoints
 62
     0
100
AcDbPoint
 10
2000.766402191054
 20
153.1895790989012
 30
0.0
  0
ENDBLK
  5
44C
330
440
100
AcDbEntity
  8
0
100
AcDbBlockEnd
  0
BLOCK
  5
467
330
461
100
AcDbEntity
  8
0
100
AcDbBlockBegin
  2
*D39
 70
     1
 10
0.0
 20
0.0
 30
0.0
  3
*D39
  1

  0
LINE
  5
479
330
461
100
AcDbEntity
  8
标注
370
    -2
100
AcDbLine
 10
1365.362399353047
 20
343.9016710862668
 30
0.0
 11
1361.147727123441
 21
245.0748352447735
 31
0.0
  0
MTEXT
  5
47A
330
461
100
AcDbEntity
  8
标注
100
AcDbMText
 10
1366.995717992996
 20
382.2001921368878
 30
0.0
 40
16.0
 41
0.0
 71
     5
 72
     1
  1
\A1;R1204
 11
0.0426083123464778
 21
0.9990918534944547
 31
0.0
 73
     1
 44
1.0
  0
SOLID
  5
47B
330
461
100
AcDbEntity
  8
标注
100
AcDbTrace
 10
1358.483482180789
 20
245.1884574110308
 30
0.0
 11
1363.811972066093
 21
244.9612130785162
 31
0.0
 12
1360.465994125898
 22
229.0893655888622
 32
0.0
 13
1360.465994125898
 23
229.0893655888622
 33
0.0
  0
POINT
  5
47C
330
461
100
AcDbEntity
  8
Defpoints
 62
     0
100
AcDbPoint
 10
1360.465994125898
 20
229.0893655888622
 30
0.0
  0
POINT
  5
47D
330
461
100
AcDbEntity
  8
Defpoints
 62
     0
100
AcDbPoint
 10
1411.766402191055
 20
1431.995957196185
 30
0.0
  0
ENDBLK
  5
468
330
461
100
AcDbEntity
  8
0
100
AcDbBlockEnd
  0
BLOCK
  5
46F
330
469
100
AcDbEntity
  8
0
100
AcDbBlockBegin
  2
*D40
 70
     1
 10
0.0
 20
0.0
 30
0.0
  3
*D40
  1

  0
LINE
  5
483
330
469
100
AcDbEntity
  8
标注
370
    -2
100
AcDbLine
 10
1894.362422503864
 20
337.6237679882805
 30
0.0
 11
1943.787601699421
 21
259.8301557445269
 31
0.0
  0
MTEXT
  5
484
330
469
100
AcDbEntity
  8
标注
100
AcDbMText
 10
1880.240942733705
 20
359.8505143436388
 30
0.0
 40
16.0
 41
0.0
 71
     5
 72
     1
  1
\A1;R94
 11
0.536258725449083
 21
-0.8440536590642357
 31
0.0
 73
     1
 44
1.0
  0
SOLID
  5
485
330
469
100
AcDbEntity
  8
标注
100
AcDbTrace
 10
1946.038411456925
 20
261.2601790123912
 30
0.0
 11
1941.536791941916
 21
258.4001324766626
 31
0.0
 12
1952.367741306606
 22
246.3252971994991
 32
0.0
 13
1952.367741306606
 23
246.3252971994991
 33
0.0
  0
POINT
  5
486
330
469
100
AcDbEntity
  8
Defpoints
 62
     0
100
AcDbPoint
 10
1952.367741306606
 20
246.3252971994991
 30
0.0
  0
POINT
  5
487
330
469
100
AcDbEntity
  8
Defpoints
 62
     0
100
AcDbPoint
 10
1901.959421114392
 20
325.6663411515376
 30
0.0
  0
ENDBLK
  5
470
330
469
100
AcDbEntity
  8
0
100
AcDbBlockEnd
  0
BLOCK
  5
477
330
471
100
AcDbEntity
  8
0
100
AcDbBlockBegin
  2
*D41
 70
     1
 10
0.0
 20
0.0
 30
0.0
  3
*D41
  1

  0
LINE
  5
47E
330
471
100
AcDbEntity
  8
标注
370
    -2
100
AcDbLine
 10
1886.428736036102
 20
515.0902217006241
 30
0.0
 11
1982.712305127589
 21
520.1546006473656
 31
0.0
  0
MTEXT
  5
47F
330
471
100
AcDbEntity
  8
标注
100
AcDbMText
 10
1848.148319629807
 20
513.0767261816084
 30
0.0
 40
16.0
 41
0.0
 71
     5
 72
     1
  1
\A1;R1504
 11
0.99861955842509
 21
0.0525259700612775
 31
0.0
 73
     1
 44
1.0
  0
SOLID
  5
480
330
471
100
AcDbEntity
  8
标注
100
AcDbTrace
 10
1982.572235874091
 20
522.8175861364991
 30
0.0
 11
1982.852374381085
 21
517.4916151582321
 31
0.0
 12
1998.69021806239
 22
520.995016168346
 32
0.0
 13
1998.69021806239
 23
520.995016168346
 33
0.0
  0
POINT
  5
481
330
471
100
AcDbEntity
  8
Defpoints
 62
     0
100
AcDbPoint
 10
1998.69021806239
 20
520.995016168346
 30
0.0
  0
POINT
  5
482
330
471
100
AcDbEntity
  8
Defpoints
 62
     0
100
AcDbPoint
 10
496.7664021910538
 20
441.9959571961856
 30
0.0
  0
ENDBLK
  5
478
330
471
100
AcDbEntity
  8
0
100
AcDbBlockEnd
  0
BLOCK
  5
490
330
48F
100
AcDbEntity
  8
0
100
AcDbBlockBegin
  2
*D42
 70
     1
 10
0.0
 20
0.0
 30
0.0
  3
*D42
  1

  0
LINE
  5
491
330
48F
100
AcDbEntity
  8
标注
370
    -2
100
AcDbLine
 10
1361.015104642722
 20
560.42883341855
 30
0.0
 11
1527.904651464498
 21
560.42883341855
 31
0.0
  0
LINE
  5
492
330
48F
100
AcDbEntity
  8
标注
370
    -2
100
AcDbLine
 10
1361.015104642721
 20
146.4288334185503
 30
0.0
 11
1527.904651464498
 21
146.4288334185502
 31
0.0
  0
LINE
  5
493
330
48F
100
AcDbEntity
  8
标注
370
    -2
100
AcDbLine
 10
1520.904651464498
 20
544.42883341855
 30
0.0
 11
1520.904651464498
 21
448.4288334185499
 31
0.0
  0
LINE
  5
494
330
48F
100
AcDbEntity
  8
标注
370
    -2
100
AcDbLine
 10
1520.904651464498
 20
162.4288334185502
 30
0.0
 11
1520.904651464498
 21
258.4288334185502
 31
0.0
  0
SOLID
  5
495
330
48F
100
AcDbEntity
  8
标注
100
AcDbTrace
 10
1518.237984797831
 20
544.42883341855
 30
0.0
 11
1523.571318131165
 21
544.42883341855
 31
0.0
 12
1520.904651464498
 22
560.42883341855
 32
0.0
 13
1520.904651464498
 23
560.42883341855
 33
0.0
  0
SOLID
  5
496
330
48F
100
AcDbEntity
  8
标注
100
AcDbTrace
 10
1518.237984797831
 20
162.4288334185502
 30
0.0
 11
1523.571318131164
 21
162.4288334185502
 31
0.0
 12
1520.904651464498
 22
146.4288334185502
 32
0.0
 13
1520.904651464498
 23
146.4288334185502
 33
0.0
  0
MTEXT
  5
497
330
48F
100
AcDbEntity
  8
标注
100
AcDbMText
 10
1520.904651464498
 20
353.4288334185503
 30
0.0
 40
15.0
 41
0.0
 71
     5
 72
     1
  1
\A1;414mm [16 1/4"]
 11
0.0000000000000001
 21
1.0
 31
0.0
 73
     1
 44
1.0
  0
POINT
  5
498
330
48F
100
AcDbEntity
  8
Defpoints
 62
     0
100
AcDbPoint
 10
1329.015104642722
 20
560.42883341855
 30
0.0
  0
POINT
  5
499
330
48F
100
AcDbEntity
  8
Defpoints
 62
     0
100
AcDbPoint
 10
1329.015104642721
 20
146.4288334185503
 30
0.0
  0
POINT
  5
49A
330
48F
100
AcDbEntity
  8
Defpoints
 62
     0
100
AcDbPoint
 10
1520.904651464498
 20
146.4288334185502
 30
0.0
  0
ENDBLK
  5
49B
330
48F
100
AcDbEntity
  8
0
100
AcDbBlockEnd
  0
BLOCK
  5
49D
330
49C
100
AcDbEntity
  8
0
100
AcDbBlockBegin
  2
*D43
 70
     1
 10
0.0
 20
0.0
 30
0.0
  3
*D43
  1

  0
LINE
  5
49E
330
49C
100
AcDbEntity
  8
标注
370
    -2
100
AcDbLine
 10
1466.015104642722
 20
321.4288334185501
 30
0.0
 11
1466.015104642722
 21
74.96228029860548
 31
0.0
  0
LINE
  5
49F
330
49C
100
AcDbEntity
  8
标注
370
    -2
100
AcDbLine
 10
708.8151046427245
 20
218.4288334185501
 30
0.0
 11
708.8151046427245
 21
74.96228029860548
 31
0.0
  0
LINE
  5
4A0
330
49C
100
AcDbEntity
  8
标注
370
    -2
100
AcDbLine
 10
1450.015104642722
 20
81.96228029860547
 30
0.0
 11
1189.915104642723
 21
81.96228029860547
 31
0.0
  0
LINE
  5
4A1
330
49C
100
AcDbEntity
  8
标注
370
    -2
100
AcDbLine
 10
724.8151046427246
 20
81.96228029860547
 30
0.0
 11
984.9151046427234
 21
81.96228029860547
 31
0.0
  0
SOLID
  5
4A2
330
49C
100
AcDbEntity
  8
标注
100
AcDbTrace
 10
1450.015104642722
 20
84.62894696527216
 30
0.0
 11
1450.015104642722
 21
79.2956136319388
 31
0.0
 12
1466.015104642722
 22
81.96228029860547
 32
0.0
 13
1466.015104642722
 23
81.96228029860547
 33
0.0
  0
SOLID
  5
4A3
330
49C
100
AcDbEntity
  8
标注
100
AcDbTrace
 10
724.8151046427246
 20
84.62894696527216
 30
0.0
 11
724.8151046427246
 21
79.2956136319388
 31
0.0
 12
708.8151046427245
 22
81.96228029860547
 32
0.0
 13
708.8151046427245
 23
81.96228029860547
 33
0.0
  0
MTEXT
  5
4A4
330
49C
100
AcDbEntity
  8
标注
100
AcDbMText
 10
1087.415104642723
 20
81.96228029860547
 30
0.0
 40
15.0
 41
0.0
 71
     5
 72
     1
  1
\A1;757mm [29 3/4"]
 73
     1
 44
1.0
  0
POINT
  5
4A5
330
49C
100
AcDbEntity
  8
Defpoints
 62
     0
100
AcDbPoint
 10
1466.015104642722
 20
353.4288334185501
 30
0.0
  0
POINT
  5
4A6
330
49C
100
AcDbEntity
  8
Defpoints
 62
     0
100
AcDbPoint
 10
708.8151046427245
 20
250.4288334185501
 30
0.0
  0
POINT
  5
4A7
330
49C
100
AcDbEntity
  8
Defpoints
 62
     0
100
AcDbPoint
 10
708.8151046427245
 20
81.96228029860547
 30
0.0
  0
ENDBLK
  5
4A8
330
49C
100
AcDbEntity
  8
0
100
AcDbBlockEnd
  0
BLOCK
  5
4AA
330
4A9
100
AcDbEntity
  8
0
100
AcDbBlockBegin
  2
*D44
 70
     1
 10
0.0
 20
0.0
 30
0.0
  3
*D44
  1

  0
LINE
  5
4AB
330
4A9
100
AcDbEntity
  8
标注
370
    -2
100
AcDbLine
 10
905.8151046427246
 20
624.4288334185496
 30
0.0
 11
612.3618200222782
 21
624.4288334185498
 31
0.0
  0
LINE
  5
4AC
330
4A9
100
AcDbEntity
  8
标注
370
    -2
100
AcDbLine
 10
780.8151046427243
 20
146.4288334185501
 30
0.0
 11
612.3618200222781
 21
146.4288334185501
 31
0.0
  0
LINE
  5
4AD
330
4A9
100
AcDbEntity
  8
标注
370
    -2
100
AcDbLine
 10
619.3618200222783
 20
608.4288334185497
 30
0.0
 11
619.3618200222783
 21
485.42883341855
 31
0.0
  0
LINE
  5
4AE
330
4A9
100
AcDbEntity
  8
标注
370
    -2
100
AcDbLine
 10
619.3618200222781
 20
162.4288334185501
 30
0.0
 11
619.3618200222783
 21
285.42883341855
 31
0.0
  0
SOLID
  5
4AF
330
4A9
100
AcDbEntity
  8
标注
100
AcDbTrace
 10
616.6951533556116
 20
608.4288334185497
 30
0.0
 11
622.0284866889449
 21
608.4288334185497
 31
0.0
 12
619.3618200222783
 22
624.4288334185498
 32
0.0
 13
619.3618200222783
 23
624.4288334185498
 33
0.0
  0
SOLID
  5
4B0
330
4A9
100
AcDbEntity
  8
标注
100
AcDbTrace
 10
616.6951533556115
 20
162.4288334185501
 30
0.0
 11
622.0284866889447
 21
162.4288334185501
 31
0.0
 12
619.3618200222781
 22
146.4288334185501
 32
0.0
 13
619.3618200222781
 23
146.4288334185501
 33
0.0
  0
MTEXT
  5
4B1
330
4A9
100
AcDbEntity
  8
标注
100
AcDbMText
 10
619.3618200222781
 20
385.42883341855
 30
0.0
 40
15.0
 41
0.0
 71
     5
 72
     1
  1
\A1;478mm [18 7/8"]
 11
0.0000000000000001
 21
1.0
 31
0.0
 73
     1
 44
1.0
  0
POINT
  5
4B2
330
4A9
100
AcDbEntity
  8
Defpoints
 62
     0
100
AcDbPoint
 10
937.8151046427246
 20
624.4288334185496
 30
0.0
  0
POINT
  5
4B3
330
4A9
100
AcDbEntity
  8
Defpoints
 62
     0
100
AcDbPoint
 10
812.8151046427245
 20
146.4288334185501
 30
0.0
  0
POINT
  5
4B4
330
4A9
100
AcDbEntity
  8
Defpoints
 62
     0
100
AcDbPoint
 10
619.3618200222781
 20
146.4288334185501
 30
0.0
  0
ENDBLK
  5
4B5
330
4A9
100
AcDbEntity
  8
0
100
AcDbBlockEnd
  0
BLOCK
  5
4B7
330
4B6
100
AcDbEntity
  8
0
100
AcDbBlockBegin
  2
*D45
 70
     1
 10
0.0
 20
0.0
 30
0.0
  3
*D45
  1

  0
LINE
  5
4B8
330
4B6
100
AcDbEntity
  8
标注
370
    -2
100
AcDbLine
 10
1423.05855567782
 20
205.3484863583843
 30
0.0
 11
1436.812905176767
 21
197.1742665264486
 31
0.0
  0
MTEXT
  5
4B9
330
4B6
100
AcDbEntity
  8
标注
100
AcDbMText
 10
1337.0938713094
 20
256.4373603079824
 30
0.0
 40
15.0
 41
0.0
 71
     5
 72
     1
  1
\A1;R84mm [R3 1/4"]
 11
0.8596468436842002
 21
-0.5108887394959809
 31
0.0
 73
     1
 44
1.0
  0
SOLID
  5
4BA
330
4B6
100
AcDbEntity
  8
标注
100
AcDbTrace
 10
1438.175275148756
 20
199.4666581096064
 30
0.0
 11
1435.450535204778
 21
194.8818749432907
 31
0.0
 12
1450.567254675714
 22
189.0000466945129
 32
0.0
 13
1450.567254675714
 23
189.0000466945129
 33
0.0
  0
POINT
  5
4BB
330
4B6
100
AcDbEntity
  8
Defpoints
 62
     0
100
AcDbPoint
 10
1450.567254675714
 20
189.0000466945129
 30
0.0
  0
POINT
  5
4BC
330
4B6
100
AcDbEntity
  8
Defpoints
 62
     0
100
AcDbPoint
 10
1378.356919806242
 20
231.914700812175
 30
0.0
  0
ENDBLK
  5
4BD
330
4B6
100
AcDbEntity
  8
0
100
AcDbBlockEnd
  0
BLOCK
  5
4BF
330
4BE
100
AcDbEntity
  8
0
100
AcDbBlockBegin
  2
*D46
 70
     1
 10
0.0
 20
0.0
 30
0.0
  3
*D46
  1

  0
LINE
  5
4C0
330
4BE
100
AcDbEntity
  8
标注
370
    -2
100
AcDbLine
 10
1423.841438899511
 20
500.1453175591501
 30
0.0
 11
1437.836675543594
 21
507.8998872619846
 31
0.0
  0
MTEXT
  5
4C1
330
4BE
100
AcDbEntity
  8
标注
100
AcDbMText
 10
1336.371209873993
 20
451.679256916435
 30
0.0
 40
15.0
 41
0.0
 71
     5
 72
     1
  1
\A1;R84mm [R3 1/4"]
 11
0.8747022902551858
 21
0.48466060642715
 31
0.0
 73
     1
 44
1.0
  0
SOLID
  5
4C2
330
4BE
100
AcDbEntity
  8
标注
100
AcDbTrace
 10
1436.544247259789
 20
510.2324267026654
 30
0.0
 11
1439.1291038274
 21
505.5673478213043
 31
0.0
 12
1451.831912187677
 22
515.6544569648191
 32
0.0
 13
1451.831912187677
 23
515.6544569648191
 33
0.0
  0
POINT
  5
4C3
330
4BE
100
AcDbEntity
  8
Defpoints
 62
     0
100
AcDbPoint
 10
1451.831912187677
 20
515.6544569648191
 30
0.0
  0
POINT
  5
4C4
330
4BE
100
AcDbEntity
  8
Defpoints
 62
     0
100
AcDbPoint
 10
1378.356919806241
 20
474.9429660249385
 30
0.0
  0
ENDBLK
  5
4C5
330
4BE
100
AcDbEntity
  8
0
100
AcDbBlockEnd
  0
BLOCK
  5
4C7
330
4C6
100
AcDbEntity
  8
0
100
AcDbBlockBegin
  2
*D47
 70
     1
 10
0.0
 20
0.0
 30
0.0
  3
*D47
  1

  0
LINE
  5
4C8
330
4C6
100
AcDbEntity
  8
标注
370
    -2
100
AcDbLine
 10
780.7883390333127
 20
548.1689796828536
 30
0.0
 11
769.6335795655052
 21
559.6394348270648
 31
0.0
  0
MTEXT
  5
4C9
330
4C6
100
AcDbEntity
  8
标注
100
AcDbMText
 10
853.9914480407988
 20
472.8941177989678
 30
0.0
 40
15.0
 41
0.0
 71
     5
 72
     1
  1
\A1;R164mm [R6 1/2"]
 11
0.6971724667379661
 21
-0.7169034465131966
 31
0.0
 73
     1
 44
1.0
  0
SOLID
  5
4CA
330
4C6
100
AcDbEntity
  8
标注
100
AcDbTrace
 10
771.5453220895404
 20
561.4985614050326
 30
0.0
 11
767.7218370414697
 21
557.7803082490969
 31
0.0
 12
758.4788200976977
 22
571.109889971276
 32
0.0
 13
758.4788200976977
 23
571.109889971276
 33
0.0
  0
POINT
  5
4CB
330
4C6
100
AcDbEntity
  8
Defpoints
 62
     0
100
AcDbPoint
 10
758.4788200976977
 20
571.109889971276
 30
0.0
  0
POINT
  5
4CC
330
4C6
100
AcDbEntity
  8
Defpoints
 62
     0
100
AcDbPoint
 10
872.8151046427241
 20
453.5377247431118
 30
0.0
  0
ENDBLK
  5
4CD
330
4C6
100
AcDbEntity
  8
0
100
AcDbBlockEnd
  0
BLOCK
  5
4CF
330
4CE
100
AcDbEntity
  8
0
100
AcDbBlockBegin
  2
*D48
 70
     1
 10
0.0
 20
0.0
 30
0.0
  3
*D48
  1

  0
LINE
  5
4D0
330
4CE
100
AcDbEntity
  8
标注
370
    -2
100
AcDbLine
 10
967.9062144129996
 20
591.4033509507913
 30
0.0
 11
968.99548535491
 21
607.3662294134967
 31
0.0
  0
MTEXT
  5
4D1
330
4CE
100
AcDbEntity
  8
标注
100
AcDbMText
 10
960.0770795180187
 20
476.670162000095
 30
0.0
 40
15.0
 41
0.0
 71
     5
 72
     1
  1
\A1;R474mm [R18 5/8"]
 11
0.0680794338694003
 21
0.9976799039190987
 31
0.0
 73
     1
 44
1.0
  0
SOLID
  5
4D2
330
4CE
100
AcDbEntity
  8
标注
100
AcDbTrace
 10
966.3350056111259
 20
607.5477745704819
 30
0.0
 11
971.6559650986942
 21
607.1846842565117
 31
0.0
 12
970.0847562968204
 22
623.3291078762024
 32
0.0
 13
970.0847562968204
 23
623.3291078762024
 33
0.0
  0
POINT
  5
4D3
330
4CE
100
AcDbEntity
  8
Defpoints
 62
     0
100
AcDbPoint
 10
970.0847562968204
 20
623.3291078762024
 30
0.0
  0
POINT
  5
4D4
330
4CE
100
AcDbEntity
  8
Defpoints
 62
     0
100
AcDbPoint
 10
937.8151046427248
 20
150.4288334185497
 30
0.0
  0
ENDBLK
  5
4D5
330
4CE
100
AcDbEntity
  8
0
100
AcDbBlockEnd
  0
BLOCK
  5
4D7
330
4D6
100
AcDbEntity
  8
0
100
AcDbBlockBegin
  2
*D49
 70
     1
 10
0.0
 20
0.0
 30
0.0
  3
*D49
  1

  0
LINE
  5
4D8
330
4D6
100
AcDbEntity
  8
标注
370
    -2
100
AcDbLine
 10
762.0920211910697
 20
199.329236500801
 30
0.0
 11
750.8202248684797
 21
187.973770519079
 31
0.0
  0
MTEXT
  5
4D9
330
4D6
100
AcDbEntity
  8
标注
100
AcDbMText
 10
835.1825754703641
 20
272.9623362260299
 30
0.0
 40
15.0
 41
0.0
 71
     5
 72
     1
  1
\A1;R104mm [R4 1/8"]
 11
0.7044872701618759
 21
0.7097166238576268
 31
0.0
 73
     1
 44
1.0
  0
SOLID
  5
4DA
330
4D6
100
AcDbEntity
  8
标注
100
AcDbTrace
 10
748.9276472048593
 20
189.8524032395107
 30
0.0
 11
752.7128025321001
 21
186.0951377986473
 31
0.0
 12
739.5484285458897
 22
176.618304537357
 32
0.0
 13
739.5484285458897
 23
176.618304537357
 33
0.0
  0
POINT
  5
4DB
330
4D6
100
AcDbEntity
  8
Defpoints
 62
     0
100
AcDbPoint
 10
739.5484285458897
 20
176.618304537357
 30
0.0
  0
POINT
  5
4DC
330
4D6
100
AcDbEntity
  8
Defpoints
 62
     0
100
AcDbPoint
 10
812.8151046427245
 20
250.4288334185501
 30
0.0
  0
ENDBLK
  5
4DD
330
4D6
100
AcDbEntity
  8
0
100
AcDbBlockEnd
  0
BLOCK
  5
4DF
330
4DE
100
AcDbEntity
  8
0
100
AcDbBlockBegin
  2
*D50
 70
     1
 10
0.0
 20
0.0
 30
0.0
  3
*D50
  1

  0
LINE
  5
4E0
330
4DE
100
AcDbEntity
  8
标注
370
    -2
100
AcDbLine
 10
1054.364368627594
 20
575.0559266003573
 30
0.0
 11
1060.612764262124
 21
589.7854056133568
 31
0.0
  0
MTEXT
  5
4E1
330
4DE
100
AcDbEntity
  8
标注
100
AcDbMText
 10
1013.359272275993
 20
478.3937205775488
 30
0.0
 40
15.0
 41
0.0
 71
     5
 72
     1
  1
\A1;R164mm [R6 1/2"]
 11
0.3905247271581067
 21
0.9205924383124633
 31
0.0
 73
     1
 44
1.0
  0
SOLID
  5
4E2
330
4DE
100
AcDbEntity
  8
标注
100
AcDbTrace
 10
1058.157851093291
 20
590.8268048857785
 30
0.0
 11
1063.067677430957
 21
588.7440063409352
 31
0.0
 12
1066.861159896654
 22
604.5148846263563
 32
0.0
 13
1066.861159896654
 23
604.5148846263563
 33
0.0
  0
POINT
  5
4E3
330
4DE
100
AcDbEntity
  8
Defpoints
 62
     0
100
AcDbPoint
 10
1066.861159896654
 20
604.5148846263563
 30
0.0
  0
POINT
  5
4E4
330
4DE
100
AcDbEntity
  8
Defpoints
 62
     0
100
AcDbPoint
 10
1002.815104642724
 20
453.5377247431124
 30
0.0
  0
ENDBLK
  5
4E5
330
4DE
100
AcDbEntity
  8
0
100
AcDbBlockEnd
  0
BLOCK
  5
4E7
330
4E6
100
AcDbEntity
  8
0
100
AcDbBlockBegin
  2
*D51
 70
     1
 10
0.0
 20
0.0
 30
0.0
  3
*D51
  1

  0
LINE
  5
4E8
330
4E6
100
AcDbEntity
  8
标注
370
    -2
100
AcDbLine
 10
1141.911766325867
 20
590.9062541346465
 30
0.0
 11
1134.11163468733
 21
576.936359846518
 31
0.0
  0
MTEXT
  5
4E9
330
4E6
100
AcDbEntity
  8
标注
100
AcDbMText
 10
1183.95935093986
 20
666.2127155315887
 30
0.0
 40
15.0
 41
0.0
 71
     5
 72
     1
  1
\A1;R20mm [R3/4"]
 11
0.4875082274086013
 21
0.8731183930080293
 31
0.0
 73
     1
 44
1.0
  0
SOLID
  5
4EA
330
4E6
100
AcDbEntity
  8
标注
100
AcDbTrace
 10
1131.783318972642
 20
578.2363817862743
 30
0.0
 11
1136.439950402018
 21
575.6363379067618
 31
0.0
 12
1126.311503048792
 22
562.9664655583892
 32
0.0
 13
1126.311503048792
 23
562.9664655583892
 33
0.0
  0
POINT
  5
4EB
330
4E6
100
AcDbEntity
  8
Defpoints
 62
     0
100
AcDbPoint
 10
1126.311503048792
 20
562.9664655583892
 30
0.0
  0
POINT
  5
4EC
330
4E6
100
AcDbEntity
  8
Defpoints
 62
     0
100
AcDbPoint
 10
1136.061667596964
 20
580.4288334185501
 30
0.0
  0
ENDBLK
  5
4ED
330
4E6
100
AcDbEntity
  8
0
100
AcDbBlockEnd
  0
BLOCK
  5
54E
330
548
100
AcDbEntity
  8
0
100
AcDbBlockBegin
  2
*D52
 70
     1
 10
0.0
 20
0.0
 30
0.0
  3
*D52
  1

  0
LINE
  5
610
330
548
100
AcDbEntity
  8
标注
 62
     0
370
    -2
100
AcDbLine
 10
1667.458449166971
 20
658.5439028171129
 30
0.0
 11
1646.129964217844
 21
620.3449731230107
 31
0.0
  0
MTEXT
  5
611
330
548
100
AcDbEntity
  8
标注
 62
     0
100
AcDbMText
 10
1697.927713380009
 20
713.1138023801137
 30
0.0
 40
10.0
 41
0.0
 71
     5
 72
     1
  1
R20mm [R3/4"]
 11
0.4875082274086122
 21
0.8731183930080232
 31
0.0
 73
     1
 44
1.0
  0
SOLID
  5
612
330
548
100
AcDbEntity
  8
标注
 62
     0
100
AcDbTrace
 10
1644.383727431828
 20
621.319989577828
 30
0.0
 11
1647.87620100386
 21
619.3699566681932
 31
0.0
 12
1640.27986548894
 22
609.8675524069142
 32
0.0
 13
1640.27986548894
 23
609.8675524069142
 33
0.0
  0
POINT
  5
613
330
548
100
AcDbEntity
  8
Defpoints
 62
     0
100
AcDbPoint
 10
1640.27986548894
 20
609.8675524069142
 30
0.0
  0
POINT
  5
614
330
548
100
AcDbEntity
  8
Defpoints
 62
     0
100
AcDbPoint
 10
1650.030030037112
 20
627.3299202670752
 30
0.0
  0
ENDBLK
  5
54F
330
548
100
AcDbEntity
  8
0
100
AcDbBlockEnd
  0
BLOCK
  5
556
330
550
100
AcDbEntity
  8
0
100
AcDbBlockBegin
  2
*D53
 70
     1
 10
0.0
 20
0.0
 30
0.0
  3
*D53
  1

  0
LINE
  5
60B
330
550
100
AcDbEntity
  8
标注
 62
     0
370
    -2
100
AcDbLine
 10
1556.616989252999
 20
594.3392402995081
 30
0.0
 11
1576.143225610905
 21
640.3688622151319
 31
0.0
  0
MTEXT
  5
60C
330
550
100
AcDbEntity
  8
标注
 62
     0
100
AcDbMText
 10
1527.327634716141
 20
525.2948074260731
 30
0.0
 40
10.0
 41
0.0
 71
     5
 72
     1
  1
R164mm [R6 1/2"]
 11
0.390524727158108
 21
0.9205924383124626
 31
0.0
 73
     1
 44
1.0
  0
SOLID
  5
60D
330
550
100
AcDbEntity
  8
标注
 62
     0
100
AcDbTrace
 10
1574.30204073428
 20
641.1499116694479
 30
0.0
 11
1577.98441048753
 21
639.5878127608157
 31
0.0
 12
1580.829522336802
 22
651.4159714748816
 32
0.0
 13
1580.829522336802
 23
651.4159714748816
 33
0.0
  0
POINT
  5
60E
330
550
100
AcDbEntity
  8
Defpoints
 62
     0
100
AcDbPoint
 10
1580.829522336802
 20
651.4159714748816
 30
0.0
  0
POINT
  5
60F
330
550
100
AcDbEntity
  8
Defpoints
 62
     0
100
AcDbPoint
 10
1516.783467082872
 20
500.4388115916368
 30
0.0
  0
ENDBLK
  5
557
330
550
100
AcDbEntity
  8
0
100
AcDbBlockEnd
  0
BLOCK
  5
55E
330
558
100
AcDbEntity
  8
0
100
AcDbBlockBegin
  2
*D54
 70
     1
 10
0.0
 20
0.0
 30
0.0
  3
*D54
  1

  0
LINE
  5
5FC
330
558
100
AcDbEntity
  8
标注
 62
     0
370
    -2
100
AcDbLine
 10
1296.901465373506
 20
267.2261068051139
 30
0.0
 11
1261.97063822798
 21
232.0359908721735
 31
0.0
  0
MTEXT
  5
5FD
330
558
100
AcDbEntity
  8
标注
 62
     0
100
AcDbMText
 10
1349.150937910512
 20
319.8634230745546
 30
0.0
 40
10.0
 41
0.0
 71
     5
 72
     1
  1
R104mm [R4 1/8"]
 11
0.7044872701618738
 21
0.7097166238576289
 31
0.0
 73
     1
 44
1.0
  0
SOLID
  5
5FE
330
558
100
AcDbEntity
  8
标注
 62
     0
100
AcDbTrace
 10
1260.551204980265
 20
233.4449654124971
 30
0.0
 11
1263.390071475696
 21
230.6270163318496
 31
0.0
 12
1253.516790986038
 22
223.5193913858819
 32
0.0
 13
1253.516790986038
 23
223.5193913858819
 33
0.0
  0
POINT
  5
5FF
330
558
100
AcDbEntity
  8
Defpoints
 62
     0
100
AcDbPoint
 10
1253.516790986038
 20
223.5193913858819
 30
0.0
  0
POINT
  5
600
330
558
100
AcDbEntity
  8
Defpoints
 62
     0
100
AcDbPoint
 10
1326.783467082872
 20
297.3299202670753
 30
0.0
  0
ENDBLK
  5
55F
330
558
100
AcDbEntity
  8
0
100
AcDbBlockEnd
  0
BLOCK
  5
566
330
560
100
AcDbEntity
  8
0
100
AcDbBlockBegin
  2
*D55
 70
     1
 10
0.0
 20
0.0
 30
0.0
  3
*D55
  1

  0
LINE
  5
606
330
560
100
AcDbEntity
  8
标注
 62
     0
370
    -2
100
AcDbLine
 10
1479.605262390833
 20
605.0484410020127
 30
0.0
 11
1483.236165530535
 21
658.2580358776985
 31
0.0
  0
MTEXT
  5
607
330
560
100
AcDbEntity
  8
标注
 62
     0
100
AcDbMText
 10
1474.045441958166
 20
523.57124884862
 30
0.0
 40
10.0
 41
0.0
 71
     5
 72
     1
  1
R474mm [R18 5/8"]
 11
0.0680794338693999
 21
0.9976799039190987
 31
0.0
 73
     1
 44
1.0
  0
SOLID
  5
608
330
560
100
AcDbEntity
  8
标注
 62
     0
100
AcDbTrace
 10
1481.240805722697
 20
658.3941947454373
 30
0.0
 11
1485.231525338373
 21
658.1218770099597
 31
0.0
 12
1484.053118736968
 22
670.2301947247276
 32
0.0
 13
1484.053118736968
 23
670.2301947247276
 33
0.0
  0
POINT
  5
609
330
560
100
AcDbEntity
  8
Defpoints
 62
     0
100
AcDbPoint
 10
1484.053118736968
 20
670.2301947247276
 30
0.0
  0
POINT
  5
60A
330
560
100
AcDbEntity
  8
Defpoints
 62
     0
100
AcDbPoint
 10
1451.783467082872
 20
197.3299202670748
 30
0.0
  0
ENDBLK
  5
567
330
560
100
AcDbEntity
  8
0
100
AcDbBlockEnd
  0
BLOCK
  5
56E
330
568
100
AcDbEntity
  8
0
100
AcDbBlockBegin
  2
*D56
 70
     1
 10
0.0
 20
0.0
 30
0.0
  3
*D56
  1

  0
LINE
  5
601
330
568
100
AcDbEntity
  8
标注
 62
     0
370
    -2
100
AcDbLine
 10
1315.6718754756
 20
573.5629631359833
 30
0.0
 11
1280.813252138702
 21
609.408135461643
 31
0.0
  0
MTEXT
  5
602
330
568
100
AcDbEntity
  8
标注
 62
     0
100
AcDbMText
 10
1367.959810480947
 20
519.7952046474936
 30
0.0
 40
10.0
 41
0.0
 71
     5
 72
     1
  1
R164mm [R6 1/2"]
 11
0.6971724667379661
 21
-0.7169034465131966
 31
0.0
 73
     1
 44
1.0
  0
SOLID
  5
603
330
568
100
AcDbEntity
  8
标注
 62
     0
100
AcDbTrace
 10
1282.247059031728
 20
610.8024803951186
 30
0.0
 11
1279.379445245675
 21
608.0137905281673
 31
0.0
 12
1272.447182537846
 22
618.0109768198012
 32
0.0
 13
1272.447182537846
 23
618.0109768198012
 33
0.0
  0
POINT
  5
604
330
568
100
AcDbEntity
  8
Defpoints
 62
     0
100
AcDbPoint
 10
1272.447182537846
 20
618.0109768198012
 30
0.0
  0
POINT
  5
605
330
568
100
AcDbEntity
  8
Defpoints
 62
     0
100
AcDbPoint
 10
1386.783467082873
 20
500.4388115916371
 30
0.0
  0
ENDBLK
  5
56F
330
568
100
AcDbEntity
  8
0
100
AcDbBlockEnd
  0
BLOCK
  5
576
330
570
100
AcDbEntity
  8
0
100
AcDbBlockBegin
  2
*D57
 70
     1
 10
0.0
 20
0.0
 30
0.0
  3
*D57
  1

  0
LINE
  5
5F2
330
570
100
AcDbEntity
  8
标注
 62
     0
370
    -2
100
AcDbLine
 10
1913.02656978243
 20
533.3143538922406
 30
0.0
 11
1955.303847144763
 21
556.739616536219
 31
0.0
  0
MTEXT
  5
5F3
330
570
100
AcDbEntity
  8
标注
 62
     0
100
AcDbMText
 10
1850.339572314141
 20
498.5803437649616
 30
0.0
 40
10.0
 41
0.0
 71
     5
 72
     1
  1
R84mm [R3 1/4"]
 11
0.8747022902551876
 21
0.4846606064271468
 31
0.0
 73
     1
 44
1.0
  0
SOLID
  5
5F4
330
570
100
AcDbEntity
  8
标注
 62
     0
100
AcDbTrace
 10
1954.334525931908
 20
558.4890211167293
 30
0.0
 11
1956.273168357617
 21
554.9902119557087
 31
0.0
 12
1965.800274627825
 22
562.5555438133447
 32
0.0
 13
1965.800274627825
 23
562.5555438133447
 33
0.0
  0
POINT
  5
5F5
330
570
100
AcDbEntity
  8
Defpoints
 62
     0
100
AcDbPoint
 10
1965.800274627825
 20
562.5555438133447
 30
0.0
  0
POINT
  5
5F6
330
570
100
AcDbEntity
  8
Defpoints
 62
     0
100
AcDbPoint
 10
1892.325282246389
 20
521.8440528734642
 30
0.0
  0
ENDBLK
  5
577
330
570
100
AcDbEntity
  8
0
100
AcDbBlockEnd
  0
BLOCK
  5
57E
330
578
100
AcDbEntity
  8
0
100
AcDbBlockBegin
  2
*D58
 70
     1
 10
0.0
 20
0.0
 30
0.0
  3
*D58
  1

  0
LINE
  5
5F7
330
578
100
AcDbEntity
  8
标注
 62
     0
370
    -2
100
AcDbLine
 10
1912.670257546915
 20
266.7247541592955
 30
0.0
 11
1954.219854991652
 21
242.03179841699
 31
0.0
  0
MTEXT
  5
5F8
330
578
100
AcDbEntity
  8
标注
 62
     0
100
AcDbMText
 10
1851.062233749548
 20
303.3384471565073
 30
0.0
 40
10.0
 41
0.0
 71
     5
 72
     1
  1
R84mm [R3 1/4"]
 11
0.8596468436842002
 21
-0.5108887394959809
 31
0.0
 73
     1
 44
1.0
  0
SOLID
  5
5F9
330
578
100
AcDbEntity
  8
标注
 62
     0
100
AcDbTrace
 10
1955.241632470644
 20
243.7510921043585
 30
0.0
 11
1953.19807751266
 21
240.3125047296216
 31
0.0
 12
1964.535617115862
 22
235.9011335430382
 32
0.0
 13
1964.535617115862
 23
235.9011335430382
 33
0.0
  0
POINT
  5
5FA
330
578
100
AcDbEntity
  8
Defpoints
 62
     0
100
AcDbPoint
 10
1964.535617115862
 20
235.9011335430382
 30
0.0
  0
POINT
  5
5FB
330
578
100
AcDbEntity
  8
Defpoints
 62
     0
100
AcDbPoint
 10
1892.32528224639
 20
278.8157876607004
 30
0.0
  0
ENDBLK
  5
57F
330
578
100
AcDbEntity
  8
0
100
AcDbBlockEnd
  0
BLOCK
  5
58B
330
580
100
AcDbEntity
  8
0
100
AcDbBlockBegin
  2
*D59
 70
     1
 10
0.0
 20
0.0
 30
0.0
  3
*D59
  1

  0
LINE
  5
629
330
580
100
AcDbEntity
  8
标注
 62
     0
370
    -2
100
AcDbLine
 10
1431.783467082873
 20
671.3299202670746
 30
0.0
 11
1162.334434351827
 21
671.3299202670746
 31
0.0
  0
LINE
  5
62A
330
580
100
AcDbEntity
  8
标注
 62
     0
370
    -2
100
AcDbLine
 10
1306.783467082873
 20
193.329920267075
 30
0.0
 11
1162.334434351827
 21
193.329920267075
 31
0.0
  0
LINE
  5
62B
330
580
100
AcDbEntity
  8
标注
 62
     0
370
    -2
100
AcDbLine
 10
1163.584434351828
 20
659.3299202670747
 30
0.0
 11
1163.584434351827
 21
503.9965869337414
 31
0.0
  0
LINE
  5
62C
330
580
100
AcDbEntity
  8
标注
 62
     0
370
    -2
100
AcDbLine
 10
1163.584434351827
 20
205.3299202670751
 30
0.0
 11
1163.584434351827
 21
360.6632536004083
 31
0.0
  0
SOLID
  5
62D
330
580
100
AcDbEntity
  8
标注
 62
     0
100
AcDbTrace
 10
1161.584434351827
 20
659.3299202670747
 30
0.0
 11
1165.584434351828
 21
659.3299202670747
 31
0.0
 12
1163.584434351828
 22
671.3299202670746
 32
0.0
 13
1163.584434351828
 23
671.3299202670746
 33
0.0
  0
SOLID
  5
62E
330
580
100
AcDbEntity
  8
标注
 62
     0
100
AcDbTrace
 10
1161.584434351827
 20
205.3299202670751
 30
0.0
 11
1165.584434351827
 21
205.3299202670751
 31
0.0
 12
1163.584434351827
 22
193.329920267075
 32
0.0
 13
1163.584434351827
 23
193.329920267075
 33
0.0
  0
MTEXT
  5
62F
330
580
100
AcDbEntity
  8
标注
 62
     0
100
AcDbMText
 10
1163.584434351827
 20
432.3299202670751
 30
0.0
 40
10.0
 41
0.0
 71
     5
 72
     1
  1
478mm [18 7/8"]
 11
0.0000000000000001
 21
1.0
 31
0.0
 73
     1
 44
1.0
  0
POINT
  5
630
330
580
100
AcDbEntity
  8
Defpoints
 62
     0
100
AcDbPoint
 10
1451.783467082873
 20
671.3299202670746
 30
0.0
  0
POINT
  5
631
330
580
100
AcDbEntity
  8
Defpoints
 62
     0
100
AcDbPoint
 10
1326.783467082872
 20
193.329920267075
 30
0.0
  0
POINT
  5
632
330
580
100
AcDbEntity
  8
Defpoints
 62
     0
100
AcDbPoint
 10
1163.584434351827
 20
193.329920267075
 30
0.0
  0
ENDBLK
  5
58C
330
580
100
AcDbEntity
  8
0
100
AcDbBlockEnd
  0
BLOCK
  5
598
330
58D
100
AcDbEntity
  8
0
100
AcDbBlockBegin
  2
*D60
 70
     1
 10
0.0
 20
0.0
 30
0.0
  3
*D60
  1

  0
LINE
  5
615
330
58D
100
AcDbEntity
  8
标注
 62
     0
370
    -2
100
AcDbLine
 10
1979.98346708287
 20
380.3299202670751
 30
0.0
 11
1979.98346708287
 21
127.6133671471304
 31
0.0
  0
LINE
  5
616
330
58D
100
AcDbEntity
  8
标注
 62
     0
370
    -2
100
AcDbLine
 10
1222.783467082873
 20
277.3299202670751
 30
0.0
 11
1222.783467082873
 21
127.6133671471304
 31
0.0
  0
LINE
  5
617
330
58D
100
AcDbEntity
  8
标注
 62
     0
370
    -2
100
AcDbLine
 10
1967.98346708287
 20
128.8633671471304
 30
0.0
 11
1682.216800416205
 21
128.8633671471304
 31
0.0
  0
LINE
  5
618
330
58D
100
AcDbEntity
  8
标注
 62
     0
370
    -2
100
AcDbLine
 10
1234.783467082873
 20
128.8633671471304
 30
0.0
 11
1520.550133749538
 21
128.8633671471304
 31
0.0
  0
SOLID
  5
619
330
58D
100
AcDbEntity
  8
标注
 62
     0
100
AcDbTrace
 10
1967.98346708287
 20
130.8633671471304
 30
0.0
 11
1967.98346708287
 21
126.8633671471304
 31
0.0
 12
1979.98346708287
 22
128.8633671471304
 32
0.0
 13
1979.98346708287
 23
128.8633671471304
 33
0.0
  0
SOLID
  5
61A
330
58D
100
AcDbEntity
  8
标注
 62
     0
100
AcDbTrace
 10
1234.783467082873
 20
130.8633671471304
 30
0.0
 11
1234.783467082873
 21
126.8633671471304
 31
0.0
 12
1222.783467082873
 22
128.8633671471304
 32
0.0
 13
1222.783467082873
 23
128.8633671471304
 33
0.0
  0
MTEXT
  5
61B
330
58D
100
AcDbEntity
  8
标注
 62
     0
100
AcDbMText
 10
1601.383467082872
 20
128.8633671471304
 30
0.0
 40
10.0
 41
0.0
 71
     5
 72
     1
  1
757,2mm [29 3/4"]
 73
     1
 44
1.0
  0
POINT
  5
61C
330
58D
100
AcDbEntity
  8
Defpoints
 62
     0
100
AcDbPoint
 10
1979.98346708287
 20
400.3299202670748
 30
0.0
  0
POINT
  5
61D
330
58D
100
AcDbEntity
  8
Defpoints
 62
     0
100
AcDbPoint
 10
1222.783467082873
 20
297.3299202670751
 30
0.0
  0
POINT
  5
61E
330
58D
100
AcDbEntity
  8
Defpoints
 62
     0
100
AcDbPoint
 10
1222.783467082873
 20
128.8633671471304
 30
0.0
  0
ENDBLK
  5
599
330
58D
100
AcDbEntity
  8
0
100
AcDbBlockEnd
  0
BLOCK
  5
5A5
330
59A
100
AcDbEntity
  8
0
100
AcDbBlockBegin
  2
*D61
 70
     1
 10
0.0
 20
0.0
 30
0.0
  3
*D61
  1

  0
LINE
  5
5E8
330
59A
100
AcDbEntity
  8
标注
 62
     0
370
    -2
100
AcDbLine
 10
1862.983467082869
 20
607.3299202670747
 30
0.0
 11
2036.123013904646
 21
607.3299202670747
 31
0.0
  0
LINE
  5
5E9
330
59A
100
AcDbEntity
  8
标注
 62
     0
370
    -2
100
AcDbLine
 10
1862.983467082869
 20
193.3299202670752
 30
0.0
 11
2036.123013904646
 21
193.3299202670752
 31
0.0
  0
LINE
  5
5EA
330
59A
100
AcDbEntity
  8
标注
 62
     0
370
    -2
100
AcDbLine
 10
2034.873013904646
 20
595.3299202670747
 30
0.0
 11
2034.873013904646
 21
468.6632536004085
 31
0.0
  0
LINE
  5
5EB
330
59A
100
AcDbEntity
  8
标注
 62
     0
370
    -2
100
AcDbLine
 10
2034.873013904646
 20
205.3299202670753
 30
0.0
 11
2034.873013904646
 21
331.9965869337418
 31
0.0
  0
SOLID
  5
5EC
330
59A
100
AcDbEntity
  8
标注
 62
     0
100
AcDbTrace
 10
2032.873013904646
 20
595.3299202670747
 30
0.0
 11
2036.873013904646
 21
595.3299202670747
 31
0.0
 12
2034.873013904646
 22
607.3299202670747
 32
0.0
 13
2034.873013904646
 23
607.3299202670747
 33
0.0
  0
SOLID
  5
5ED
330
59A
100
AcDbEntity
  8
标注
 62
     0
100
AcDbTrace
 10
2032.873013904646
 20
205.3299202670753
 30
0.0
 11
2036.873013904646
 21
205.3299202670753
 31
0.0
 12
2034.873013904646
 22
193.3299202670752
 32
0.0
 13
2034.873013904646
 23
193.3299202670752
 33
0.0
  0
MTEXT
  5
5EE
330
59A
100
AcDbEntity
  8
标注
 62
     0
100
AcDbMText
 10
2034.873013904646
 20
400.3299202670755
 30
0.0
 40
10.0
 41
0.0
 71
     5
 72
     1
  1
414mm [16 1/4"]
 11
0.0000000000000001
 21
1.0
 31
0.0
 73
     1
 44
1.0
  0
POINT
  5
5EF
330
59A
100
AcDbEntity
  8
Defpoints
 62
     0
100
AcDbPoint
 10
1842.98346708287
 20
607.3299202670747
 30
0.0
  0
POINT
  5
5F0
330
59A
100
AcDbEntity
  8
Defpoints
 62
     0
100
AcDbPoint
 10
1842.983467082869
 20
193.3299202670753
 30
0.0
  0
POINT
  5
5F1
330
59A
100
AcDbEntity
  8
Defpoints
 62
     0
100
AcDbPoint
 10
2034.873013904646
 20
193.3299202670752
 30
0.0
  0
ENDBLK
  5
5A6
330
59A
100
AcDbEntity
  8
0
100
AcDbBlockEnd
  0
BLOCK
  5
63A
330
639
100
AcDbEntity
  8
0
100
AcDbBlockBegin
  2
*D62
 70
     1
 10
0.0
 20
0.0
 30
0.0
  3
*D62
  1

  0
LINE
  5
63B
330
639
100
AcDbEntity
  8
标注
370
    -2
100
AcDbLine
 10
1833.766402191076
 20
227.9959571961931
 30
0.0
 11
2092.458991352011
 21
227.9959571961931
 31
0.0
  0
LINE
  5
63C
330
639
100
AcDbEntity
  8
标注
370
    -2
100
AcDbLine
 10
1833.766402191051
 20
655.9959571961857
 30
0.0
 11
2092.458991352011
 21
655.9959571961857
 31
0.0
  0
LINE
  5
63D
330
639
100
AcDbEntity
  8
标注
370
    -2
100
AcDbLine
 10
2084.458991352011
 20
243.9959571961931
 30
0.0
 11
2084.458991352011
 21
415.6626238628561
 31
0.0
  0
LINE
  5
63E
330
639
100
AcDbEntity
  8
标注
370
    -2
100
AcDbLine
 10
2084.458991352011
 20
639.9959571961857
 30
0.0
 11
2084.458991352011
 21
468.3292905295227
 31
0.0
  0
SOLID
  5
63F
330
639
100
AcDbEntity
  8
标注
100
AcDbTrace
 10
2081.792324685345
 20
243.9959571961931
 30
0.0
 11
2087.125658018678
 21
243.9959571961931
 31
0.0
 12
2084.458991352011
 22
227.9959571961931
 32
0.0
 13
2084.458991352011
 23
227.9959571961931
 33
0.0
  0
SOLID
  5
640
330
639
100
AcDbEntity
  8
标注
100
AcDbTrace
 10
2081.792324685345
 20
639.9959571961857
 30
0.0
 11
2087.125658018678
 21
639.9959571961857
 31
0.0
 12
2084.458991352011
 22
655.9959571961857
 32
0.0
 13
2084.458991352011
 23
655.9959571961857
 33
0.0
  0
MTEXT
  5
641
330
639
100
AcDbEntity
  8
标注
100
AcDbMText
 10
2084.458991352011
 20
441.9959571961896
 30
0.0
 40
16.0
 41
0.0
 71
     5
 72
     1
  1
\A1;428
 11
0.0000000000000001
 21
1.0
 31
0.0
 73
     1
 44
1.0
  0
POINT
  5
642
330
639
100
AcDbEntity
  8
Defpoints
 62
     0
100
AcDbPoint
 10
1811.766402191076
 20
227.9959571961931
 30
0.0
  0
POINT
  5
643
330
639
100
AcDbEntity
  8
Defpoints
 62
     0
100
AcDbPoint
 10
1811.766402191051
 20
655.9959571961857
 30
0.0
  0
POINT
  5
644
330
639
100
AcDbEntity
  8
Defpoints
 62
     0
100
AcDbPoint
 10
2084.458991352011
 20
655.9959571961857
 30
0.0
  0
ENDBLK
  5
645
330
639
100
AcDbEntity
  8
0
100
AcDbBlockEnd
  0
BLOCK
  5
647
330
646
100
AcDbEntity
  8
0
100
AcDbBlockBegin
  2
*D63
 70
     1
 10
0.0
 20
0.0
 30
0.0
  3
*D63
  1

  0
LINE
  5
648
330
646
100
AcDbEntity
  8
标注
370
    -2
100
AcDbLine
 10
1222.766402191052
 20
419.9959571961874
 30
0.0
 11
1222.766402191052
 21
145.1895790989011
 31
0.0
  0
LINE
  5
649
330
646
100
AcDbEntity
  8
标注
370
    -2
100
AcDbLine
 10
2000.766402191054
 20
419.9959571961856
 30
0.0
 11
2000.766402191054
 21
145.1895790989011
 31
0.0
  0
LINE
  5
64A
330
646
100
AcDbEntity
  8
标注
370
    -2
100
AcDbLine
 10
1238.766402191052
 20
153.1895790989012
 30
0.0
 11
1585.43306885772
 21
153.1895790989012
 31
0.0
  0
LINE
  5
64B
330
646
100
AcDbEntity
  8
标注
370
    -2
100
AcDbLine
 10
1984.766402191054
 20
153.1895790989012
 30
0.0
 11
1638.099735524386
 21
153.1895790989012
 31
0.0
  0
SOLID
  5
64C
330
646
100
AcDbEntity
  8
标注
100
AcDbTrace
 10
1238.766402191052
 20
155.8562457655678
 30
0.0
 11
1238.766402191052
 21
150.5229124322345
 31
0.0
 12
1222.766402191052
 22
153.1895790989012
 32
0.0
 13
1222.766402191052
 23
153.1895790989012
 33
0.0
  0
SOLID
  5
64D
330
646
100
AcDbEntity
  8
标注
100
AcDbTrace
 10
1984.766402191054
 20
155.8562457655678
 30
0.0
 11
1984.766402191054
 21
150.5229124322345
 31
0.0
 12
2000.766402191054
 22
153.1895790989012
 32
0.0
 13
2000.766402191054
 23
153.1895790989012
 33
0.0
  0
MTEXT
  5
64E
330
646
100
AcDbEntity
  8
标注
100
AcDbMText
 10
1611.766402191053
 20
153.1895790989012
 30
0.0
 40
16.0
 41
0.0
 71
     5
 72
     1
  1
\A1;778
 73
     1
 44
1.0
  0
POINT
  5
64F
330
646
100
AcDbEntity
  8
Defpoints
 62
     0
100
AcDbPoint
 10
1222.766402191052
 20
441.9959571961872
 30
0.0
  0
POINT
  5
650
330
646
100
AcDbEntity
  8
Defpoints
 62
     0
100
AcDbPoint
 10
2000.766402191054
 20
441.9959571961856
 30
0.0
  0
POINT
  5
651
330
646
100
AcDbEntity
  8
Defpoints
 62
     0
100
AcDbPoint
 10
2000.766402191054
 20
153.1895790989012
 30
0.0
  0
ENDBLK
  5
652
330
646
100
AcDbEntity
  8
0
100
AcDbBlockEnd
  0
BLOCK
  5
654
330
653
100
AcDbEntity
  8
0
100
AcDbBlockBegin
  2
*D64
 70
     1
 10
0.0
 20
0.0
 30
0.0
  3
*D64
  1

  0
LINE
  5
655
330
653
100
AcDbEntity
  8
标注
370
    -2
100
AcDbLine
 10
1365.362399353047
 20
343.9016710862668
 30
0.0
 11
1361.147727123441
 21
245.0748352447735
 31
0.0
  0
MTEXT
  5
656
330
653
100
AcDbEntity
  8
标注
100
AcDbMText
 10
1366.995717992996
 20
382.2001921368878
 30
0.0
 40
16.0
 41
0.0
 71
     5
 72
     1
  1
\A1;R1204
 11
0.0426083123464778
 21
0.9990918534944547
 31
0.0
 73
     1
 44
1.0
  0
SOLID
  5
657
330
653
100
AcDbEntity
  8
标注
100
AcDbTrace
 10
1358.483482180789
 20
245.1884574110308
 30
0.0
 11
1363.811972066093
 21
244.9612130785162
 31
0.0
 12
1360.465994125898
 22
229.0893655888622
 32
0.0
 13
1360.465994125898
 23
229.0893655888622
 33
0.0
  0
POINT
  5
658
330
653
100
AcDbEntity
  8
Defpoints
 62
     0
100
AcDbPoint
 10
1360.465994125898
 20
229.0893655888622
 30
0.0
  0
POINT
  5
659
330
653
100
AcDbEntity
  8
Defpoints
 62
     0
100
AcDbPoint
 10
1411.766402191055
 20
1431.995957196185
 30
0.0
  0
ENDBLK
  5
65A
330
653
100
AcDbEntity
  8
0
100
AcDbBlockEnd
  0
BLOCK
  5
65C
330
65B
100
AcDbEntity
  8
0
100
AcDbBlockBegin
  2
*D65
 70
     1
 10
0.0
 20
0.0
 30
0.0
  3
*D65
  1

  0
LINE
  5
65D
330
65B
100
AcDbEntity
  8
标注
370
    -2
100
AcDbLine
 10
1894.362422503864
 20
337.6237679882805
 30
0.0
 11
1943.787601699421
 21
259.8301557445269
 31
0.0
  0
MTEXT
  5
65E
330
65B
100
AcDbEntity
  8
标注
100
AcDbMText
 10
1880.240942733705
 20
359.8505143436388
 30
0.0
 40
16.0
 41
0.0
 71
     5
 72
     1
  1
\A1;R94
 11
0.536258725449083
 21
-0.8440536590642357
 31
0.0
 73
     1
 44
1.0
  0
SOLID
  5
65F
330
65B
100
AcDbEntity
  8
标注
100
AcDbTrace
 10
1946.038411456925
 20
261.2601790123912
 30
0.0
 11
1941.536791941916
 21
258.4001324766626
 31
0.0
 12
1952.367741306606
 22
246.3252971994991
 32
0.0
 13
1952.367741306606
 23
246.3252971994991
 33
0.0
  0
POINT
  5
660
330
65B
100
AcDbEntity
  8
Defpoints
 62
     0
100
AcDbPoint
 10
1952.367741306606
 20
246.3252971994991
 30
0.0
  0
POINT
  5
661
330
65B
100
AcDbEntity
  8
Defpoints
 62
     0
100
AcDbPoint
 10
1901.959421114392
 20
325.6663411515376
 30
0.0
  0
ENDBLK
  5
662
330
65B
100
AcDbEntity
  8
0
100
AcDbBlockEnd
  0
BLOCK
  5
664
330
663
100
AcDbEntity
  8
0
100
AcDbBlockBegin
  2
*D66
 70
     1
 10
0.0
 20
0.0
 30
0.0
  3
*D66
  1

  0
LINE
  5
665
330
663
100
AcDbEntity
  8
标注
370
    -2
100
AcDbLine
 10
1886.428736036102
 20
515.0902217006241
 30
0.0
 11
1982.712305127589
 21
520.1546006473656
 31
0.0
  0
MTEXT
  5
666
330
663
100
AcDbEntity
  8
标注
100
AcDbMText
 10
1848.148319629807
 20
513.0767261816084
 30
0.0
 40
16.0
 41
0.0
 71
     5
 72
     1
  1
\A1;R1504
 11
0.99861955842509
 21
0.0525259700612775
 31
0.0
 73
     1
 44
1.0
  0
SOLID
  5
667
330
663
100
AcDbEntity
  8
标注
100
AcDbTrace
 10
1982.572235874091
 20
522.8175861364991
 30
0.0
 11
1982.852374381085
 21
517.4916151582321
 31
0.0
 12
1998.69021806239
 22
520.995016168346
 32
0.0
 13
1998.69021806239
 23
520.995016168346
 33
0.0
  0
POINT
  5
668
330
663
100
AcDbEntity
  8
Defpoints
 62
     0
100
AcDbPoint
 10
1998.69021806239
 20
520.995016168346
 30
0.0
  0
POINT
  5
669
330
663
100
AcDbEntity
  8
Defpoints
 62
     0
100
AcDbPoint
 10
496.7664021910538
 20
441.9959571961856
 30
0.0
  0
ENDBLK
  5
66A
330
663
100
AcDbEntity
  8
0
100
AcDbBlockEnd
  0
BLOCK
  5
6A8
330
69D
100
AcDbEntity
  8
0
100
AcDbBlockBegin
  2
*D67
 70
     1
 10
0.0
 20
0.0
 30
0.0
  3
*D67
  1

  0
LINE
  5
718
330
69D
100
AcDbEntity
  8
标注
 62
     0
370
    -2
100
AcDbLine
 10
1237.95776050905
 20
372.2334847844642
 30
0.0
 11
1237.95776050905
 21
102.177106687178
 31
0.0
  0
LINE
  5
719
330
69D
100
AcDbEntity
  8
标注
 62
     0
370
    -2
100
AcDbLine
 10
2015.957760509053
 20
372.2334847844623
 30
0.0
 11
2015.957760509053
 21
102.177106687178
 31
0.0
  0
LINE
  5
71A
330
69D
100
AcDbEntity
  8
标注
 62
     0
370
    -2
100
AcDbLine
 10
1249.95776050905
 20
103.427106687178
 30
0.0
 11
1554.457760509051
 21
103.427106687178
 31
0.0
  0
LINE
  5
71B
330
69D
100
AcDbEntity
  8
标注
 62
     0
370
    -2
100
AcDbLine
 10
2003.957760509053
 20
103.427106687178
 30
0.0
 11
1699.457760509051
 21
103.427106687178
 31
0.0
  0
SOLID
  5
71C
330
69D
100
AcDbEntity
  8
标注
 62
     0
100
AcDbTrace
 10
1249.95776050905
 20
105.427106687178
 30
0.0
 11
1249.95776050905
 21
101.427106687178
 31
0.0
 12
1237.95776050905
 22
103.427106687178
 32
0.0
 13
1237.95776050905
 23
103.427106687178
 33
0.0
  0
SOLID
  5
71D
330
69D
100
AcDbEntity
  8
标注
 62
     0
100
AcDbTrace
 10
2003.957760509053
 20
105.427106687178
 30
0.0
 11
2003.957760509053
 21
101.427106687178
 31
0.0
 12
2015.957760509053
 22
103.427106687178
 32
0.0
 13
2015.957760509053
 23
103.427106687178
 33
0.0
  0
MTEXT
  5
71E
330
69D
100
AcDbEntity
  8
标注
 62
     0
100
AcDbMText
 10
1626.957760509051
 20
103.427106687178
 30
0.0
 40
10.0
 41
0.0
 71
     5
 72
     1
  1
778mm [30 5/8"]
 73
     1
 44
1.0
  0
POINT
  5
71F
330
69D
100
AcDbEntity
  8
Defpoints
 62
     0
100
AcDbPoint
 10
1237.95776050905
 20
392.2334847844642
 30
0.0
  0
POINT
  5
720
330
69D
100
AcDbEntity
  8
Defpoints
 62
     0
100
AcDbPoint
 10
2015.957760509053
 20
392.2334847844624
 30
0.0
  0
POINT
  5
721
330
69D
100
AcDbEntity
  8
Defpoints
 62
     0
100
AcDbPoint
 10
2015.957760509053
 20
103.427106687178
 30
0.0
  0
ENDBLK
  5
6A9
330
69D
100
AcDbEntity
  8
0
100
AcDbBlockEnd
  0
BLOCK
  5
6B5
330
6AA
100
AcDbEntity
  8
0
100
AcDbBlockBegin
  2
*D68
 70
     1
 10
0.0
 20
0.0
 30
0.0
  3
*D68
  1

  0
LINE
  5
704
330
6AA
100
AcDbEntity
  8
标注
 62
     0
370
    -2
100
AcDbLine
 10
1846.957760509074
 20
178.2334847844699
 30
0.0
 11
2100.90034967001
 21
178.2334847844698
 31
0.0
  0
LINE
  5
705
330
6AA
100
AcDbEntity
  8
标注
 62
     0
370
    -2
100
AcDbLine
 10
1846.957760509049
 20
606.2334847844623
 30
0.0
 11
2100.90034967001
 21
606.2334847844623
 31
0.0
  0
LINE
  5
706
330
6AA
100
AcDbEntity
  8
标注
 62
     0
370
    -2
100
AcDbLine
 10
2099.65034967001
 20
190.2334847844698
 30
0.0
 11
2099.65034967001
 21
320.5668181177995
 31
0.0
  0
LINE
  5
707
330
6AA
100
AcDbEntity
  8
标注
 62
     0
370
    -2
100
AcDbLine
 10
2099.65034967001
 20
594.2334847844623
 30
0.0
 11
2099.65034967001
 21
463.9001514511327
 31
0.0
  0
SOLID
  5
708
330
6AA
100
AcDbEntity
  8
标注
 62
     0
100
AcDbTrace
 10
2097.65034967001
 20
190.2334847844698
 30
0.0
 11
2101.65034967001
 21
190.2334847844698
 31
0.0
 12
2099.65034967001
 22
178.2334847844698
 32
0.0
 13
2099.65034967001
 23
178.2334847844698
 33
0.0
  0
SOLID
  5
709
330
6AA
100
AcDbEntity
  8
标注
 62
     0
100
AcDbTrace
 10
2097.65034967001
 20
594.2334847844623
 30
0.0
 11
2101.65034967001
 21
594.2334847844623
 31
0.0
 12
2099.65034967001
 22
606.2334847844623
 32
0.0
 13
2099.65034967001
 23
606.2334847844623
 33
0.0
  0
MTEXT
  5
70A
330
6AA
100
AcDbEntity
  8
标注
 62
     0
100
AcDbMText
 10
2099.65034967001
 20
392.2334847844664
 30
0.0
 40
10.0
 41
0.0
 71
     5
 72
     1
  1
428mm [16 7/8"]
 11
0.0000000000000001
 21
1.0
 31
0.0
 73
     1
 44
1.0
  0
POINT
  5
70B
330
6AA
100
AcDbEntity
  8
Defpoints
 62
     0
100
AcDbPoint
 10
1826.957760509074
 20
178.2334847844699
 30
0.0
  0
POINT
  5
70C
330
6AA
100
AcDbEntity
  8
Defpoints
 62
     0
100
AcDbPoint
 10
1826.957760509049
 20
606.2334847844623
 30
0.0
  0
POINT
  5
70D
330
6AA
100
AcDbEntity
  8
Defpoints
 62
     0
100
AcDbPoint
 10
2099.65034967001
 20
606.2334847844623
 30
0.0
  0
ENDBLK
  5
6B6
330
6AA
100
AcDbEntity
  8
0
100
AcDbBlockEnd
  0
BLOCK
  5
6BD
330
6B7
100
AcDbEntity
  8
0
100
AcDbBlockBegin
  2
*D69
 70
     1
 10
0.0
 20
0.0
 30
0.0
  3
*D69
  1

  0
LINE
  5
713
330
6B7
100
AcDbEntity
  8
标注
 62
     0
370
    -2
100
AcDbLine
 10
1947.390157448583
 20
467.735189583376
 30
0.0
 11
2001.898141679287
 21
470.6022321158875
 31
0.0
  0
MTEXT
  5
714
330
6B7
100
AcDbEntity
  8
标注
 62
     0
100
AcDbMText
 10
1863.339677947805
 20
463.3142537698851
 30
0.0
 40
10.0
 41
0.0
 71
     5
 72
     1
  1
R1504mm [R59 1/4"]
 11
0.9986195584250902
 21
0.0525259700612775
 31
0.0
 73
     1
 44
1.0
  0
SOLID
  5
715
330
6B7
100
AcDbEntity
  8
标注
 62
     0
100
AcDbTrace
 10
2001.793089739164
 20
472.5994712327376
 30
0.0
 11
2002.003193619409
 21
468.6049929990373
 31
0.0
 12
2013.881576380388
 22
471.2325437566228
 32
0.0
 13
2013.881576380388
 23
471.2325437566228
 33
0.0
  0
POINT
  5
716
330
6B7
100
AcDbEntity
  8
Defpoints
 62
     0
100
AcDbPoint
 10
2013.881576380388
 20
471.2325437566228
 30
0.0
  0
POINT
  5
717
330
6B7
100
AcDbEntity
  8
Defpoints
 62
     0
100
AcDbPoint
 10
511.9577605090522
 20
392.2334847844623
 30
0.0
  0
ENDBLK
  5
6BE
330
6B7
100
AcDbEntity
  8
0
100
AcDbBlockEnd
  0
BLOCK
  5
6C5
330
6BF
100
AcDbEntity
  8
0
100
AcDbBlockBegin
  2
*D70
 70
     1
 10
0.0
 20
0.0
 30
0.0
  3
*D70
  1

  0
LINE
  5
70E
330
6BF
100
AcDbEntity
  8
标注
 62
     0
370
    -2
100
AcDbLine
 10
1934.757940917969
 20
248.1907736005379
 30
0.0
 11
1961.123994919216
 21
206.6914686965464
 31
0.0
  0
MTEXT
  5
70F
330
6BF
100
AcDbEntity
  8
标注
 62
     0
100
AcDbMText
 10
1895.432301051702
 20
310.0880419319149
 30
0.0
 40
10.0
 41
0.0
 71
     5
 72
     1
  1
R94mm [R3 3/4"]
 11
0.5362587254490911
 21
-0.8440536590642306
 31
0.0
 73
     1
 44
1.0
  0
SOLID
  5
710
330
6BF
100
AcDbEntity
  8
标注
 62
     0
100
AcDbTrace
 10
1962.812102237344
 20
207.7639861474446
 30
0.0
 11
1959.435887601087
 21
205.6189512456482
 31
0.0
 12
1967.559099624605
 22
196.5628247877756
 32
0.0
 13
1967.559099624605
 23
196.5628247877756
 33
0.0
  0
POINT
  5
711
330
6BF
100
AcDbEntity
  8
Defpoints
 62
     0
100
AcDbPoint
 10
1967.559099624605
 20
196.5628247877756
 30
0.0
  0
POINT
  5
712
330
6BF
100
AcDbEntity
  8
Defpoints
 62
     0
100
AcDbPoint
 10
1917.15077943239
 20
275.9038687398145
 30
0.0
  0
ENDBLK
  5
6C6
330
6BF
100
AcDbEntity
  8
0
100
AcDbBlockEnd
  0
BLOCK
  5
6CD
330
6C7
100
AcDbEntity
  8
0
100
AcDbBlockBegin
  2
*D71
 70
     1
 10
0.0
 20
0.0
 30
0.0
  3
*D71
  1

  0
LINE
  5
6E8
330
6C7
100
AcDbEntity
  8
标注
370
    -2
100
AcDbLine
 10
1380.553757671047
 20
294.139198674544
 30
0.0
 11
1376.339085441441
 21
195.3123628330503
 31
0.0
  0
MTEXT
  5
6E9
330
6C7
100
AcDbEntity
  8
标注
100
AcDbMText
 10
1382.187076310995
 20
332.4377197251647
 30
0.0
 40
16.0
 41
0.0
 71
     5
 72
     1
  1
\A1;R1204
 11
0.0426083123464749
 21
0.9990918534944547
 31
0.0
 73
     1
 44
1.0
  0
SOLID
  5
6EA
330
6C7
100
AcDbEntity
  8
标注
100
AcDbTrace
 10
1373.674840498789
 20
195.4259849993076
 30
0.0
 11
1379.003330384093
 21
195.1987406667931
 31
0.0
 12
1375.657352443897
 22
179.3268931771391
 32
0.0
 13
1375.657352443897
 23
179.3268931771391
 33
0.0
  0
POINT
  5
6EB
330
6C7
100
AcDbEntity
  8
Defpoints
 62
     0
100
AcDbPoint
 10
1375.657352443897
 20
179.3268931771391
 30
0.0
  0
POINT
  5
6EC
330
6C7
100
AcDbEntity
  8
Defpoints
 62
     0
100
AcDbPoint
 10
1426.957760509054
 20
1382.233484784461
 30
0.0
  0
ENDBLK
  5
6CE
330
6C7
100
AcDbEntity
  8
0
100
AcDbBlockEnd
  0
ENDSEC
  0
SECTION
  2
ENTITIES
  0
MTEXT
  5
257
330
21
100
AcDbEntity
  8
标注
100
AcDbMText
 10
1411.868971173949
 20
12.47728230885149
 30
0.0
 40
20.0
 41
724.570271212845
 71
     1
 72
     5
  1
{\fArial|b0|i0|c0|p34;802-9(Leonet Victoria) Reveal Cutout}
 73
     1
 44
1.0
  0
ARC
  5
68F
330
21
100
AcDbEntity
  8
0
100
AcDbCircle
 10
1826.957760509049
 20
1382.233484784461
 30
0.0
 40
1204.0
100
AcDbArc
 50
270.0
 51
274.6607052039494
  0
ARC
  5
690
330
21
100
AcDbEntity
  8
0
100
AcDbCircle
 10
1917.150779432391
 20
275.9038687398145
 30
0.0
 40
94.0
100
AcDbArc
 50
274.6607052039494
 51
355.2675314050241
  0
ARC
  5
691
330
21
100
AcDbEntity
  8
0
100
AcDbCircle
 10
511.9577605090523
 20
392.2334847844624
 30
0.0
 40
1504.0
100
AcDbArc
 50
355.2675314050176
 51
4.732468594982436
  0
ARC
  5
692
330
21
100
AcDbEntity
  8
0
100
AcDbCircle
 10
1826.957760509049
 20
-597.766515215537
 30
0.0
 40
1204.0
100
AcDbArc
 50
85.33929479605061
 51
90.0
  0
ARC
  5
693
330
21
100
AcDbEntity
  8
0
100
AcDbCircle
 10
1917.150779432391
 20
508.5631008291098
 30
0.0
 40
94.0
100
AcDbArc
 50
4.732468594979191
 51
85.33929479605061
  0
LINE
  5
694
330
21
100
AcDbEntity
  8
0
100
AcDbLine
 10
1426.957760509045
 20
606.2334847844615
 30
0.0
 11
1826.957760509049
 21
606.2334847844615
 31
0.0
  0
ARC
  5
695
330
21
100
AcDbEntity
  8
0
100
AcDbCircle
 10
1426.957760509054
 20
-597.766515215537
 30
0.0
 40
1204.0
100
AcDbArc
 50
90.0
 51
94.66070520394938
  0
ARC
  5
696
330
21
100
AcDbEntity
  8
0
100
AcDbCircle
 10
1336.764741585695
 20
508.5631008291098
 30
0.0
 40
94.0
100
AcDbArc
 50
94.66070520394938
 51
175.2675314050208
  0
ARC
  5
697
330
21
100
AcDbEntity
  8
0
100
AcDbCircle
 10
2741.957760509051
 20
392.2334847844624
 30
0.0
 40
1504.0
100
AcDbArc
 50
175.2675314050175
 51
184.7324685949824
  0
ARC
  5
698
330
21
100
AcDbEntity
  8
0
100
AcDbCircle
 10
1336.764741585695
 20
275.9038687398145
 30
0.0
 40
94.0
100
AcDbArc
 50
184.7324685949791
 51
265.3392947960506
  0
ARC
  5
699
330
21
100
AcDbEntity
  8
0
100
AcDbCircle
 10
1426.957760509054
 20
1382.233484784461
 30
0.0
 40
1204.0
100
AcDbArc
 50
265.3392947960506
 51
270.0
  0
LINE
  5
69A
330
21
100
AcDbEntity
  8
0
100
AcDbLine
 10
1426.957760509054
 20
178.2334847844615
 30
0.0
 11
1826.957760509059
 21
178.2334847844699
 31
0.0
  0
DIMENSION
  5
69B
330
21
100
AcDbEntity
  8
标注
 48
5.0
100
AcDbDimension
  2
*D67
 10
2015.957760509053
 20
103.427106687178
 30
0.0
 11
1626.957760509051
 21
103.427106687178
 31
0.0
 70
    32
 71
     5
 42
778.0000000000032
  3
mav
100
AcDbAlignedDimension
 13
1237.95776050905
 23
392.2334847844642
 33
0.0
 14
2015.957760509053
 24
392.2334847844624
 34
0.0
100
AcDbRotatedDimension
  0
DIMENSION
  5
69C
330
21
100
AcDbEntity
  8
标注
 48
5.0
100
AcDbDimension
  2
*D68
 10
2099.65034967001
 20
606.2334847844623
 30
0.0
 11
2099.65034967001
 21
392.2334847844664
 31
0.0
 70
    32
 71
     5
 42
427.9999999999924
  3
mav
100
AcDbAlignedDimension
 13
1826.957760509074
 23
178.2334847844699
 33
0.0
 14
1826.957760509049
 24
606.2334847844623
 34
0.0
 50
90.0
100
AcDbRotatedDimension
  0
ENDSEC
  0
SECTION
  2
OBJECTS
  0
DICTIONARY
  5
C
330
0
100
AcDbDictionary
281
     1
  3
ACAD_COLOR
350
1C
  3
ACAD_GROUP
350
D
  3
ACAD_LAYOUT
350
1A
  3
ACAD_MATERIAL
350
1B
  3
ACAD_MLINESTYLE
350
17
  3
ACAD_PLOTSETTINGS
350
19
  3
ACAD_PLOTSTYLENAME
350
E
  0
DICTIONARY
  5
25E
330
2
100
AcDbDictionary
280
     1
281
     1
  3
ACAD_LAYERSTATES
360
25F
  0
DICTIONARY
  5
1C
102
{ACAD_REACTORS
330
C
102
}
330
C
100
AcDbDictionary
281
     1
  0
DICTIONARY
  5
D
102
{ACAD_REACTORS
330
C
102
}
330
C
100
AcDbDictionary
281
     1
  0
DICTIONARY
  5
1A
102
{ACAD_REACTORS
330
C
102
}
330
C
100
AcDbDictionary
281
     1
  3
Model
350
24
  3
布局1
350
20
  3
布局2
350
28
  0
DICTIONARY
  5
1B
102
{ACAD_REACTORS
330
C
102
}
330
C
100
AcDbDictionary
281
     1
  0
DICTIONARY
  5
17
102
{ACAD_REACTORS
330
C
102
}
330
C
100
AcDbDictionary
281
     1
  3
Standard
350
18
  0
DICTIONARY
  5
19
102
{ACAD_REACTORS
330
C
102
}
330
C
100
AcDbDictionary
281
     1
  0
ACDBDICTIONARYWDFLT
  5
E
102
{ACAD_REACTORS
330
C
102
}
330
C
100
AcDbDictionary
281
     1
  3
Normal
350
F
100
AcDbDictionaryWithDefault
340
F
  0
DICTIONARY
  5
25F
102
{ACAD_REACTORS
330
25E
102
}
330
25E
100
AcDbDictionary
281
     1
  0
LAYOUT
  5
24
102
{ACAD_REACTORS
330
1A
102
}
330
1A
100
AcDbPlotSettings
  1

  2
FX DocuPrint 255-AP
  4
A4
  6

 40
4.900083065032958
 41
4.900057315826416
 42
4.90008544921875
 43
4.90008544921875
 44
210.0156707763672
 45
297.0106506347656
 46
0.0
 47
0.0
 48
0.0
 49
0.0
140
0.0
141
0.0
142
1.0
143
1.0
 70
 11952
 72
     1
 73
     1
 74
     0
  7

 75
     0
147
1.0
 76
     0
 77
     2
 78
   300
148
-95.10250240444424
149
-69.85844212966799
100
AcDbLayout
  1
Model
 70
     1
 71
     0
 10
0.0
 20
0.0
 11
12.0
 21
9.0
 12
0.0
 22
0.0
 32
0.0
 14
0.0
 24
0.0
 34
0.0
 15
0.0
 25
0.0
 35
0.0
146
0.0
 13
0.0
 23
0.0
 33
0.0
 16
1.0
 26
0.0
 36
0.0
 17
0.0
 27
1.0
 37
0.0
 76
     0
330
21
  0
LAYOUT
  5
20
102
{ACAD_REACTORS
330
1A
102
}
330
1A
100
AcDbPlotSettings
  1

  2
FX DocuPrint 255-AP
  4

  6

 40
0.0
 41
0.0
 42
0.0
 43
0.0
 44
0.0
 45
0.0
 46
0.0
 47
0.0
 48
0.0
 49
0.0
140
0.0
141
0.0
142
1.0
143
1.0
 70
   688
 72
     0
 73
     0
 74
     5
  7

 75
    16
147
1.0
 76
     0
 77
     2
 78
   300
148
0.0
149
0.0
100
AcDbLayout
  1
布局1
 70
     1
 71
     1
 10
0.0
 20
0.0
 11
420.0
 21
297.0
 12
0.0
 22
0.0
 32
0.0
 14
1.000000000000000E+20
 24
1.000000000000000E+20
 34
1.000000000000000E+20
 15
-1.000000000000000E+20
 25
-1.000000000000000E+20
 35
-1.000000000000000E+20
146
0.0
 13
0.0
 23
0.0
 33
0.0
 16
1.0
 26
0.0
 36
0.0
 17
0.0
 27
1.0
 37
0.0
 76
     0
330
1D
  0
LAYOUT
  5
28
102
{ACAD_REACTORS
330
1A
102
}
330
1A
100
AcDbPlotSettings
  1

  2
FX DocuPrint 255-AP
  4

  6

 40
0.0
 41
0.0
 42
0.0
 43
0.0
 44
0.0
 45
0.0
 46
0.0
 47
0.0
 48
0.0
 49
0.0
140
0.0
141
0.0
142
1.0
143
1.0
 70
   688
 72
     0
 73
     0
 74
     5
  7

 75
    16
147
1.0
 76
     0
 77
     2
 78
   300
148
0.0
149
0.0
100
AcDbLayout
  1
布局2
 70
     1
 71
     2
 10
0.0
 20
0.0
 11
12.0
 21
9.0
 12
0.0
 22
0.0
 32
0.0
 14
0.0
 24
0.0
 34
0.0
 15
0.0
 25
0.0
 35
0.0
146
0.0
 13
0.0
 23
0.0
 33
0.0
 16
1.0
 26
0.0
 36
0.0
 17
0.0
 27
1.0
 37
0.0
 76
     0
330
25
  0
MLINESTYLE
  5
18
102
{ACAD_REACTORS
330
17
102
}
330
17
100
AcDbMlineStyle
  2
STANDARD
 70
     0
  3

 62
   256
 51
90.0
 52
90.0
 71
     2
 49
0.5
 62
   256
  6
BYLAYER
 49
-0.5
 62
   256
  6
BYLAYER
  0
ACDBPLACEHOLDER
  5
F
102
{ACAD_REACTORS
330
E
102
}
330
E
  0
ENDSEC
  0
EOF
