  0
SECTION
  2
HEADER
  9
$ACADVER
  1
AC1018
  9
$ACADMAINTVER
 70
     0
  9
$DWGCODEPAGE
  3
ANSI_936
  9
$INSBASE
 10
0.0
 20
0.0
 30
0.0
  9
$EXTMIN
 10
230.9340892429731
 20
-47.05859811491118
 30
0.0
  9
$EXTMAX
 10
1105.142462527632
 20
569.0314049318458
 30
0.0
  9
$LIMMIN
 10
0.0
 20
0.0
  9
$LIMMAX
 10
420.0
 20
297.0
  9
$ORTHOMODE
 70
     0
  9
$REGENMODE
 70
     1
  9
$FILLMODE
 70
     1
  9
$QTEXTMODE
 70
     0
  9
$MIRRTEXT
 70
     0
  9
$LTSCALE
 40
1.0
  9
$ATTMODE
 70
     1
  9
$TEXTSIZE
 40
2.5
  9
$TRACEWID
 40
1.0
  9
$TEXTSTYLE
  7
Standard
  9
$CLAYER
  8
标注
  9
$CELTYPE
  6
ByLayer
  9
$CECOLOR
 62
   256
  9
$CELTSCALE
 40
1.0
  9
$DISPSILH
 70
     0
  9
$DIMSCALE
 40
1.0
  9
$DIMASZ
 40
12.0
  9
$DIMEXO
 40
20.0
  9
$DIMDLI
 40
3.75
  9
$DIMRND
 40
0.0
  9
$DIMDLE
 40
0.0
  9
$DIMEXE
 40
1.25
  9
$DIMTP
 40
0.0
  9
$DIMTM
 40
0.0
  9
$DIMTXT
 40
10.0
  9
$DIMCEN
 40
2.5
  9
$DIMTSZ
 40
0.0
  9
$DIMTOL
 70
     0
  9
$DIMLIM
 70
     0
  9
$DIMTIH
 70
     0
  9
$DIMTOH
 70
     0
  9
$DIMSE1
 70
     0
  9
$DIMSE2
 70
     0
  9
$DIMTAD
 70
     0
  9
$DIMZIN
 70
     8
  9
$DIMBLK
  1

  9
$DIMASO
 70
     1
  9
$DIMSHO
 70
     1
  9
$DIMPOST
  1
mm
  9
$DIMAPOST
  1
"
  9
$DIMALT
 70
     1
  9
$DIMALTD
 70
     3
  9
$DIMALTF
 40
0.03937007874016
  9
$DIMLFAC
 40
1.0
  9
$DIMTOFL
 70
     1
  9
$DIMTVP
 40
0.0
  9
$DIMTIX
 70
     0
  9
$DIMSOXD
 70
     0
  9
$DIMSAH
 70
     0
  9
$DIMBLK1
  1

  9
$DIMBLK2
  1

  9
$DIMSTYLE
  2
mav
  9
$DIMCLRD
 70
     0
  9
$DIMCLRE
 70
     0
  9
$DIMCLRT
 70
     0
  9
$DIMTFAC
 40
1.0
  9
$DIMGAP
 40
5.0
  9
$DIMJUST
 70
     0
  9
$DIMSD1
 70
     0
  9
$DIMSD2
 70
     0
  9
$DIMTOLJ
 70
     0
  9
$DIMTZIN
 70
     8
  9
$DIMALTZ
 70
     0
  9
$DIMALTTZ
 70
     0
  9
$DIMUPT
 70
     0
  9
$DIMDEC
 70
     1
  9
$DIMTDEC
 70
     1
  9
$DIMALTU
 70
     7
  9
$DIMALTTD
 70
     3
  9
$DIMTXSTY
  7
Standard
  9
$DIMAUNIT
 70
     0
  9
$DIMADEC
 70
     0
  9
$DIMALTRND
 40
0.0
  9
$DIMAZIN
 70
     0
  9
$DIMDSEP
 70
    44
  9
$DIMATFIT
 70
     3
  9
$DIMFRAC
 70
     0
  9
$DIMLDRBLK
  1

  9
$DIMLUNIT
 70
     2
  9
$DIMLWD
 70
    -2
  9
$DIMLWE
 70
    -2
  9
$DIMTMOVE
 70
     0
  9
$LUNITS
 70
     2
  9
$LUPREC
 70
     4
  9
$SKETCHINC
 40
1.0
  9
$FILLETRAD
 40
85.0
  9
$AUNITS
 70
     0
  9
$AUPREC
 70
     0
  9
$MENU
  1
.
  9
$ELEVATION
 40
0.0
  9
$PELEVATION
 40
0.0
  9
$THICKNESS
 40
0.0
  9
$LIMCHECK
 70
     0
  9
$CHAMFERA
 40
0.0
  9
$CHAMFERB
 40
0.0
  9
$CHAMFERC
 40
0.0
  9
$CHAMFERD
 40
0.0
  9
$SKPOLY
 70
     0
  9
$TDCREATE
 40
2455976.789748982
  9
$TDUCREATE
 40
2455976.456415648
  9
$TDUPDATE
 40
2456050.818633889
  9
$TDUUPDATE
 40
2456050.485300556
  9
$TDINDWG
 40
0.0495451852
  9
$TDUSRTIMER
 40
0.0495439120
  9
$USRTIMER
 70
     1
  9
$ANGBASE
 50
0.0
  9
$ANGDIR
 70
     0
  9
$PDMODE
 70
     0
  9
$PDSIZE
 40
0.0
  9
$PLINEWID
 40
0.0
  9
$SPLFRAME
 70
     0
  9
$SPLINETYPE
 70
     6
  9
$SPLINESEGS
 70
     8
  9
$HANDSEED
  5
BB6
  9
$SURFTAB1
 70
     6
  9
$SURFTAB2
 70
     6
  9
$SURFTYPE
 70
     6
  9
$SURFU
 70
     6
  9
$SURFV
 70
     6
  9
$UCSBASE
  2

  9
$UCSNAME
  2

  9
$UCSORG
 10
0.0
 20
0.0
 30
0.0
  9
$UCSXDIR
 10
1.0
 20
0.0
 30
0.0
  9
$UCSYDIR
 10
0.0
 20
1.0
 30
0.0
  9
$UCSORTHOREF
  2

  9
$UCSORTHOVIEW
 70
     0
  9
$UCSORGTOP
 10
0.0
 20
0.0
 30
0.0
  9
$UCSORGBOTTOM
 10
0.0
 20
0.0
 30
0.0
  9
$UCSORGLEFT
 10
0.0
 20
0.0
 30
0.0
  9
$UCSORGRIGHT
 10
0.0
 20
0.0
 30
0.0
  9
$UCSORGFRONT
 10
0.0
 20
0.0
 30
0.0
  9
$UCSORGBACK
 10
0.0
 20
0.0
 30
0.0
  9
$PUCSBASE
  2

  9
$PUCSNAME
  2

  9
$PUCSORG
 10
0.0
 20
0.0
 30
0.0
  9
$PUCSXDIR
 10
1.0
 20
0.0
 30
0.0
  9
$PUCSYDIR
 10
0.0
 20
1.0
 30
0.0
  9
$PUCSORTHOREF
  2

  9
$PUCSORTHOVIEW
 70
     0
  9
$PUCSORGTOP
 10
0.0
 20
0.0
 30
0.0
  9
$PUCSORGBOTTOM
 10
0.0
 20
0.0
 30
0.0
  9
$PUCSORGLEFT
 10
0.0
 20
0.0
 30
0.0
  9
$PUCSORGRIGHT
 10
0.0
 20
0.0
 30
0.0
  9
$PUCSORGFRONT
 10
0.0
 20
0.0
 30
0.0
  9
$PUCSORGBACK
 10
0.0
 20
0.0
 30
0.0
  9
$USERI1
 70
     0
  9
$USERI2
 70
     0
  9
$USERI3
 70
     0
  9
$USERI4
 70
     0
  9
$USERI5
 70
     0
  9
$USERR1
 40
0.0
  9
$USERR2
 40
0.0
  9
$USERR3
 40
0.0
  9
$USERR4
 40
0.0
  9
$USERR5
 40
0.0
  9
$WORLDVIEW
 70
     1
  9
$SHADEDGE
 70
     3
  9
$SHADEDIF
 70
    70
  9
$TILEMODE
 70
     1
  9
$MAXACTVP
 70
    64
  9
$PINSBASE
 10
0.0
 20
0.0
 30
0.0
  9
$PLIMCHECK
 70
     0
  9
$PEXTMIN
 10
1.000000000000000E+20
 20
1.000000000000000E+20
 30
1.000000000000000E+20
  9
$PEXTMAX
 10
-1.000000000000000E+20
 20
-1.000000000000000E+20
 30
-1.000000000000000E+20
  9
$PLIMMIN
 10
0.0
 20
0.0
  9
$PLIMMAX
 10
420.0
 20
297.0
  9
$UNITMODE
 70
     0
  9
$VISRETAIN
 70
     1
  9
$PLINEGEN
 70
     0
  9
$PSLTSCALE
 70
     1
  9
$TREEDEPTH
 70
  3020
  9
$CMLSTYLE
  2
Standard
  9
$CMLJUST
 70
     0
  9
$CMLSCALE
 40
20.0
  9
$PROXYGRAPHICS
 70
     1
  9
$MEASUREMENT
 70
     1
  9
$CELWEIGHT
370
    -1
  9
$ENDCAPS
280
     0
  9
$JOINSTYLE
280
     0
  9
$LWDISPLAY
290
     0
  9
$INSUNITS
 70
     4
  9
$HYPERLINKBASE
  1

  9
$STYLESHEET
  1
MONOCHROME.CTB
  9
$XEDIT
290
     1
  9
$CEPSNTYPE
380
     0
  9
$PSTYLEMODE
290
     1
  9
$FINGERPRINTGUID
  2
{1E3F51EA-1AF3-4ACB-A358-1F7AE8D52B56}
  9
$VERSIONGUID
  2
{4ECA2E48-5A79-4839-8DF2-AEB8994A4B41}
  9
$EXTNAMES
290
     1
  9
$PSVPSCALE
 40
0.0
  9
$OLESTARTUP
290
     0
  9
$SORTENTS
280
   127
  9
$INDEXCTL
280
     0
  9
$HIDETEXT
280
     1
  9
$XCLIPFRAME
290
     0
  9
$HALOGAP
280
     0
  9
$OBSCOLOR
 70
   257
  9
$OBSLTYPE
280
     0
  9
$INTERSECTIONDISPLAY
280
     0
  9
$INTERSECTIONCOLOR
 70
   257
  9
$DIMASSOC
280
     2
  9
$PROJECTNAME
  1

  0
ENDSEC
  0
SECTION
  2
CLASSES
  0
CLASS
  1
ACDBDICTIONARYWDFLT
  2
AcDbDictionaryWithDefault
  3
ObjectDBX Classes
 90
        0
 91
        1
280
     0
281
     0
  0
CLASS
  1
DIMASSOC
  2
AcDbDimAssoc
  3
"AcDbDimAssoc|Product Desc:     AcDim ARX App For Dimension|Company:          Autodesk, Inc.|WEB Address:      www.autodesk.com"
 90
        0
 91
        1
280
     0
281
     0
  0
CLASS
  1
SORTENTSTABLE
  2
AcDbSortentsTable
  3
ObjectDBX Classes
 90
        0
 91
        0
280
     0
281
     0
  0
ENDSEC
  0
SECTION
  2
TABLES
  0
TABLE
  2
VPORT
  5
8
330
0
100
AcDbSymbolTable
 70
     3
  0
VPORT
  5
BB5
330
8
100
AcDbSymbolTableRecord
100
AcDbViewportTableRecord
  2
*Active
 70
     0
 10
0.0
 20
0.0
 11
1.0
 21
1.0
 12
812.0731928375777
 22
274.7597454342594
 13
0.0
 23
0.0
 14
10.0
 24
10.0
 15
10.0
 25
10.0
 16
0.0
 26
0.0
 36
1.0
 17
0.0
 27
0.0
 37
0.0
 40
984.0454773010085
 41
1.510883482714468
 42
50.0
 43
0.0
 44
0.0
 50
0.0
 51
0.0
 71
     0
 72
  1000
 73
     1
 74
     3
 75
     0
 76
     0
 77
     0
 78
     0
281
     0
 65
     1
110
0.0
120
0.0
130
0.0
111
1.0
121
0.0
131
0.0
112
0.0
122
1.0
132
0.0
 79
     0
146
0.0
  0
ENDTAB
  0
TABLE
  2
LTYPE
  5
5
330
0
100
AcDbSymbolTable
 70
     3
  0
LTYPE
  5
14
330
5
100
AcDbSymbolTableRecord
100
AcDbLinetypeTableRecord
  2
ByBlock
 70
     0
  3

 72
    65
 73
     0
 40
0.0
  0
LTYPE
  5
15
330
5
100
AcDbSymbolTableRecord
100
AcDbLinetypeTableRecord
  2
ByLayer
 70
     0
  3

 72
    65
 73
     0
 40
0.0
  0
LTYPE
  5
16
330
5
100
AcDbSymbolTableRecord
100
AcDbLinetypeTableRecord
  2
Continuous
 70
     0
  3
Solid line
 72
    65
 73
     0
 40
0.0
  0
LTYPE
  5
83
330
5
100
AcDbSymbolTableRecord
100
AcDbLinetypeTableRecord
  2
HIDDENX2
 70
     0
  3
Hidden (2x) ____ ____ ____ ____ ____ ____ ____
 72
    65
 73
     2
 40
19.05
 49
12.7
 74
     0
 49
-6.349999999999997
 74
     0
  0
LTYPE
  5
9CD
330
5
100
AcDbSymbolTableRecord
100
AcDbLinetypeTableRecord
  2
HIDDEN2
 70
     0
  3
Hidden (.5x) _ _ _ _ _ _ _ _ _ _ _ _ _ _ _ _ _
 72
    65
 73
     2
 40
4.762499999999998
 49
3.174999999999998
 74
     0
 49
-1.587499999999999
 74
     0
  0
ENDTAB
  0
TABLE
  2
LAYER
  5
2
102
{ACAD_XDICTIONARY
360
25E
102
}
330
0
100
AcDbSymbolTable
 70
     5
  0
LAYER
  5
10
330
2
100
AcDbSymbolTableRecord
100
AcDbLayerTableRecord
  2
0
 70
     0
 62
     7
  6
Continuous
370
    -3
390
F
  0
LAYER
  5
84
330
2
100
AcDbSymbolTableRecord
100
AcDbLayerTableRecord
  2
标注
 70
     0
 62
    80
  6
Continuous
370
    -3
390
F
1001
AcAecLayerStandard
1000

1000

  0
LAYER
  5
85
330
2
100
AcDbSymbolTableRecord
100
AcDbLayerTableRecord
  2
Defpoints
 70
     0
 62
     7
  6
Continuous
290
     0
370
    -3
390
F
  0
LAYER
  5
86
330
2
100
AcDbSymbolTableRecord
100
AcDbLayerTableRecord
  2
虚线
 70
     0
 62
   130
  6
HIDDENX2
370
    35
390
F
1001
AcAecLayerStandard
1000

1000

  0
LAYER
  5
74F
330
2
100
AcDbSymbolTableRecord
100
AcDbLayerTableRecord
  2
截面层
 70
     0
 62
     6
  6
Continuous
370
    50
390
F
  0
ENDTAB
  0
TABLE
  2
STYLE
  5
3
330
0
100
AcDbSymbolTable
 70
     1
  0
STYLE
  5
11
330
3
100
AcDbSymbolTableRecord
100
AcDbTextStyleTableRecord
  2
Standard
 70
     0
 40
0.0
 41
1.0
 50
0.0
 71
     0
 42
2.5
  3
txt
  4

  0
ENDTAB
  0
TABLE
  2
VIEW
  5
6
330
0
100
AcDbSymbolTable
 70
     0
  0
ENDTAB
  0
TABLE
  2
UCS
  5
7
330
0
100
AcDbSymbolTable
 70
     0
  0
ENDTAB
  0
TABLE
  2
APPID
  5
9
330
0
100
AcDbSymbolTable
 70
     7
  0
APPID
  5
12
330
9
100
AcDbSymbolTableRecord
100
AcDbRegAppTableRecord
  2
ACAD
 70
     0
  0
APPID
  5
88
330
9
100
AcDbSymbolTableRecord
100
AcDbRegAppTableRecord
  2
ACAD_PSEXT
 70
     0
  0
APPID
  5
89
330
9
100
AcDbSymbolTableRecord
100
AcDbRegAppTableRecord
  2
AcAecLayerStandard
 70
     0
  0
APPID
  5
8A
330
9
100
AcDbSymbolTableRecord
100
AcDbRegAppTableRecord
  2
ACAD_DSTYLE_DIMEXT_LENGTH
 70
     0
  0
APPID
  5
8B
330
9
100
AcDbSymbolTableRecord
100
AcDbRegAppTableRecord
  2
ACAD_DSTYLE_DIMEXT_ENABLED
 70
     0
  0
APPID
  5
8C
330
9
100
AcDbSymbolTableRecord
100
AcDbRegAppTableRecord
  2
ACAD_DSTYLE_DIMJOGGED_JOGANGLE_SYMBOL
 70
     0
  0
APPID
  5
8D
330
9
100
AcDbSymbolTableRecord
100
AcDbRegAppTableRecord
  2
ACAD_DSTYLE_DIMARC_LENGTH_SYMBOL
 70
     0
  0
ENDTAB
  0
TABLE
  2
DIMSTYLE
  5
A
330
0
100
AcDbSymbolTable
 70
     5
100
AcDbDimStyleTable
 71
     2
340
87
340
29
  0
DIMSTYLE
105
29
330
A
100
AcDbSymbolTableRecord
100
AcDbDimStyleTableRecord
  2
ISO-25
 70
     0
  3
"
  4
"
 41
2.5
 42
0.625
 43
3.75
 44
1.25
 73
     0
 74
     0
 77
     1
 78
     8
140
2.5
141
2.5
143
0.03937007874016
147
0.625
170
     1
171
     3
172
     1
271
     1
272
     1
273
     7
274
     3
283
     0
284
     8
340
11
  0
DIMSTYLE
105
87
102
{ACAD_REACTORS
330
B26
330
B27
102
}
330
A
100
AcDbSymbolTableRecord
100
AcDbDimStyleTableRecord
  2
mav
 70
     0
  3
mm
  4
"
 41
12.0
 42
20.0
 43
3.75
 44
1.25
 73
     0
 74
     0
 78
     8
140
10.0
141
2.5
143
0.03937007874016
147
5.0
170
     1
171
     3
172
     1
271
     1
272
     1
273
     7
274
     3
278
    44
283
     0
284
     8
340
11
1001
ACAD_DSTYLE_DIMEXT_LENGTH
1070
   378
1040
1.25
1001
ACAD_DSTYLE_DIMEXT_ENABLED
1070
   383
1070
     0
1001
ACAD_DSTYLE_DIMARC_LENGTH_SYMBOL
1070
   379
1070
     0
1001
ACAD_DSTYLE_DIMJOGGED_JOGANGLE_SYMBOL
1070
   384
1040
1.570796326794896
  0
DIMSTYLE
105
25D
330
A
100
AcDbSymbolTableRecord
100
AcDbDimStyleTableRecord
  2
副本Standard
 70
     0
  4
"
 41
16.0
 42
22.0
 44
8.0
 73
     0
 74
     0
 78
     8
 79
     2
140
16.0
143
0.03937
147
5.0
171
     1
172
     1
176
   256
177
   256
178
   256
179
     1
271
     1
272
     1
274
     1
278
    44
340
11
  0
DIMSTYLE
105
9CE
330
A
100
AcDbSymbolTableRecord
100
AcDbDimStyleTableRecord
  2
Standard
 70
     0
 41
20.0
 42
25.0
 44
8.0
 73
     0
 74
     0
 78
     8
 79
     2
140
20.0
147
5.0
172
     1
176
     3
177
     3
178
     3
179
     1
271
     1
272
     1
278
    44
340
11
1001
ACAD_DSTYLE_DIMEXT_LENGTH
1070
   378
1040
8.0
1001
ACAD_DSTYLE_DIMEXT_ENABLED
1070
   383
1070
     0
1001
ACAD_DSTYLE_DIMARC_LENGTH_SYMBOL
1070
   379
1070
     0
1001
ACAD_DSTYLE_DIMJOGGED_JOGANGLE_SYMBOL
1070
   384
1040
0.7853981633974483
  0
DIMSTYLE
105
9CF
330
A
100
AcDbSymbolTableRecord
100
AcDbDimStyleTableRecord
  2
XIAO
 70
     0
 41
3.5
 42
3.0
 43
1.0
 44
1.0
 73
     0
 74
     0
 77
     1
 78
     8
140
4.0
141
1.5
143
0.03937007874016
147
1.0
171
     3
172
     1
179
     1
271
     1
272
     1
274
     3
278
    44
283
     0
284
     8
340
11
  0
ENDTAB
  0
TABLE
  2
BLOCK_RECORD
  5
1
330
0
100
AcDbSymbolTable
 70
   106
  0
BLOCK_RECORD
  5
21
330
1
100
AcDbSymbolTableRecord
100
AcDbBlockTableRecord
  2
*Model_Space
340
24
  0
BLOCK_RECORD
  5
1D
330
1
100
AcDbSymbolTableRecord
100
AcDbBlockTableRecord
  2
*Paper_Space
340
20
  0
BLOCK_RECORD
  5
25
330
1
100
AcDbSymbolTableRecord
100
AcDbBlockTableRecord
  2
*Paper_Space0
340
28
  0
BLOCK_RECORD
  5
2D
330
1
100
AcDbSymbolTableRecord
100
AcDbBlockTableRecord
  2
*D1
340
0
  0
BLOCK_RECORD
  5
35
330
1
100
AcDbSymbolTableRecord
100
AcDbBlockTableRecord
  2
*D2
340
0
  0
BLOCK_RECORD
  5
41
330
1
100
AcDbSymbolTableRecord
100
AcDbBlockTableRecord
  2
*D3
340
0
  0
BLOCK_RECORD
  5
4D
330
1
100
AcDbSymbolTableRecord
100
AcDbBlockTableRecord
  2
*D4
340
0
  0
BLOCK_RECORD
  5
55
330
1
100
AcDbSymbolTableRecord
100
AcDbBlockTableRecord
  2
*D5
340
0
  0
BLOCK_RECORD
  5
5D
330
1
100
AcDbSymbolTableRecord
100
AcDbBlockTableRecord
  2
*D6
340
0
  0
BLOCK_RECORD
  5
6B
330
1
100
AcDbSymbolTableRecord
100
AcDbBlockTableRecord
  2
*D7
340
0
  0
BLOCK_RECORD
  5
77
330
1
100
AcDbSymbolTableRecord
100
AcDbBlockTableRecord
  2
*D8
340
0
  0
BLOCK_RECORD
  5
DC
330
1
100
AcDbSymbolTableRecord
100
AcDbBlockTableRecord
  2
*D9
340
0
  0
BLOCK_RECORD
  5
E8
330
1
100
AcDbSymbolTableRecord
100
AcDbBlockTableRecord
  2
*D10
340
0
  0
BLOCK_RECORD
  5
F6
330
1
100
AcDbSymbolTableRecord
100
AcDbBlockTableRecord
  2
*D11
340
0
  0
BLOCK_RECORD
  5
107
330
1
100
AcDbSymbolTableRecord
100
AcDbBlockTableRecord
  2
*D12
340
0
  0
BLOCK_RECORD
  5
113
330
1
100
AcDbSymbolTableRecord
100
AcDbBlockTableRecord
  2
*D13
340
0
  0
BLOCK_RECORD
  5
11B
330
1
100
AcDbSymbolTableRecord
100
AcDbBlockTableRecord
  2
*D14
340
0
  0
BLOCK_RECORD
  5
12E
330
1
100
AcDbSymbolTableRecord
100
AcDbBlockTableRecord
  2
*D15
340
0
  0
BLOCK_RECORD
  5
13A
330
1
100
AcDbSymbolTableRecord
100
AcDbBlockTableRecord
  2
*D16
340
0
  0
BLOCK_RECORD
  5
1EF
330
1
100
AcDbSymbolTableRecord
100
AcDbBlockTableRecord
  2
*D17
340
0
  0
BLOCK_RECORD
  5
218
330
1
100
AcDbSymbolTableRecord
100
AcDbBlockTableRecord
  2
*D18
340
0
  0
BLOCK_RECORD
  5
228
330
1
100
AcDbSymbolTableRecord
100
AcDbBlockTableRecord
  2
*D19
340
0
  0
BLOCK_RECORD
  5
238
330
1
100
AcDbSymbolTableRecord
100
AcDbBlockTableRecord
  2
*D20
340
0
  0
BLOCK_RECORD
  5
28F
330
1
100
AcDbSymbolTableRecord
100
AcDbBlockTableRecord
  2
*D21
340
0
  0
BLOCK_RECORD
  5
2A9
330
1
100
AcDbSymbolTableRecord
100
AcDbBlockTableRecord
  2
*D22
340
0
  0
BLOCK_RECORD
  5
2C3
330
1
100
AcDbSymbolTableRecord
100
AcDbBlockTableRecord
  2
*D23
340
0
  0
BLOCK_RECORD
  5
2EB
330
1
100
AcDbSymbolTableRecord
100
AcDbBlockTableRecord
  2
*D24
340
0
  0
BLOCK_RECORD
  5
2FB
330
1
100
AcDbSymbolTableRecord
100
AcDbBlockTableRecord
  2
*D25
340
0
  0
BLOCK_RECORD
  5
30B
330
1
100
AcDbSymbolTableRecord
100
AcDbBlockTableRecord
  2
*D26
340
0
  0
BLOCK_RECORD
  5
33C
330
1
100
AcDbSymbolTableRecord
100
AcDbBlockTableRecord
  2
*D27
340
0
  0
BLOCK_RECORD
  5
344
330
1
100
AcDbSymbolTableRecord
100
AcDbBlockTableRecord
  2
*D28
340
0
  0
BLOCK_RECORD
  5
351
330
1
100
AcDbSymbolTableRecord
100
AcDbBlockTableRecord
  2
*D29
340
0
  0
BLOCK_RECORD
  5
35E
330
1
100
AcDbSymbolTableRecord
100
AcDbBlockTableRecord
  2
*D30
340
0
  0
BLOCK_RECORD
  5
36B
330
1
100
AcDbSymbolTableRecord
100
AcDbBlockTableRecord
  2
*D31
340
0
  0
BLOCK_RECORD
  5
3CF
330
1
100
AcDbSymbolTableRecord
100
AcDbBlockTableRecord
  2
*D32
340
0
  0
BLOCK_RECORD
  5
3DC
330
1
100
AcDbSymbolTableRecord
100
AcDbBlockTableRecord
  2
*D33
340
0
  0
BLOCK_RECORD
  5
3E9
330
1
100
AcDbSymbolTableRecord
100
AcDbBlockTableRecord
  2
*D34
340
0
  0
BLOCK_RECORD
  5
3F1
330
1
100
AcDbSymbolTableRecord
100
AcDbBlockTableRecord
  2
*D35
340
0
  0
BLOCK_RECORD
  5
3F9
330
1
100
AcDbSymbolTableRecord
100
AcDbBlockTableRecord
  2
*D36
340
0
  0
BLOCK_RECORD
  5
433
330
1
100
AcDbSymbolTableRecord
100
AcDbBlockTableRecord
  2
*D37
340
0
  0
BLOCK_RECORD
  5
440
330
1
100
AcDbSymbolTableRecord
100
AcDbBlockTableRecord
  2
*D38
340
0
  0
BLOCK_RECORD
  5
461
330
1
100
AcDbSymbolTableRecord
100
AcDbBlockTableRecord
  2
*D39
340
0
  0
BLOCK_RECORD
  5
469
330
1
100
AcDbSymbolTableRecord
100
AcDbBlockTableRecord
  2
*D40
340
0
  0
BLOCK_RECORD
  5
471
330
1
100
AcDbSymbolTableRecord
100
AcDbBlockTableRecord
  2
*D41
340
0
  0
BLOCK_RECORD
  5
48F
330
1
100
AcDbSymbolTableRecord
100
AcDbBlockTableRecord
  2
*D42
340
0
  0
BLOCK_RECORD
  5
49C
330
1
100
AcDbSymbolTableRecord
100
AcDbBlockTableRecord
  2
*D43
340
0
  0
BLOCK_RECORD
  5
4A9
330
1
100
AcDbSymbolTableRecord
100
AcDbBlockTableRecord
  2
*D44
340
0
  0
BLOCK_RECORD
  5
4B6
330
1
100
AcDbSymbolTableRecord
100
AcDbBlockTableRecord
  2
*D45
340
0
  0
BLOCK_RECORD
  5
4BE
330
1
100
AcDbSymbolTableRecord
100
AcDbBlockTableRecord
  2
*D46
340
0
  0
BLOCK_RECORD
  5
4C6
330
1
100
AcDbSymbolTableRecord
100
AcDbBlockTableRecord
  2
*D47
340
0
  0
BLOCK_RECORD
  5
4CE
330
1
100
AcDbSymbolTableRecord
100
AcDbBlockTableRecord
  2
*D48
340
0
  0
BLOCK_RECORD
  5
4D6
330
1
100
AcDbSymbolTableRecord
100
AcDbBlockTableRecord
  2
*D49
340
0
  0
BLOCK_RECORD
  5
4DE
330
1
100
AcDbSymbolTableRecord
100
AcDbBlockTableRecord
  2
*D50
340
0
  0
BLOCK_RECORD
  5
4E6
330
1
100
AcDbSymbolTableRecord
100
AcDbBlockTableRecord
  2
*D51
340
0
  0
BLOCK_RECORD
  5
548
330
1
100
AcDbSymbolTableRecord
100
AcDbBlockTableRecord
  2
*D52
340
0
  0
BLOCK_RECORD
  5
550
330
1
100
AcDbSymbolTableRecord
100
AcDbBlockTableRecord
  2
*D53
340
0
  0
BLOCK_RECORD
  5
558
330
1
100
AcDbSymbolTableRecord
100
AcDbBlockTableRecord
  2
*D54
340
0
  0
BLOCK_RECORD
  5
560
330
1
100
AcDbSymbolTableRecord
100
AcDbBlockTableRecord
  2
*D55
340
0
  0
BLOCK_RECORD
  5
568
330
1
100
AcDbSymbolTableRecord
100
AcDbBlockTableRecord
  2
*D56
340
0
  0
BLOCK_RECORD
  5
570
330
1
100
AcDbSymbolTableRecord
100
AcDbBlockTableRecord
  2
*D57
340
0
  0
BLOCK_RECORD
  5
578
330
1
100
AcDbSymbolTableRecord
100
AcDbBlockTableRecord
  2
*D58
340
0
  0
BLOCK_RECORD
  5
580
330
1
100
AcDbSymbolTableRecord
100
AcDbBlockTableRecord
  2
*D59
340
0
  0
BLOCK_RECORD
  5
58D
330
1
100
AcDbSymbolTableRecord
100
AcDbBlockTableRecord
  2
*D60
340
0
  0
BLOCK_RECORD
  5
59A
330
1
100
AcDbSymbolTableRecord
100
AcDbBlockTableRecord
  2
*D61
340
0
  0
BLOCK_RECORD
  5
650
330
1
100
AcDbSymbolTableRecord
100
AcDbBlockTableRecord
  2
*D62
340
0
  0
BLOCK_RECORD
  5
65D
330
1
100
AcDbSymbolTableRecord
100
AcDbBlockTableRecord
  2
*D63
340
0
  0
BLOCK_RECORD
  5
66A
330
1
100
AcDbSymbolTableRecord
100
AcDbBlockTableRecord
  2
*D64
340
0
  0
BLOCK_RECORD
  5
6F4
330
1
100
AcDbSymbolTableRecord
100
AcDbBlockTableRecord
  2
*D65
340
0
  0
BLOCK_RECORD
  5
70E
330
1
100
AcDbSymbolTableRecord
100
AcDbBlockTableRecord
  2
*D66
340
0
  0
BLOCK_RECORD
  5
76E
330
1
100
AcDbSymbolTableRecord
100
AcDbBlockTableRecord
  2
*D67
340
0
  0
BLOCK_RECORD
  5
792
330
1
100
AcDbSymbolTableRecord
100
AcDbBlockTableRecord
  2
*D68
340
0
  0
BLOCK_RECORD
  5
7DD
330
1
100
AcDbSymbolTableRecord
100
AcDbBlockTableRecord
  2
*D69
340
0
  0
BLOCK_RECORD
  5
7E8
330
1
100
AcDbSymbolTableRecord
100
AcDbBlockTableRecord
  2
*D70
340
0
  0
BLOCK_RECORD
  5
7F6
330
1
100
AcDbSymbolTableRecord
100
AcDbBlockTableRecord
  2
*D71
340
0
  0
BLOCK_RECORD
  5
819
330
1
100
AcDbSymbolTableRecord
100
AcDbBlockTableRecord
  2
*D72
340
0
  0
BLOCK_RECORD
  5
827
330
1
100
AcDbSymbolTableRecord
100
AcDbBlockTableRecord
  2
*D73
340
0
  0
BLOCK_RECORD
  5
83D
330
1
100
AcDbSymbolTableRecord
100
AcDbBlockTableRecord
  2
*D74
340
0
  0
BLOCK_RECORD
  5
87C
330
1
100
AcDbSymbolTableRecord
100
AcDbBlockTableRecord
  2
*D75
340
0
  0
BLOCK_RECORD
  5
894
330
1
100
AcDbSymbolTableRecord
100
AcDbBlockTableRecord
  2
*D76
340
0
  0
BLOCK_RECORD
  5
8A1
330
1
100
AcDbSymbolTableRecord
100
AcDbBlockTableRecord
  2
*D77
340
0
  0
BLOCK_RECORD
  5
8AE
330
1
100
AcDbSymbolTableRecord
100
AcDbBlockTableRecord
  2
*D78
340
0
  0
BLOCK_RECORD
  5
8DC
330
1
100
AcDbSymbolTableRecord
100
AcDbBlockTableRecord
  2
*D79
340
0
  0
BLOCK_RECORD
  5
8E4
330
1
100
AcDbSymbolTableRecord
100
AcDbBlockTableRecord
  2
*D80
340
0
  0
BLOCK_RECORD
  5
8F1
330
1
100
AcDbSymbolTableRecord
100
AcDbBlockTableRecord
  2
*D81
340
0
  0
BLOCK_RECORD
  5
965
330
1
100
AcDbSymbolTableRecord
100
AcDbBlockTableRecord
  2
*D82
340
0
  0
BLOCK_RECORD
  5
972
330
1
100
AcDbSymbolTableRecord
100
AcDbBlockTableRecord
  2
*D83
340
0
  0
BLOCK_RECORD
  5
97F
330
1
100
AcDbSymbolTableRecord
100
AcDbBlockTableRecord
  2
*D84
340
0
  0
BLOCK_RECORD
  5
987
330
1
100
AcDbSymbolTableRecord
100
AcDbBlockTableRecord
  2
*D85
340
0
  0
BLOCK_RECORD
  5
98F
330
1
100
AcDbSymbolTableRecord
100
AcDbBlockTableRecord
  2
*D86
340
0
  0
BLOCK_RECORD
  5
997
330
1
100
AcDbSymbolTableRecord
100
AcDbBlockTableRecord
  2
*D87
340
0
  0
BLOCK_RECORD
  5
9A4
330
1
100
AcDbSymbolTableRecord
100
AcDbBlockTableRecord
  2
*D88
340
0
  0
BLOCK_RECORD
  5
9B1
330
1
100
AcDbSymbolTableRecord
100
AcDbBlockTableRecord
  2
*D89
340
0
  0
BLOCK_RECORD
  5
9BF
330
1
100
AcDbSymbolTableRecord
100
AcDbBlockTableRecord
  2
*D90
340
0
  0
BLOCK_RECORD
  5
A24
330
1
100
AcDbSymbolTableRecord
100
AcDbBlockTableRecord
  2
*D91
340
0
  0
BLOCK_RECORD
  5
A32
330
1
100
AcDbSymbolTableRecord
100
AcDbBlockTableRecord
  2
*D92
340
0
  0
BLOCK_RECORD
  5
A40
330
1
100
AcDbSymbolTableRecord
100
AcDbBlockTableRecord
  2
*D93
340
0
  0
BLOCK_RECORD
  5
A4D
330
1
100
AcDbSymbolTableRecord
100
AcDbBlockTableRecord
  2
*D94
340
0
  0
BLOCK_RECORD
  5
A5A
330
1
100
AcDbSymbolTableRecord
100
AcDbBlockTableRecord
  2
*D95
340
0
  0
BLOCK_RECORD
  5
A62
330
1
100
AcDbSymbolTableRecord
100
AcDbBlockTableRecord
  2
*D96
340
0
  0
BLOCK_RECORD
  5
A6A
330
1
100
AcDbSymbolTableRecord
100
AcDbBlockTableRecord
  2
*D97
340
0
  0
BLOCK_RECORD
  5
A72
330
1
100
AcDbSymbolTableRecord
100
AcDbBlockTableRecord
  2
*D98
340
0
  0
BLOCK_RECORD
  5
A7F
330
1
100
AcDbSymbolTableRecord
100
AcDbBlockTableRecord
  2
*D99
340
0
  0
BLOCK_RECORD
  5
AE8
330
1
100
AcDbSymbolTableRecord
100
AcDbBlockTableRecord
  2
*D100
340
0
  0
BLOCK_RECORD
  5
AF5
330
1
100
AcDbSymbolTableRecord
100
AcDbBlockTableRecord
  2
*D101
340
0
  0
BLOCK_RECORD
  5
B02
330
1
100
AcDbSymbolTableRecord
100
AcDbBlockTableRecord
  2
*D102
340
0
  0
BLOCK_RECORD
  5
B28
330
1
100
AcDbSymbolTableRecord
100
AcDbBlockTableRecord
  2
*D103
340
0
  0
BLOCK_RECORD
  5
B35
330
1
100
AcDbSymbolTableRecord
100
AcDbBlockTableRecord
  2
*D104
340
0
  0
BLOCK_RECORD
  5
B42
330
1
100
AcDbSymbolTableRecord
100
AcDbBlockTableRecord
  2
*D105
340
0
  0
ENDTAB
  0
ENDSEC
  0
SECTION
  2
BLOCKS
  0
BLOCK
  5
22
330
21
100
AcDbEntity
  8
0
100
AcDbBlockBegin
  2
*Model_Space
 70
     0
 10
0.0
 20
0.0
 30
0.0
  3
*Model_Space
  1

  0
ENDBLK
  5
23
330
21
100
AcDbEntity
  8
0
100
AcDbBlockEnd
  0
BLOCK
  5
1E
330
1D
100
AcDbEntity
 67
     1
  8
0
100
AcDbBlockBegin
  2
*Paper_Space
 70
     0
 10
0.0
 20
0.0
 30
0.0
  3
*Paper_Space
  1

  0
ENDBLK
  5
1F
330
1D
100
AcDbEntity
 67
     1
  8
0
100
AcDbBlockEnd
  0
BLOCK
  5
26
330
25
100
AcDbEntity
  8
0
100
AcDbBlockBegin
  2
*Paper_Space0
 70
     0
 10
0.0
 20
0.0
 30
0.0
  3
*Paper_Space0
  1

  0
ENDBLK
  5
27
330
25
100
AcDbEntity
  8
0
100
AcDbBlockEnd
  0
BLOCK
  5
2E
330
2D
100
AcDbEntity
  8
0
100
AcDbBlockBegin
  2
*D1
 70
     1
 10
0.0
 20
0.0
 30
0.0
  3
*D1
  1

  0
LINE
  5
2F
330
2D
100
AcDbEntity
  8
标注
 62
     0
370
    -2
100
AcDbLine
 10
1767.096055369673
 20
445.9058458477811
 30
0.0
 11
1854.639884338829
 21
498.2516003023603
 31
0.0
  0
MTEXT
  5
30
330
2D
100
AcDbEntity
  8
标注
 62
     0
100
AcDbMText
 10
1799.303411967024
 20
479.7279714612176
 30
0.0
 40
15.0
 41
0.0
 71
     5
 72
     1
  1
2-R165
 11
0.8582728330309457
 21
0.5131936711233239
 31
0.0
 73
     1
 44
1.0
  0
SOLID
  5
31
330
2D
100
AcDbEntity
  8
标注
 62
     0
100
AcDbTrace
 10
1853.613496996583
 20
499.9681459684223
 30
0.0
 11
1855.666271681076
 21
496.5350546362985
 31
0.0
 12
1864.939158335201
 22
504.4099243558402
 32
0.0
 13
1864.939158335201
 23
504.4099243558402
 33
0.0
  0
POINT
  5
32
330
2D
100
AcDbEntity
  8
Defpoints
 62
     0
100
AcDbPoint
 10
1864.939158335201
 20
504.4099243558402
 30
0.0
  0
POINT
  5
33
330
2D
100
AcDbEntity
  8
Defpoints
 62
     0
100
AcDbPoint
 10
1723.324140885114
 20
419.7329686205033
 30
0.0
  0
ENDBLK
  5
34
330
2D
100
AcDbEntity
  8
0
100
AcDbBlockEnd
  0
BLOCK
  5
36
330
35
100
AcDbEntity
  8
0
100
AcDbBlockBegin
  2
*D2
 70
     1
 10
0.0
 20
0.0
 30
0.0
  3
*D2
  1

  0
LINE
  5
37
330
35
100
AcDbEntity
  8
标注
 62
     0
370
    -2
100
AcDbLine
 10
1662.188124199838
 20
591.6137249719261
 30
0.0
 11
1955.312206437451
 21
591.613724971926
 31
0.0
  0
LINE
  5
38
330
35
100
AcDbEntity
  8
标注
 62
     0
370
    -2
100
AcDbLine
 10
1790.324140885113
 20
111.6240772959479
 30
0.0
 11
1955.312206437451
 21
111.6240772959478
 31
0.0
  0
LINE
  5
39
330
35
100
AcDbEntity
  8
标注
 62
     0
370
    -2
100
AcDbLine
 10
1954.062206437451
 20
579.613724971926
 30
0.0
 11
1954.062206437451
 21
123.6240772959478
 31
0.0
  0
SOLID
  5
3A
330
35
100
AcDbEntity
  8
标注
 62
     0
100
AcDbTrace
 10
1952.062206437451
 20
579.613724971926
 30
0.0
 11
1956.062206437451
 21
579.613724971926
 31
0.0
 12
1954.062206437451
 22
591.613724971926
 32
0.0
 13
1954.062206437451
 23
591.613724971926
 33
0.0
  0
SOLID
  5
3B
330
35
100
AcDbEntity
  8
标注
 62
     0
100
AcDbTrace
 10
1952.062206437451
 20
123.6240772959478
 30
0.0
 11
1956.062206437451
 21
123.6240772959478
 31
0.0
 12
1954.062206437451
 22
111.6240772959478
 32
0.0
 13
1954.062206437451
 23
111.6240772959478
 33
0.0
  0
MTEXT
  5
3C
330
35
100
AcDbEntity
  8
标注
 62
     0
100
AcDbMText
 10
1941.562206437451
 20
351.6189011339372
 30
0.0
 40
15.0
 41
0.0
 71
     5
 72
     1
  1
480
 11
0.0000000000000001
 21
1.0
 31
0.0
 73
     1
 44
1.0
  0
POINT
  5
3D
330
35
100
AcDbEntity
  8
Defpoints
 62
     0
100
AcDbPoint
 10
1655.188124199838
 20
591.6137249719261
 30
0.0
  0
POINT
  5
3E
330
35
100
AcDbEntity
  8
Defpoints
 62
     0
100
AcDbPoint
 10
1783.324140885113
 20
111.6240772959479
 30
0.0
  0
POINT
  5
3F
330
35
100
AcDbEntity
  8
Defpoints
 62
     0
100
AcDbPoint
 10
1954.062206437451
 20
111.6240772959478
 30
0.0
  0
ENDBLK
  5
40
330
35
100
AcDbEntity
  8
0
100
AcDbBlockEnd
  0
BLOCK
  5
42
330
41
100
AcDbEntity
  8
0
100
AcDbBlockBegin
  2
*D3
 70
     1
 10
0.0
 20
0.0
 30
0.0
  3
*D3
  1

  0
LINE
  5
43
330
41
100
AcDbEntity
  8
标注
 62
     0
370
    -2
100
AcDbLine
 10
1428.324140885113
 20
209.6240772959482
 30
0.0
 11
1428.324140885113
 21
46.99956590887086
 31
0.0
  0
LINE
  5
44
330
41
100
AcDbEntity
  8
标注
 62
     0
370
    -2
100
AcDbLine
 10
1888.324140885114
 20
209.6240772959482
 30
0.0
 11
1888.324140885114
 21
46.99956590887086
 31
0.0
  0
LINE
  5
45
330
41
100
AcDbEntity
  8
标注
 62
     0
370
    -2
100
AcDbLine
 10
1440.324140885113
 20
48.24956590887087
 30
0.0
 11
1876.324140885113
 21
48.24956590887087
 31
0.0
  0
SOLID
  5
46
330
41
100
AcDbEntity
  8
标注
 62
     0
100
AcDbTrace
 10
1440.324140885113
 20
50.24956590887086
 30
0.0
 11
1440.324140885113
 21
46.24956590887085
 31
0.0
 12
1428.324140885113
 22
48.24956590887087
 32
0.0
 13
1428.324140885113
 23
48.24956590887087
 33
0.0
  0
SOLID
  5
47
330
41
100
AcDbEntity
  8
标注
 62
     0
100
AcDbTrace
 10
1876.324140885113
 20
50.24956590887086
 30
0.0
 11
1876.324140885113
 21
46.24956590887085
 31
0.0
 12
1888.324140885114
 22
48.24956590887087
 32
0.0
 13
1888.324140885114
 23
48.24956590887087
 33
0.0
  0
MTEXT
  5
48
330
41
100
AcDbEntity
  8
标注
 62
     0
100
AcDbMText
 10
1658.324140885113
 20
60.74956590887087
 30
0.0
 40
15.0
 41
0.0
 71
     5
 72
     1
  1
460
 73
     1
 44
1.0
  0
POINT
  5
49
330
41
100
AcDbEntity
  8
Defpoints
 62
     0
100
AcDbPoint
 10
1428.324140885113
 20
216.6240772959481
 30
0.0
  0
POINT
  5
4A
330
41
100
AcDbEntity
  8
Defpoints
 62
     0
100
AcDbPoint
 10
1888.324140885114
 20
216.6240772959481
 30
0.0
  0
POINT
  5
4B
330
41
100
AcDbEntity
  8
Defpoints
 62
     0
100
AcDbPoint
 10
1888.324140885114
 20
48.24956590887087
 30
0.0
  0
ENDBLK
  5
4C
330
41
100
AcDbEntity
  8
0
100
AcDbBlockEnd
  0
BLOCK
  5
4E
330
4D
100
AcDbEntity
  8
0
100
AcDbBlockBegin
  2
*D4
 70
     1
 10
0.0
 20
0.0
 30
0.0
  3
*D4
  1

  0
LINE
  5
4F
330
4D
100
AcDbEntity
  8
标注
 62
     0
370
    -2
100
AcDbLine
 10
1779.154845446391
 20
221.6107571076672
 30
0.0
 11
1842.977137162262
 21
145.2761969128613
 31
0.0
  0
MTEXT
  5
50
330
4D
100
AcDbEntity
  8
标注
 62
     0
100
AcDbMText
 10
1816.807179768044
 20
196.0644419109397
 30
0.0
 40
15.0
 41
0.0
 71
     5
 72
     1
  1
2-R105
 11
0.6414300674961809
 21
-0.7671815094955332
 31
0.0
 73
     1
 44
1.0
  0
SOLID
  5
51
330
4D
100
AcDbEntity
  8
标注
 62
     0
100
AcDbTrace
 10
1844.511500181252
 20
146.5590570478537
 30
0.0
 11
1841.442774143271
 21
143.993336777869
 31
0.0
 12
1850.674297972216
 22
136.0700187989149
 32
0.0
 13
1850.674297972216
 23
136.0700187989149
 33
0.0
  0
POINT
  5
52
330
4D
100
AcDbEntity
  8
Defpoints
 62
     0
100
AcDbPoint
 10
1850.674297972216
 20
136.0700187989149
 30
0.0
  0
POINT
  5
53
330
4D
100
AcDbEntity
  8
Defpoints
 62
     0
100
AcDbPoint
 10
1783.324140885114
 20
216.6240772959485
 30
0.0
  0
ENDBLK
  5
54
330
4D
100
AcDbEntity
  8
0
100
AcDbBlockEnd
  0
BLOCK
  5
56
330
55
100
AcDbEntity
  8
0
100
AcDbBlockBegin
  2
*D5
 70
     1
 10
0.0
 20
0.0
 30
0.0
  3
*D5
  1

  0
LINE
  5
57
330
55
100
AcDbEntity
  8
标注
 62
     0
370
    -2
100
AcDbLine
 10
1713.619271438607
 20
498.6429885255691
 30
0.0
 11
1724.649647222594
 21
574.8488335117907
 31
0.0
  0
MTEXT
  5
58
330
55
100
AcDbEntity
  8
标注
 62
     0
100
AcDbMText
 10
1705.903870797721
 20
532.5984386470238
 30
0.0
 40
15.0
 41
0.0
 71
     5
 72
     1
  1
R475
 11
0.1432516335582736
 21
0.9896862985223581
 31
0.0
 73
     1
 44
1.0
  0
SOLID
  5
59
330
55
100
AcDbEntity
  8
标注
 62
     0
100
AcDbTrace
 10
1722.670274625549
 20
575.1353367789072
 30
0.0
 11
1726.629019819639
 21
574.5623302446744
 31
0.0
 12
1726.368666825293
 22
586.7250690940591
 32
0.0
 13
1726.368666825293
 23
586.7250690940591
 33
0.0
  0
POINT
  5
5A
330
55
100
AcDbEntity
  8
Defpoints
 62
     0
100
AcDbPoint
 10
1726.368666825293
 20
586.7250690940591
 30
0.0
  0
POINT
  5
5B
330
55
100
AcDbEntity
  8
Defpoints
 62
     0
100
AcDbPoint
 10
1658.324140885115
 20
116.6240772959481
 30
0.0
  0
ENDBLK
  5
5C
330
55
100
AcDbEntity
  8
0
100
AcDbBlockEnd
  0
BLOCK
  5
5E
330
5D
100
AcDbEntity
  8
0
100
AcDbBlockBegin
  2
*D6
 70
     1
 10
0.0
 20
0.0
 30
0.0
  3
*D6
  1

  0
LINE
  5
5F
330
5D
100
AcDbEntity
  8
标注
 62
     0
370
    -2
100
AcDbLine
 10
1648.188124199838
 20
104.6240772959481
 30
0.0
 11
1630.094752879406
 21
104.6240772959481
 31
0.0
  0
LINE
  5
60
330
5D
100
AcDbEntity
  8
标注
 62
     0
370
    -2
100
AcDbLine
 10
1648.188124199838
 20
111.624077295948
 30
0.0
 11
1630.094752879406
 21
111.624077295948
 31
0.0
  0
LINE
  5
61
330
5D
100
AcDbEntity
  8
标注
 62
     0
370
    -2
100
AcDbLine
 10
1631.344752879406
 20
92.62407729594809
 30
0.0
 11
1631.344752879406
 21
80.62407729594809
 31
0.0
  0
LINE
  5
62
330
5D
100
AcDbEntity
  8
标注
 62
     0
370
    -2
100
AcDbLine
 10
1631.344752879406
 20
123.624077295948
 30
0.0
 11
1631.344752879406
 21
155.624077295948
 31
0.0
  0
LINE
  5
63
330
5D
100
AcDbEntity
  8
标注
 62
     0
370
    -2
100
AcDbLine
 10
1631.344752879406
 20
104.6240772959481
 30
0.0
 11
1631.344752879406
 21
111.624077295948
 31
0.0
  0
SOLID
  5
64
330
5D
100
AcDbEntity
  8
标注
 62
     0
100
AcDbTrace
 10
1629.344752879406
 20
92.62407729594809
 30
0.0
 11
1633.344752879406
 21
92.62407729594809
 31
0.0
 12
1631.344752879406
 22
104.6240772959481
 32
0.0
 13
1631.344752879406
 23
104.6240772959481
 33
0.0
  0
SOLID
  5
65
330
5D
100
AcDbEntity
  8
标注
 62
     0
100
AcDbTrace
 10
1629.344752879406
 20
123.624077295948
 30
0.0
 11
1633.344752879406
 21
123.624077295948
 31
0.0
 12
1631.344752879406
 22
111.624077295948
 32
0.0
 13
1631.344752879406
 23
111.624077295948
 33
0.0
  0
MTEXT
  5
66
330
5D
100
AcDbEntity
  8
标注
 62
     0
100
AcDbMText
 10
1618.844752879406
 20
145.6240772959483
 30
0.0
 40
15.0
 41
0.0
 71
     5
 72
     1
  1
7
 11
0.0000000000000001
 21
1.0
 31
0.0
 73
     1
 44
1.0
  0
POINT
  5
67
330
5D
100
AcDbEntity
  8
Defpoints
 62
     0
100
AcDbPoint
 10
1655.188124199838
 20
104.6240772959481
 30
0.0
  0
POINT
  5
68
330
5D
100
AcDbEntity
  8
Defpoints
 62
     0
100
AcDbPoint
 10
1655.188124199838
 20
111.624077295948
 30
0.0
  0
POINT
  5
69
330
5D
100
AcDbEntity
  8
Defpoints
 62
     0
100
AcDbPoint
 10
1631.344752879406
 20
111.624077295948
 30
0.0
  0
ENDBLK
  5
6A
330
5D
100
AcDbEntity
  8
0
100
AcDbBlockEnd
  0
BLOCK
  5
6C
330
6B
100
AcDbEntity
  8
0
100
AcDbBlockBegin
  2
*D7
 70
     1
 10
0.0
 20
0.0
 30
0.0
  3
*D7
  1

  0
LINE
  5
6D
330
6B
100
AcDbEntity
  8
标注
 62
     0
370
    -2
100
AcDbLine
 10
1790.324140885114
 20
104.6240772959481
 30
0.0
 11
2001.847179963326
 21
104.6240772959481
 31
0.0
  0
LINE
  5
6E
330
6B
100
AcDbEntity
  8
标注
 62
     0
370
    -2
100
AcDbLine
 10
1662.188124199838
 20
598.6138753200862
 30
0.0
 11
2001.847179963327
 21
598.6138753200862
 31
0.0
  0
LINE
  5
6F
330
6B
100
AcDbEntity
  8
标注
 62
     0
370
    -2
100
AcDbLine
 10
2000.597179963326
 20
116.6240772959481
 30
0.0
 11
2000.597179963326
 21
586.6138753200861
 31
0.0
  0
SOLID
  5
70
330
6B
100
AcDbEntity
  8
标注
 62
     0
100
AcDbTrace
 10
1998.597179963326
 20
116.6240772959481
 30
0.0
 11
2002.597179963326
 21
116.6240772959481
 31
0.0
 12
2000.597179963326
 22
104.6240772959481
 32
0.0
 13
2000.597179963326
 23
104.6240772959481
 33
0.0
  0
SOLID
  5
71
330
6B
100
AcDbEntity
  8
标注
 62
     0
100
AcDbTrace
 10
1998.597179963326
 20
586.6138753200861
 30
0.0
 11
2002.597179963327
 21
586.6138753200861
 31
0.0
 12
2000.597179963326
 22
598.6138753200862
 32
0.0
 13
2000.597179963326
 23
598.6138753200862
 33
0.0
  0
MTEXT
  5
72
330
6B
100
AcDbEntity
  8
标注
 62
     0
100
AcDbMText
 10
1988.097179963326
 20
351.6189763080175
 30
0.0
 40
15.0
 41
0.0
 71
     5
 72
     1
  1
494
 11
0.0000000000000001
 21
1.0
 31
0.0
 73
     1
 44
1.0
  0
POINT
  5
73
330
6B
100
AcDbEntity
  8
Defpoints
 62
     0
100
AcDbPoint
 10
1783.324140885113
 20
104.6240772959481
 30
0.0
  0
POINT
  5
74
330
6B
100
AcDbEntity
  8
Defpoints
 62
     0
100
AcDbPoint
 10
1655.188124199838
 20
598.6138753200862
 30
0.0
  0
POINT
  5
75
330
6B
100
AcDbEntity
  8
Defpoints
 62
     0
100
AcDbPoint
 10
2000.597179963326
 20
598.6138753200862
 30
0.0
  0
ENDBLK
  5
76
330
6B
100
AcDbEntity
  8
0
100
AcDbBlockEnd
  0
BLOCK
  5
78
330
77
100
AcDbEntity
  8
0
100
AcDbBlockBegin
  2
*D8
 70
     1
 10
0.0
 20
0.0
 30
0.0
  3
*D8
  1

  0
LINE
  5
79
330
77
100
AcDbEntity
  8
标注
 62
     0
370
    -2
100
AcDbLine
 10
1421.324140885113
 20
209.6240772959482
 30
0.0
 11
1421.324140885113
 21
14.27779737384117
 31
0.0
  0
LINE
  5
7A
330
77
100
AcDbEntity
  8
标注
 62
     0
370
    -2
100
AcDbLine
 10
1895.324140885113
 20
209.6240772959482
 30
0.0
 11
1895.324140885113
 21
14.27779737384117
 31
0.0
  0
LINE
  5
7B
330
77
100
AcDbEntity
  8
标注
 62
     0
370
    -2
100
AcDbLine
 10
1433.324140885114
 20
15.52779737384117
 30
0.0
 11
1883.324140885114
 21
15.52779737384117
 31
0.0
  0
SOLID
  5
7C
330
77
100
AcDbEntity
  8
标注
 62
     0
100
AcDbTrace
 10
1433.324140885114
 20
17.52779737384116
 30
0.0
 11
1433.324140885114
 21
13.52779737384117
 31
0.0
 12
1421.324140885113
 22
15.52779737384117
 32
0.0
 13
1421.324140885113
 23
15.52779737384117
 33
0.0
  0
SOLID
  5
7D
330
77
100
AcDbEntity
  8
标注
 62
     0
100
AcDbTrace
 10
1883.324140885114
 20
17.52779737384116
 30
0.0
 11
1883.324140885114
 21
13.52779737384117
 31
0.0
 12
1895.324140885113
 22
15.52779737384117
 32
0.0
 13
1895.324140885113
 23
15.52779737384117
 33
0.0
  0
MTEXT
  5
7E
330
77
100
AcDbEntity
  8
标注
 62
     0
100
AcDbMText
 10
1658.324140885113
 20
28.02779737384117
 30
0.0
 40
15.0
 41
0.0
 71
     5
 72
     1
  1
474
 73
     1
 44
1.0
  0
POINT
  5
7F
330
77
100
AcDbEntity
  8
Defpoints
 62
     0
100
AcDbPoint
 10
1421.324140885113
 20
216.6240772959481
 30
0.0
  0
POINT
  5
80
330
77
100
AcDbEntity
  8
Defpoints
 62
     0
100
AcDbPoint
 10
1895.324140885113
 20
216.6240772959481
 30
0.0
  0
POINT
  5
81
330
77
100
AcDbEntity
  8
Defpoints
 62
     0
100
AcDbPoint
 10
1895.324140885113
 20
15.52779737384117
 30
0.0
  0
ENDBLK
  5
82
330
77
100
AcDbEntity
  8
0
100
AcDbBlockEnd
  0
BLOCK
  5
E6
330
DC
100
AcDbEntity
  8
0
100
AcDbBlockBegin
  2
*D9
 70
     1
 10
0.0
 20
0.0
 30
0.0
  3
*D9
  1

  0
LINE
  5
1C1
330
DC
100
AcDbEntity
  8
标注
 62
     0
370
    -2
100
AcDbLine
 10
402.0499509234626
 20
662.5935315758002
 30
0.0
 11
682.1740331610757
 21
662.5935315758002
 31
0.0
  0
LINE
  5
1C2
330
DC
100
AcDbEntity
  8
标注
 62
     0
370
    -2
100
AcDbLine
 10
530.1859676087376
 20
182.603883899822
 30
0.0
 11
682.1740331610754
 21
182.6038838998219
 31
0.0
  0
LINE
  5
1C3
330
DC
100
AcDbEntity
  8
标注
 62
     0
370
    -2
100
AcDbLine
 10
680.9240331610757
 20
650.5935315758001
 30
0.0
 11
680.9240331610757
 21
440.0987077378109
 31
0.0
  0
LINE
  5
1C4
330
DC
100
AcDbEntity
  8
标注
 62
     0
370
    -2
100
AcDbLine
 10
680.9240331610756
 20
194.6038838998219
 30
0.0
 11
680.9240331610757
 21
405.0987077378109
 31
0.0
  0
SOLID
  5
1C5
330
DC
100
AcDbEntity
  8
标注
 62
     0
100
AcDbTrace
 10
678.9240331610757
 20
650.5935315758001
 30
0.0
 11
682.9240331610757
 21
650.5935315758001
 31
0.0
 12
680.9240331610757
 22
662.5935315758002
 32
0.0
 13
680.9240331610757
 23
662.5935315758002
 33
0.0
  0
SOLID
  5
1C6
330
DC
100
AcDbEntity
  8
标注
 62
     0
100
AcDbTrace
 10
678.9240331610756
 20
194.6038838998219
 30
0.0
 11
682.9240331610756
 21
194.6038838998219
 31
0.0
 12
680.9240331610756
 22
182.6038838998219
 32
0.0
 13
680.9240331610756
 23
182.6038838998219
 33
0.0
  0
MTEXT
  5
1C7
330
DC
100
AcDbEntity
  8
标注
 62
     0
100
AcDbMText
 10
680.9240331610756
 20
422.5987077378111
 30
0.0
 40
10.0
 41
0.0
 71
     5
 72
     1
  1
480
 11
0.0000000000000001
 21
1.0
 31
0.0
 73
     1
 44
1.0
  0
POINT
  5
1C8
330
DC
100
AcDbEntity
  8
Defpoints
 62
     0
100
AcDbPoint
 10
382.0499509234628
 20
662.5935315758002
 30
0.0
  0
POINT
  5
1C9
330
DC
100
AcDbEntity
  8
Defpoints
 62
     0
100
AcDbPoint
 10
510.1859676087376
 20
182.603883899822
 30
0.0
  0
POINT
  5
1CA
330
DC
100
AcDbEntity
  8
Defpoints
 62
     0
100
AcDbPoint
 10
680.9240331610756
 20
182.6038838998219
 30
0.0
  0
ENDBLK
  5
E7
330
DC
100
AcDbEntity
  8
0
100
AcDbBlockEnd
  0
BLOCK
  5
F4
330
E8
100
AcDbEntity
  8
0
100
AcDbBlockBegin
  2
*D10
 70
     1
 10
0.0
 20
0.0
 30
0.0
  3
*D10
  1

  0
LINE
  5
123
330
E8
100
AcDbEntity
  8
标注
 62
     0
370
    -2
100
AcDbLine
 10
375.0499509234628
 20
175.6038838998222
 30
0.0
 11
356.9565796030308
 21
175.6038838998222
 31
0.0
  0
LINE
  5
124
330
E8
100
AcDbEntity
  8
标注
 62
     0
370
    -2
100
AcDbLine
 10
375.0499509234628
 20
182.603883899822
 30
0.0
 11
356.9565796030308
 21
182.603883899822
 31
0.0
  0
LINE
  5
125
330
E8
100
AcDbEntity
  8
标注
 62
     0
370
    -2
100
AcDbLine
 10
358.2065796030308
 20
163.6038838998221
 30
0.0
 11
358.2065796030308
 21
151.6038838998222
 31
0.0
  0
LINE
  5
126
330
E8
100
AcDbEntity
  8
标注
 62
     0
370
    -2
100
AcDbLine
 10
358.2065796030308
 20
194.6038838998221
 30
0.0
 11
358.2065796030308
 21
226.6038838998221
 31
0.0
  0
LINE
  5
127
330
E8
100
AcDbEntity
  8
标注
 62
     0
370
    -2
100
AcDbLine
 10
358.2065796030308
 20
175.6038838998222
 30
0.0
 11
358.2065796030308
 21
182.603883899822
 31
0.0
  0
SOLID
  5
128
330
E8
100
AcDbEntity
  8
标注
 62
     0
100
AcDbTrace
 10
356.2065796030308
 20
163.6038838998221
 30
0.0
 11
360.2065796030308
 21
163.6038838998221
 31
0.0
 12
358.2065796030308
 22
175.6038838998222
 32
0.0
 13
358.2065796030308
 23
175.6038838998222
 33
0.0
  0
SOLID
  5
129
330
E8
100
AcDbEntity
  8
标注
 62
     0
100
AcDbTrace
 10
356.2065796030308
 20
194.6038838998221
 30
0.0
 11
360.2065796030308
 21
194.6038838998221
 31
0.0
 12
358.2065796030308
 22
182.603883899822
 32
0.0
 13
358.2065796030308
 23
182.603883899822
 33
0.0
  0
MTEXT
  5
12A
330
E8
100
AcDbEntity
  8
标注
 62
     0
100
AcDbMText
 10
345.7065796030308
 20
216.6038838998221
 30
0.0
 40
15.0
 41
0.0
 71
     5
 72
     1
  1
7
 11
0.0000000000000001
 21
1.0
 31
0.0
 73
     1
 44
1.0
  0
POINT
  5
12B
330
E8
100
AcDbEntity
  8
Defpoints
 62
     0
100
AcDbPoint
 10
382.0499509234628
 20
175.6038838998222
 30
0.0
  0
POINT
  5
12C
330
E8
100
AcDbEntity
  8
Defpoints
 62
     0
100
AcDbPoint
 10
382.0499509234628
 20
182.603883899822
 30
0.0
  0
POINT
  5
12D
330
E8
100
AcDbEntity
  8
Defpoints
 62
     0
100
AcDbPoint
 10
358.2065796030308
 20
182.603883899822
 30
0.0
  0
ENDBLK
  5
F5
330
E8
100
AcDbEntity
  8
0
100
AcDbBlockEnd
  0
BLOCK
  5
FC
330
F6
100
AcDbEntity
  8
0
100
AcDbBlockBegin
  2
*D11
 70
     1
 10
0.0
 20
0.0
 30
0.0
  3
*D11
  1

  0
LINE
  5
1DF
330
F6
100
AcDbEntity
  8
标注
 62
     0
370
    -2
100
AcDbLine
 10
541.1628879099987
 20
545.1113043634378
 30
0.0
 11
581.5017110624531
 21
569.2314069062341
 31
0.0
  0
MTEXT
  5
1E0
330
F6
100
AcDbEntity
  8
标注
 62
     0
100
AcDbMText
 10
476.7924254326777
 20
506.6217790291886
 30
0.0
 40
10.0
 41
0.0
 71
     5
 72
     1
  1
R165mm [R6 1/2"]
 11
0.8582728330309457
 21
0.5131936711233239
 31
0.0
 73
     1
 44
1.0
  0
SOLID
  5
1E1
330
F6
100
AcDbEntity
  8
标注
 62
     0
100
AcDbTrace
 10
580.4753237202065
 20
570.9479525722961
 30
0.0
 11
582.5280984047
 21
567.5148612401723
 31
0.0
 12
591.8009850588246
 22
575.389730959714
 32
0.0
 13
591.8009850588246
 23
575.389730959714
 33
0.0
  0
POINT
  5
1E2
330
F6
100
AcDbEntity
  8
Defpoints
 62
     0
100
AcDbPoint
 10
591.8009850588246
 20
575.389730959714
 30
0.0
  0
POINT
  5
1E3
330
F6
100
AcDbEntity
  8
Defpoints
 62
     0
100
AcDbPoint
 10
450.1859676087376
 20
490.7127752243771
 30
0.0
  0
ENDBLK
  5
FD
330
F6
100
AcDbEntity
  8
0
100
AcDbBlockEnd
  0
BLOCK
  5
111
330
107
100
AcDbEntity
  8
0
100
AcDbBlockBegin
  2
*D12
 70
     1
 10
0.0
 20
0.0
 30
0.0
  3
*D12
  1

  0
LINE
  5
1CB
330
107
100
AcDbEntity
  8
标注
 62
     0
370
    -2
100
AcDbLine
 10
155.1859676087376
 20
267.6038838998222
 30
0.0
 11
155.1859676087376
 21
117.9793725127449
 31
0.0
  0
LINE
  5
1CC
330
107
100
AcDbEntity
  8
标注
 62
     0
370
    -2
100
AcDbLine
 10
615.1859676087387
 20
267.6038838998222
 30
0.0
 11
615.1859676087387
 21
117.9793725127449
 31
0.0
  0
LINE
  5
1CD
330
107
100
AcDbEntity
  8
标注
 62
     0
370
    -2
100
AcDbLine
 10
167.1859676087376
 20
119.2293725127449
 30
0.0
 11
316.019300942071
 21
119.2293725127449
 31
0.0
  0
LINE
  5
1CE
330
107
100
AcDbEntity
  8
标注
 62
     0
370
    -2
100
AcDbLine
 10
603.1859676087387
 20
119.2293725127449
 30
0.0
 11
454.3526342754041
 21
119.2293725127449
 31
0.0
  0
SOLID
  5
1CF
330
107
100
AcDbEntity
  8
标注
 62
     0
100
AcDbTrace
 10
167.1859676087376
 20
121.2293725127449
 30
0.0
 11
167.1859676087376
 21
117.2293725127449
 31
0.0
 12
155.1859676087376
 22
119.2293725127449
 32
0.0
 13
155.1859676087376
 23
119.2293725127449
 33
0.0
  0
SOLID
  5
1D0
330
107
100
AcDbEntity
  8
标注
 62
     0
100
AcDbTrace
 10
603.1859676087387
 20
121.2293725127449
 30
0.0
 11
603.1859676087387
 21
117.2293725127449
 31
0.0
 12
615.1859676087387
 22
119.2293725127449
 32
0.0
 13
615.1859676087387
 23
119.2293725127449
 33
0.0
  0
MTEXT
  5
1D1
330
107
100
AcDbEntity
  8
标注
 62
     0
100
AcDbMText
 10
385.1859676087376
 20
119.2293725127449
 30
0.0
 40
10.0
 41
0.0
 71
     5
 72
     1
  1
460mm [18 1/8"]
 73
     1
 44
1.0
  0
POINT
  5
1D2
330
107
100
AcDbEntity
  8
Defpoints
 62
     0
100
AcDbPoint
 10
155.1859676087376
 20
287.6038838998222
 30
0.0
  0
POINT
  5
1D3
330
107
100
AcDbEntity
  8
Defpoints
 62
     0
100
AcDbPoint
 10
615.1859676087387
 20
287.6038838998222
 30
0.0
  0
POINT
  5
1D4
330
107
100
AcDbEntity
  8
Defpoints
 62
     0
100
AcDbPoint
 10
615.1859676087387
 20
119.2293725127449
 30
0.0
  0
ENDBLK
  5
112
330
107
100
AcDbEntity
  8
0
100
AcDbBlockEnd
  0
BLOCK
  5
119
330
113
100
AcDbEntity
  8
0
100
AcDbBlockBegin
  2
*D13
 70
     1
 10
0.0
 20
0.0
 30
0.0
  3
*D13
  1

  0
LINE
  5
1E4
330
113
100
AcDbEntity
  8
标注
 62
     0
370
    -2
100
AcDbLine
 10
539.9590132416874
 20
251.9938755007346
 30
0.0
 11
569.8389638858846
 21
216.2560035167346
 31
0.0
  0
MTEXT
  5
1E5
330
113
100
AcDbEntity
  8
标注
 62
     0
100
AcDbMText
 10
492.3862832357204
 20
308.8931707883198
 30
0.0
 40
10.0
 41
0.0
 71
     5
 72
     1
  1
R105mm [R4 1/8"]
 11
0.6414300674961849
 21
-0.7671815094955298
 31
0.0
 73
     1
 44
1.0
  0
SOLID
  5
1E6
330
113
100
AcDbEntity
  8
标注
 62
     0
100
AcDbTrace
 10
571.3733269048756
 20
217.5388636517269
 30
0.0
 11
568.3046008668932
 21
214.9731433817422
 31
0.0
 12
577.5361246958388
 22
207.0498254027882
 32
0.0
 13
577.5361246958388
 23
207.0498254027882
 33
0.0
  0
POINT
  5
1E7
330
113
100
AcDbEntity
  8
Defpoints
 62
     0
100
AcDbPoint
 10
577.5361246958388
 20
207.0498254027882
 30
0.0
  0
POINT
  5
1E8
330
113
100
AcDbEntity
  8
Defpoints
 62
     0
100
AcDbPoint
 10
510.185967608737
 20
287.6038838998218
 30
0.0
  0
ENDBLK
  5
11A
330
113
100
AcDbEntity
  8
0
100
AcDbBlockEnd
  0
BLOCK
  5
121
330
11B
100
AcDbEntity
  8
0
100
AcDbBlockBegin
  2
*D14
 70
     1
 10
0.0
 20
0.0
 30
0.0
  3
*D14
  1

  0
LINE
  5
1E9
330
11B
100
AcDbEntity
  8
标注
 62
     0
370
    -2
100
AcDbLine
 10
303.5695609460507
 20
588.6842610168939
 30
0.0
 11
292.8615800210713
 21
641.3055562094519
 31
0.0
  0
MTEXT
  5
1EA
330
11B
100
AcDbEntity
  8
标注
 62
     0
100
AcDbMText
 10
319.8542801389799
 20
508.6576881473034
 30
0.0
 40
10.0
 41
0.0
 71
     5
 72
     1
  1
R475mm [R18 3/4"]
 11
0.1994047248113789
 21
-0.9799172188113127
 31
0.0
 73
     1
 44
1.0
  0
SOLID
  5
1EB
330
11B
100
AcDbEntity
  8
标注
 62
     0
100
AcDbTrace
 10
294.821414458694
 20
641.7043656590748
 30
0.0
 11
290.9017455834487
 21
640.9067467598291
 31
0.0
 12
290.4687233233348
 22
653.0645628351877
 32
0.0
 13
290.4687233233348
 23
653.0645628351877
 33
0.0
  0
POINT
  5
1EC
330
11B
100
AcDbEntity
  8
Defpoints
 62
     0
100
AcDbPoint
 10
290.4687233233348
 20
653.0645628351877
 30
0.0
  0
POINT
  5
1ED
330
11B
100
AcDbEntity
  8
Defpoints
 62
     0
100
AcDbPoint
 10
385.185967608738
 20
187.6038838998223
 30
0.0
  0
ENDBLK
  5
122
330
11B
100
AcDbEntity
  8
0
100
AcDbBlockEnd
  0
BLOCK
  5
138
330
12E
100
AcDbEntity
  8
0
100
AcDbBlockBegin
  2
*D15
 70
     1
 10
0.0
 20
0.0
 30
0.0
  3
*D15
  1

  0
LINE
  5
12F
330
12E
100
AcDbEntity
  8
标注
 62
     0
370
    -2
100
AcDbLine
 10
517.1859676087376
 20
175.6038838998222
 30
0.0
 11
728.7090066869507
 21
175.6038838998221
 31
0.0
  0
LINE
  5
130
330
12E
100
AcDbEntity
  8
标注
 62
     0
370
    -2
100
AcDbLine
 10
389.0499509234628
 20
669.5936819239602
 30
0.0
 11
728.7090066869507
 21
669.5936819239602
 31
0.0
  0
LINE
  5
131
330
12E
100
AcDbEntity
  8
标注
 62
     0
370
    -2
100
AcDbLine
 10
727.4590066869507
 20
187.6038838998221
 30
0.0
 11
727.4590066869507
 21
657.5936819239602
 31
0.0
  0
SOLID
  5
132
330
12E
100
AcDbEntity
  8
标注
 62
     0
100
AcDbTrace
 10
725.4590066869507
 20
187.6038838998221
 30
0.0
 11
729.4590066869507
 21
187.6038838998221
 31
0.0
 12
727.4590066869507
 22
175.6038838998221
 32
0.0
 13
727.4590066869507
 23
175.6038838998221
 33
0.0
  0
SOLID
  5
133
330
12E
100
AcDbEntity
  8
标注
 62
     0
100
AcDbTrace
 10
725.4590066869507
 20
657.5936819239602
 30
0.0
 11
729.4590066869507
 21
657.5936819239602
 31
0.0
 12
727.4590066869507
 22
669.5936819239602
 32
0.0
 13
727.4590066869507
 23
669.5936819239602
 33
0.0
  0
MTEXT
  5
134
330
12E
100
AcDbEntity
  8
标注
 62
     0
100
AcDbMText
 10
714.9590066869507
 20
422.5987829118913
 30
0.0
 40
15.0
 41
0.0
 71
     5
 72
     1
  1
494
 11
0.0000000000000001
 21
1.0
 31
0.0
 73
     1
 44
1.0
  0
POINT
  5
135
330
12E
100
AcDbEntity
  8
Defpoints
 62
     0
100
AcDbPoint
 10
510.1859676087376
 20
175.6038838998222
 30
0.0
  0
POINT
  5
136
330
12E
100
AcDbEntity
  8
Defpoints
 62
     0
100
AcDbPoint
 10
382.0499509234628
 20
669.5936819239602
 30
0.0
  0
POINT
  5
137
330
12E
100
AcDbEntity
  8
Defpoints
 62
     0
100
AcDbPoint
 10
727.4590066869507
 20
669.5936819239602
 30
0.0
  0
ENDBLK
  5
139
330
12E
100
AcDbEntity
  8
0
100
AcDbBlockEnd
  0
BLOCK
  5
144
330
13A
100
AcDbEntity
  8
0
100
AcDbBlockBegin
  2
*D16
 70
     1
 10
0.0
 20
0.0
 30
0.0
  3
*D16
  1

  0
LINE
  5
13B
330
13A
100
AcDbEntity
  8
标注
 62
     0
370
    -2
100
AcDbLine
 10
148.1859676087376
 20
280.6038838998222
 30
0.0
 11
148.1859676087376
 21
85.25760397771524
 31
0.0
  0
LINE
  5
13C
330
13A
100
AcDbEntity
  8
标注
 62
     0
370
    -2
100
AcDbLine
 10
622.1859676087376
 20
280.6038838998222
 30
0.0
 11
622.1859676087376
 21
85.25760397771524
 31
0.0
  0
LINE
  5
13D
330
13A
100
AcDbEntity
  8
标注
 62
     0
370
    -2
100
AcDbLine
 10
160.1859676087376
 20
86.50760397771522
 30
0.0
 11
610.1859676087376
 21
86.50760397771522
 31
0.0
  0
SOLID
  5
13E
330
13A
100
AcDbEntity
  8
标注
 62
     0
100
AcDbTrace
 10
160.1859676087376
 20
88.50760397771521
 30
0.0
 11
160.1859676087376
 21
84.50760397771523
 31
0.0
 12
148.1859676087376
 22
86.50760397771522
 32
0.0
 13
148.1859676087376
 23
86.50760397771522
 33
0.0
  0
SOLID
  5
13F
330
13A
100
AcDbEntity
  8
标注
 62
     0
100
AcDbTrace
 10
610.1859676087376
 20
88.50760397771521
 30
0.0
 11
610.1859676087376
 21
84.50760397771523
 31
0.0
 12
622.1859676087376
 22
86.50760397771522
 32
0.0
 13
622.1859676087376
 23
86.50760397771522
 33
0.0
  0
MTEXT
  5
140
330
13A
100
AcDbEntity
  8
标注
 62
     0
100
AcDbMText
 10
385.1859676087376
 20
99.00760397771522
 30
0.0
 40
15.0
 41
0.0
 71
     5
 72
     1
  1
474
 73
     1
 44
1.0
  0
POINT
  5
141
330
13A
100
AcDbEntity
  8
Defpoints
 62
     0
100
AcDbPoint
 10
148.1859676087376
 20
287.6038838998222
 30
0.0
  0
POINT
  5
142
330
13A
100
AcDbEntity
  8
Defpoints
 62
     0
100
AcDbPoint
 10
622.1859676087376
 20
287.6038838998222
 30
0.0
  0
POINT
  5
143
330
13A
100
AcDbEntity
  8
Defpoints
 62
     0
100
AcDbPoint
 10
622.1859676087376
 20
86.50760397771522
 30
0.0
  0
ENDBLK
  5
145
330
13A
100
AcDbEntity
  8
0
100
AcDbBlockEnd
  0
BLOCK
  5
1FA
330
1EF
100
AcDbEntity
  8
0
100
AcDbBlockBegin
  2
*D17
 70
     1
 10
0.0
 20
0.0
 30
0.0
  3
*D17
  1

  0
LINE
  5
206
330
1EF
100
AcDbEntity
  8
标注
 62
     0
370
    -2
100
AcDbLine
 10
402.0499509234626
 20
662.5935315758002
 30
0.0
 11
682.9965224126407
 21
662.5935315758002
 31
0.0
  0
LINE
  5
207
330
1EF
100
AcDbEntity
  8
标注
 62
     0
370
    -2
100
AcDbLine
 10
530.1859676087376
 20
182.603883899822
 30
0.0
 11
682.9965224126405
 21
182.6038838998219
 31
0.0
  0
LINE
  5
208
330
1EF
100
AcDbEntity
  8
标注
 62
     0
370
    -2
100
AcDbLine
 10
681.7465224126407
 20
650.5935315758001
 30
0.0
 11
681.7465224126407
 21
493.4320410711443
 31
0.0
  0
LINE
  5
209
330
1EF
100
AcDbEntity
  8
标注
 62
     0
370
    -2
100
AcDbLine
 10
681.7465224126406
 20
194.6038838998219
 30
0.0
 11
681.7465224126407
 21
351.7653744044777
 31
0.0
  0
SOLID
  5
20A
330
1EF
100
AcDbEntity
  8
标注
 62
     0
100
AcDbTrace
 10
679.7465224126407
 20
650.5935315758001
 30
0.0
 11
683.7465224126407
 21
650.5935315758001
 31
0.0
 12
681.7465224126407
 22
662.5935315758002
 32
0.0
 13
681.7465224126407
 23
662.5935315758002
 33
0.0
  0
SOLID
  5
20B
330
1EF
100
AcDbEntity
  8
标注
 62
     0
100
AcDbTrace
 10
679.7465224126406
 20
194.6038838998219
 30
0.0
 11
683.7465224126406
 21
194.6038838998219
 31
0.0
 12
681.7465224126406
 22
182.6038838998219
 32
0.0
 13
681.7465224126406
 23
182.6038838998219
 33
0.0
  0
MTEXT
  5
20C
330
1EF
100
AcDbEntity
  8
标注
 62
     0
100
AcDbMText
 10
681.7465224126406
 20
422.5987077378111
 30
0.0
 40
10.0
 41
0.0
 71
     5
 72
     1
  1
480mm [18 7/8"]
 11
0.0000000000000001
 21
1.0
 31
0.0
 73
     1
 44
1.0
  0
POINT
  5
20D
330
1EF
100
AcDbEntity
  8
Defpoints
 62
     0
100
AcDbPoint
 10
382.0499509234628
 20
662.5935315758002
 30
0.0
  0
POINT
  5
20E
330
1EF
100
AcDbEntity
  8
Defpoints
 62
     0
100
AcDbPoint
 10
510.1859676087376
 20
182.603883899822
 30
0.0
  0
POINT
  5
20F
330
1EF
100
AcDbEntity
  8
Defpoints
 62
     0
100
AcDbPoint
 10
681.7465224126406
 20
182.6038838998219
 30
0.0
  0
ENDBLK
  5
1FB
330
1EF
100
AcDbEntity
  8
0
100
AcDbBlockEnd
  0
BLOCK
  5
21E
330
218
100
AcDbEntity
  8
0
100
AcDbBlockBegin
  2
*D18
 70
     1
 10
0.0
 20
0.0
 30
0.0
  3
*D18
  1

  0
LINE
  5
24C
330
218
100
AcDbEntity
  8
标注
 62
     0
370
    -2
100
AcDbLine
 10
547.5091385408139
 20
592.7382641951527
 30
0.0
 11
555.7919615988628
 21
601.4212845330911
 31
0.0
  0
MTEXT
  5
24D
330
218
100
AcDbEntity
  8
标注
 62
     0
100
AcDbMText
 10
495.7414944280072
 20
538.4693870830381
 30
0.0
 40
10.0
 41
0.0
 71
     5
 72
     1
  1
R165mm [R6 1/2"]
 11
0.6902352548374208
 21
0.7235850281615292
 31
0.0
 73
     1
 44
1.0
  0
SOLID
  5
24E
330
218
100
AcDbEntity
  8
标注
 62
     0
100
AcDbTrace
 10
554.3447915425398
 20
602.801755042766
 30
0.0
 11
557.239131655186
 21
600.0408140234164
 31
0.0
 12
564.0747846569118
 22
610.1043048710295
 32
0.0
 13
564.0747846569118
 23
610.1043048710295
 33
0.0
  0
POINT
  5
24F
330
218
100
AcDbEntity
  8
Defpoints
 62
     0
100
AcDbPoint
 10
564.0747846569118
 20
610.1043048710295
 30
0.0
  0
POINT
  5
250
330
218
100
AcDbEntity
  8
Defpoints
 62
     0
100
AcDbPoint
 10
450.1859676087376
 20
490.7127752243773
 30
0.0
  0
ENDBLK
  5
21F
330
218
100
AcDbEntity
  8
0
100
AcDbBlockEnd
  0
BLOCK
  5
22E
330
228
100
AcDbEntity
  8
0
100
AcDbBlockBegin
  2
*D19
 70
     1
 10
0.0
 20
0.0
 30
0.0
  3
*D19
  1

  0
LINE
  5
251
330
228
100
AcDbEntity
  8
标注
 62
     0
370
    -2
100
AcDbLine
 10
574.0912957957069
 20
237.8333200159787
 30
0.0
 11
583.5587518234058
 21
230.4599031442982
 31
0.0
  0
MTEXT
  5
252
330
228
100
AcDbEntity
  8
标注
 62
     0
100
AcDbMText
 10
515.5771578467329
 20
283.4051326256708
 30
0.0
 40
10.0
 41
0.0
 71
     5
 72
     1
  1
R105mm [R4 1/8"]
 11
0.7889546689749303
 21
-0.6144514059733757
 31
0.0
 73
     1
 44
1.0
  0
SOLID
  5
253
330
228
100
AcDbEntity
  8
标注
 62
     0
100
AcDbTrace
 10
584.7876546353527
 20
232.0378124822481
 30
0.0
 11
582.3298490114592
 21
228.8819938063484
 31
0.0
 12
593.0262078511052
 22
223.0864862726177
 32
0.0
 13
593.0262078511052
 23
223.0864862726177
 33
0.0
  0
POINT
  5
254
330
228
100
AcDbEntity
  8
Defpoints
 62
     0
100
AcDbPoint
 10
593.0262078511052
 20
223.0864862726177
 30
0.0
  0
POINT
  5
255
330
228
100
AcDbEntity
  8
Defpoints
 62
     0
100
AcDbPoint
 10
510.1859676087374
 20
287.6038838998223
 30
0.0
  0
ENDBLK
  5
22F
330
228
100
AcDbEntity
  8
0
100
AcDbBlockEnd
  0
BLOCK
  5
23E
330
238
100
AcDbEntity
  8
0
100
AcDbBlockBegin
  2
*D20
 70
     1
 10
0.0
 20
0.0
 30
0.0
  3
*D20
  1

  0
LINE
  5
247
330
238
100
AcDbEntity
  8
标注
 62
     0
370
    -2
100
AcDbLine
 10
243.258059871084
 20
608.8783243963197
 30
0.0
 11
236.7110038934112
 21
618.9349668790383
 31
0.0
  0
MTEXT
  5
248
330
238
100
AcDbEntity
  8
标注
 62
     0
100
AcDbMText
 10
284.1771597315385
 20
546.0243088793288
 30
0.0
 40
10.0
 41
0.0
 71
     5
 72
     1
  1
R165mm [R6 1/2"]
 11
0.5455879981393938
 21
-0.8380535402265472
 31
0.0
 73
     1
 44
1.0
  0
SOLID
  5
249
330
238
100
AcDbEntity
  8
标注
 62
     0
100
AcDbTrace
 10
238.3871109738644
 20
620.0261428753171
 30
0.0
 11
235.0348968129581
 21
617.8437908827596
 31
0.0
 12
230.1639479157385
 22
628.9916093617571
 32
0.0
 13
230.1639479157385
 23
628.9916093617571
 33
0.0
  0
POINT
  5
24A
330
238
100
AcDbEntity
  8
Defpoints
 62
     0
100
AcDbPoint
 10
230.1639479157385
 20
628.9916093617571
 30
0.0
  0
POINT
  5
24B
330
238
100
AcDbEntity
  8
Defpoints
 62
     0
100
AcDbPoint
 10
320.1859676087384
 20
490.7127752243765
 30
0.0
  0
ENDBLK
  5
23F
330
238
100
AcDbEntity
  8
0
100
AcDbBlockEnd
  0
BLOCK
  5
29A
330
28F
100
AcDbEntity
  8
0
100
AcDbBlockBegin
  2
*D21
 70
     1
 10
0.0
 20
0.0
 30
0.0
  3
*D21
  1

  0
LINE
  5
2DC
330
28F
100
AcDbEntity
  8
标注
 62
     0
370
    -2
100
AcDbLine
 10
980.9172644298481
 20
637.2976071052228
 30
0.0
 11
731.9960273171377
 21
637.2976071052228
 31
0.0
  0
LINE
  5
2DD
330
28F
100
AcDbEntity
  8
标注
 62
     0
370
    -2
100
AcDbLine
 10
980.9172644298458
 20
153.2976071052228
 30
0.0
 11
731.9960273171377
 21
153.2976071052229
 31
0.0
  0
LINE
  5
2DE
330
28F
100
AcDbEntity
  8
标注
 62
     0
370
    -2
100
AcDbLine
 10
733.2460273171379
 20
625.2976071052228
 30
0.0
 11
733.2460273171379
 21
446.9642737718896
 31
0.0
  0
LINE
  5
2DF
330
28F
100
AcDbEntity
  8
标注
 62
     0
370
    -2
100
AcDbLine
 10
733.2460273171378
 20
165.2976071052229
 30
0.0
 11
733.2460273171379
 21
343.6309404385562
 31
0.0
  0
SOLID
  5
2E0
330
28F
100
AcDbEntity
  8
标注
 62
     0
100
AcDbTrace
 10
731.2460273171377
 20
625.2976071052228
 30
0.0
 11
735.2460273171377
 21
625.2976071052228
 31
0.0
 12
733.2460273171379
 22
637.2976071052228
 32
0.0
 13
733.2460273171379
 23
637.2976071052228
 33
0.0
  0
SOLID
  5
2E1
330
28F
100
AcDbEntity
  8
标注
 62
     0
100
AcDbTrace
 10
731.2460273171377
 20
165.2976071052229
 30
0.0
 11
735.2460273171377
 21
165.2976071052229
 31
0.0
 12
733.2460273171378
 22
153.2976071052229
 32
0.0
 13
733.2460273171378
 23
153.2976071052229
 33
0.0
  0
MTEXT
  5
2E2
330
28F
100
AcDbEntity
  8
标注
 62
     0
100
AcDbMText
 10
733.2460273171378
 20
395.297607105223
 30
0.0
 40
10.0
 41
0.0
 71
     5
 72
     1
  1
484mm [19"]
 11
0.0000000000000001
 21
1.0
 31
0.0
 73
     1
 44
1.0
  0
POINT
  5
2E3
330
28F
100
AcDbEntity
  8
Defpoints
 62
     0
100
AcDbPoint
 10
1000.917264429848
 20
637.2976071052228
 30
0.0
  0
POINT
  5
2E4
330
28F
100
AcDbEntity
  8
Defpoints
 62
     0
100
AcDbPoint
 10
1000.917264429846
 20
153.2976071052228
 30
0.0
  0
POINT
  5
2E5
330
28F
100
AcDbEntity
  8
Defpoints
 62
     0
100
AcDbPoint
 10
733.2460273171378
 20
153.2976071052229
 30
0.0
  0
ENDBLK
  5
29B
330
28F
100
AcDbEntity
  8
0
100
AcDbBlockEnd
  0
BLOCK
  5
2B4
330
2A9
100
AcDbEntity
  8
0
100
AcDbBlockBegin
  2
*D22
 70
     1
 10
0.0
 20
0.0
 30
0.0
  3
*D22
  1

  0
LINE
  5
2B7
330
2A9
100
AcDbEntity
  8
标注
 62
     0
370
    -2
100
AcDbLine
 10
1457.240628276275
 20
580.3353852052327
 30
0.0
 11
1645.251352526545
 21
580.3353852052327
 31
0.0
  0
LINE
  5
2B8
330
2A9
100
AcDbEntity
  8
标注
 62
     0
370
    -2
100
AcDbLine
 10
1417.917264429845
 20
153.2976071052226
 30
0.0
 11
1645.251352526545
 21
153.2976071052225
 31
0.0
  0
LINE
  5
2B9
330
2A9
100
AcDbEntity
  8
标注
 62
     0
370
    -2
100
AcDbLine
 10
1644.001352526546
 20
568.3353852052327
 30
0.0
 11
1644.001352526545
 21
438.4831628218943
 31
0.0
  0
LINE
  5
2BA
330
2A9
100
AcDbEntity
  8
标注
 62
     0
370
    -2
100
AcDbLine
 10
1644.001352526545
 20
165.2976071052225
 30
0.0
 11
1644.001352526545
 21
295.1498294885611
 31
0.0
  0
SOLID
  5
2BB
330
2A9
100
AcDbEntity
  8
标注
 62
     0
100
AcDbTrace
 10
1642.001352526546
 20
568.3353852052327
 30
0.0
 11
1646.001352526545
 21
568.3353852052327
 31
0.0
 12
1644.001352526546
 22
580.3353852052327
 32
0.0
 13
1644.001352526546
 23
580.3353852052327
 33
0.0
  0
SOLID
  5
2BC
330
2A9
100
AcDbEntity
  8
标注
 62
     0
100
AcDbTrace
 10
1642.001352526545
 20
165.2976071052225
 30
0.0
 11
1646.001352526545
 21
165.2976071052225
 31
0.0
 12
1644.001352526545
 22
153.2976071052225
 32
0.0
 13
1644.001352526545
 23
153.2976071052225
 33
0.0
  0
MTEXT
  5
2BD
330
2A9
100
AcDbEntity
  8
标注
 62
     0
100
AcDbMText
 10
1644.001352526545
 20
366.816496155228
 30
0.0
 40
10.0
 41
0.0
 71
     5
 72
     1
  1
427mm [16 7/8"]
 11
0.0000000000000001
 21
1.0
 31
0.0
 73
     1
 44
1.0
  0
POINT
  5
2BE
330
2A9
100
AcDbEntity
  8
Defpoints
 62
     0
100
AcDbPoint
 10
1437.240628276275
 20
580.3353852052327
 30
0.0
  0
POINT
  5
2BF
330
2A9
100
AcDbEntity
  8
Defpoints
 62
     0
100
AcDbPoint
 10
1397.917264429845
 20
153.2976071052226
 30
0.0
  0
POINT
  5
2C0
330
2A9
100
AcDbEntity
  8
Defpoints
 62
     0
100
AcDbPoint
 10
1644.001352526545
 20
153.2976071052225
 30
0.0
  0
ENDBLK
  5
2B5
330
2A9
100
AcDbEntity
  8
0
100
AcDbBlockEnd
  0
BLOCK
  5
2CE
330
2C3
100
AcDbEntity
  8
0
100
AcDbBlockBegin
  2
*D23
 70
     1
 10
0.0
 20
0.0
 30
0.0
  3
*D23
  1

  0
LINE
  5
2D1
330
2C3
100
AcDbEntity
  8
标注
 62
     0
370
    -2
100
AcDbLine
 10
1566.917264429846
 20
347.2976071052226
 30
0.0
 11
1566.917264429846
 21
85.7031337169808
 31
0.0
  0
LINE
  5
2D2
330
2C3
100
AcDbEntity
  8
标注
 62
     0
370
    -2
100
AcDbLine
 10
796.9172644298451
 20
375.2976071052227
 30
0.0
 11
796.9172644298451
 21
85.7031337169808
 31
0.0
  0
LINE
  5
2D3
330
2C3
100
AcDbEntity
  8
标注
 62
     0
370
    -2
100
AcDbLine
 10
1554.917264429846
 20
86.9531337169808
 30
0.0
 11
1253.583931096512
 21
86.9531337169808
 31
0.0
  0
LINE
  5
2D4
330
2C3
100
AcDbEntity
  8
标注
 62
     0
370
    -2
100
AcDbLine
 10
808.917264429845
 20
86.9531337169808
 30
0.0
 11
1110.250597763179
 21
86.9531337169808
 31
0.0
  0
SOLID
  5
2D5
330
2C3
100
AcDbEntity
  8
标注
 62
     0
100
AcDbTrace
 10
1554.917264429846
 20
88.9531337169808
 30
0.0
 11
1554.917264429846
 21
84.95313371698079
 31
0.0
 12
1566.917264429846
 22
86.9531337169808
 32
0.0
 13
1566.917264429846
 23
86.9531337169808
 33
0.0
  0
SOLID
  5
2D6
330
2C3
100
AcDbEntity
  8
标注
 62
     0
100
AcDbTrace
 10
808.917264429845
 20
88.9531337169808
 30
0.0
 11
808.917264429845
 21
84.95313371698079
 31
0.0
 12
796.9172644298451
 22
86.9531337169808
 32
0.0
 13
796.9172644298451
 23
86.9531337169808
 33
0.0
  0
MTEXT
  5
2D7
330
2C3
100
AcDbEntity
  8
标注
 62
     0
100
AcDbMText
 10
1181.917264429845
 20
86.9531337169808
 30
0.0
 40
10.0
 41
0.0
 71
     5
 72
     1
  1
770mm [30 3/8"]
 73
     1
 44
1.0
  0
POINT
  5
2D8
330
2C3
100
AcDbEntity
  8
Defpoints
 62
     0
100
AcDbPoint
 10
1566.917264429846
 20
367.2976071052227
 30
0.0
  0
POINT
  5
2D9
330
2C3
100
AcDbEntity
  8
Defpoints
 62
     0
100
AcDbPoint
 10
796.9172644298451
 20
395.2976071052228
 30
0.0
  0
POINT
  5
2DA
330
2C3
100
AcDbEntity
  8
Defpoints
 62
     0
100
AcDbPoint
 10
796.9172644298451
 20
86.9531337169808
 30
0.0
  0
ENDBLK
  5
2CF
330
2C3
100
AcDbEntity
  8
0
100
AcDbBlockEnd
  0
BLOCK
  5
2F1
330
2EB
100
AcDbEntity
  8
0
100
AcDbBlockBegin
  2
*D24
 70
     1
 10
0.0
 20
0.0
 30
0.0
  3
*D24
  1

  0
LINE
  5
2F4
330
2EB
100
AcDbEntity
  8
标注
 62
     0
370
    -2
100
AcDbLine
 10
1519.656166814102
 20
530.3480370431773
 30
0.0
 11
1528.633934151666
 21
538.3104294997548
 31
0.0
  0
MTEXT
  5
2F5
330
2EB
100
AcDbEntity
  8
标注
 62
     0
100
AcDbMText
 10
1464.792033084541
 20
481.6889720307596
 30
0.0
 40
10.0
 41
0.0
 71
     5
 72
     1
  1
R94mm [R3 3/4"]
 11
0.7481472781303691
 21
0.6635327047147867
 31
0.0
 73
     1
 44
1.0
  0
SOLID
  5
2F6
330
2EB
100
AcDbEntity
  8
标注
 62
     0
100
AcDbTrace
 10
1527.306868742237
 20
539.8067240560155
 30
0.0
 11
1529.960999561096
 21
536.8141349434941
 31
0.0
 12
1537.611701489231
 22
546.2728219563322
 32
0.0
 13
1537.611701489231
 23
546.2728219563322
 33
0.0
  0
POINT
  5
2F7
330
2EB
100
AcDbEntity
  8
Defpoints
 62
     0
100
AcDbPoint
 10
1537.611701489231
 20
546.2728219563322
 30
0.0
  0
POINT
  5
2F8
330
2EB
100
AcDbEntity
  8
Defpoints
 62
     0
100
AcDbPoint
 10
1467.285857344976
 20
483.9007477131426
 30
0.0
  0
ENDBLK
  5
2F2
330
2EB
100
AcDbEntity
  8
0
100
AcDbBlockEnd
  0
BLOCK
  5
301
330
2FB
100
AcDbEntity
  8
0
100
AcDbBlockBegin
  2
*D25
 70
     1
 10
0.0
 20
0.0
 30
0.0
  3
*D25
  1

  0
LINE
  5
304
330
2FB
100
AcDbEntity
  8
标注
 62
     0
370
    -2
100
AcDbLine
 10
854.0621325672644
 20
590.2090843048815
 30
0.0
 11
846.2373862065554
 21
599.3070700374808
 31
0.0
  0
MTEXT
  5
305
330
2FB
100
AcDbEntity
  8
标注
 62
     0
100
AcDbMText
 10
902.4234121577562
 20
533.9784780409021
 30
0.0
 40
10.0
 41
0.0
 71
     5
 72
     1
  1
R104mm [R4 1/8"]
 11
0.6520621967257341
 21
-0.7581654777165802
 31
0.0
 73
     1
 44
1.0
  0
SOLID
  5
306
330
2FB
100
AcDbEntity
  8
标注
 62
     0
100
AcDbTrace
 10
847.7537171619886
 20
600.6111944309322
 30
0.0
 11
844.7210552511219
 21
598.0029456440294
 31
0.0
 12
838.4126398458466
 22
608.4050557700797
 32
0.0
 13
838.4126398458466
 23
608.4050557700797
 33
0.0
  0
POINT
  5
307
330
2FB
100
AcDbEntity
  8
Defpoints
 62
     0
100
AcDbPoint
 10
838.4126398458466
 20
608.4050557700797
 30
0.0
  0
POINT
  5
308
330
2FB
100
AcDbEntity
  8
Defpoints
 62
     0
100
AcDbPoint
 10
906.227108305323
 20
529.5558460875554
 30
0.0
  0
ENDBLK
  5
302
330
2FB
100
AcDbEntity
  8
0
100
AcDbBlockEnd
  0
BLOCK
  5
311
330
30B
100
AcDbEntity
  8
0
100
AcDbBlockBegin
  2
*D26
 70
     1
 10
0.0
 20
0.0
 30
0.0
  3
*D26
  1

  0
LINE
  5
314
330
30B
100
AcDbEntity
  8
标注
 62
     0
370
    -2
100
AcDbLine
 10
844.7553071968869
 20
580.7536748353149
 30
0.0
 11
835.5345370306212
 21
588.4333491474786
 31
0.0
  0
MTEXT
  5
315
330
30B
100
AcDbEntity
  8
标注
 62
     0
100
AcDbMText
 10
901.7447894744991
 20
533.2890211004126
 30
0.0
 40
10.0
 41
0.0
 71
     5
 72
     1
  1
R104mm [R4 1/8"]
 11
0.7683975138554496
 21
-0.6399728593469916
 31
0.0
 73
     1
 44
1.0
  0
SOLID
  5
316
330
30B
100
AcDbEntity
  8
标注
 62
     0
100
AcDbTrace
 10
836.8144827493152
 20
589.9701441751897
 30
0.0
 11
834.2545913119275
 21
586.8965541197677
 31
0.0
 12
826.3137668643558
 22
596.1130234596423
 32
0.0
 13
826.3137668643558
 23
596.1130234596423
 33
0.0
  0
POINT
  5
317
330
30B
100
AcDbEntity
  8
Defpoints
 62
     0
100
AcDbPoint
 10
826.3137668643558
 20
596.1130234596423
 30
0.0
  0
POINT
  5
318
330
30B
100
AcDbEntity
  8
Defpoints
 62
     0
100
AcDbPoint
 10
906.2271083053227
 20
529.5558460875554
 30
0.0
  0
ENDBLK
  5
312
330
30B
100
AcDbEntity
  8
0
100
AcDbBlockEnd
  0
BLOCK
  5
342
330
33C
100
AcDbEntity
  8
0
100
AcDbBlockBegin
  2
*D27
 70
     1
 10
0.0
 20
0.0
 30
0.0
  3
*D27
  1

  0
LINE
  5
3B4
330
33C
100
AcDbEntity
  8
标注
 62
     0
370
    -2
100
AcDbLine
 10
1582.531363008635
 20
580.7536748353141
 30
0.0
 11
1591.7521331749
 21
588.4333491474782
 31
0.0
  0
MTEXT
  5
3B5
330
33C
100
AcDbEntity
  8
标注
 62
     0
100
AcDbMText
 10
1525.541880731022
 20
533.2890211004122
 30
0.0
 40
10.0
 41
0.0
 71
     5
 72
     1
  1
R104mm [R4 1/8"]
 11
0.7683975138554514
 21
0.6399728593469895
 31
0.0
 73
     1
 44
1.0
  0
SOLID
  5
3B6
330
33C
100
AcDbEntity
  8
标注
 62
     0
100
AcDbTrace
 10
1590.472187456206
 20
589.9701441751893
 30
0.0
 11
1593.032078893594
 21
586.8965541197674
 31
0.0
 12
1600.972903341166
 22
596.1130234596421
 32
0.0
 13
1600.972903341166
 23
596.1130234596421
 33
0.0
  0
POINT
  5
3B7
330
33C
100
AcDbEntity
  8
Defpoints
 62
     0
100
AcDbPoint
 10
1600.972903341166
 20
596.1130234596421
 30
0.0
  0
POINT
  5
3B8
330
33C
100
AcDbEntity
  8
Defpoints
 62
     0
100
AcDbPoint
 10
1521.059561900199
 20
529.5558460875554
 30
0.0
  0
ENDBLK
  5
343
330
33C
100
AcDbEntity
  8
0
100
AcDbBlockEnd
  0
BLOCK
  5
34F
330
344
100
AcDbEntity
  8
0
100
AcDbBlockBegin
  2
*D28
 70
     1
 10
0.0
 20
0.0
 30
0.0
  3
*D28
  1

  0
LINE
  5
3AA
330
344
100
AcDbEntity
  8
标注
 62
     0
370
    -2
100
AcDbLine
 10
1446.369405775674
 20
637.2976071052228
 30
0.0
 11
1695.290642888385
 21
637.2976071052228
 31
0.0
  0
LINE
  5
3AB
330
344
100
AcDbEntity
  8
标注
 62
     0
370
    -2
100
AcDbLine
 10
1446.369405775677
 20
153.2976071052228
 30
0.0
 11
1695.290642888385
 21
153.2976071052227
 31
0.0
  0
LINE
  5
3AC
330
344
100
AcDbEntity
  8
标注
 62
     0
370
    -2
100
AcDbLine
 10
1694.040642888385
 20
625.2976071052228
 30
0.0
 11
1694.040642888385
 21
446.9642737718893
 31
0.0
  0
LINE
  5
3AD
330
344
100
AcDbEntity
  8
标注
 62
     0
370
    -2
100
AcDbLine
 10
1694.040642888385
 20
165.2976071052226
 30
0.0
 11
1694.040642888385
 21
343.6309404385561
 31
0.0
  0
SOLID
  5
3AE
330
344
100
AcDbEntity
  8
标注
 62
     0
100
AcDbTrace
 10
1692.040642888385
 20
625.2976071052228
 30
0.0
 11
1696.040642888385
 21
625.2976071052228
 31
0.0
 12
1694.040642888385
 22
637.2976071052228
 32
0.0
 13
1694.040642888385
 23
637.2976071052228
 33
0.0
  0
SOLID
  5
3AF
330
344
100
AcDbEntity
  8
标注
 62
     0
100
AcDbTrace
 10
1692.040642888385
 20
165.2976071052226
 30
0.0
 11
1696.040642888385
 21
165.2976071052226
 31
0.0
 12
1694.040642888385
 22
153.2976071052227
 32
0.0
 13
1694.040642888385
 23
153.2976071052227
 33
0.0
  0
MTEXT
  5
3B0
330
344
100
AcDbEntity
  8
标注
 62
     0
100
AcDbMText
 10
1694.040642888385
 20
395.2976071052232
 30
0.0
 40
10.0
 41
0.0
 71
     5
 72
     1
  1
484mm [19"]
 11
0.0000000000000001
 21
1.0
 31
0.0
 73
     1
 44
1.0
  0
POINT
  5
3B1
330
344
100
AcDbEntity
  8
Defpoints
 62
     0
100
AcDbPoint
 10
1426.369405775674
 20
637.2976071052228
 30
0.0
  0
POINT
  5
3B2
330
344
100
AcDbEntity
  8
Defpoints
 62
     0
100
AcDbPoint
 10
1426.369405775676
 20
153.2976071052228
 30
0.0
  0
POINT
  5
3B3
330
344
100
AcDbEntity
  8
Defpoints
 62
     0
100
AcDbPoint
 10
1694.040642888385
 20
153.2976071052227
 30
0.0
  0
ENDBLK
  5
350
330
344
100
AcDbEntity
  8
0
100
AcDbBlockEnd
  0
BLOCK
  5
35C
330
351
100
AcDbEntity
  8
0
100
AcDbBlockBegin
  2
*D29
 70
     1
 10
0.0
 20
0.0
 30
0.0
  3
*D29
  1

  0
LINE
  5
3A0
330
351
100
AcDbEntity
  8
标注
 62
     0
370
    -2
100
AcDbLine
 10
970.0460419292475
 20
580.3353852052327
 30
0.0
 11
782.0353176789771
 21
580.3353852052327
 31
0.0
  0
LINE
  5
3A1
330
351
100
AcDbEntity
  8
标注
 62
     0
370
    -2
100
AcDbLine
 10
1009.369405775677
 20
153.2976071052226
 30
0.0
 11
782.0353176789767
 21
153.2976071052227
 31
0.0
  0
LINE
  5
3A2
330
351
100
AcDbEntity
  8
标注
 62
     0
370
    -2
100
AcDbLine
 10
783.2853176789767
 20
568.3353852052327
 30
0.0
 11
783.2853176789767
 21
438.4831628218945
 31
0.0
  0
LINE
  5
3A3
330
351
100
AcDbEntity
  8
标注
 62
     0
370
    -2
100
AcDbLine
 10
783.2853176789767
 20
165.2976071052226
 30
0.0
 11
783.2853176789767
 21
295.1498294885612
 31
0.0
  0
SOLID
  5
3A4
330
351
100
AcDbEntity
  8
标注
 62
     0
100
AcDbTrace
 10
781.2853176789769
 20
568.3353852052327
 30
0.0
 11
785.285317678977
 21
568.3353852052327
 31
0.0
 12
783.2853176789767
 22
580.3353852052327
 32
0.0
 13
783.2853176789767
 23
580.3353852052327
 33
0.0
  0
SOLID
  5
3A5
330
351
100
AcDbEntity
  8
标注
 62
     0
100
AcDbTrace
 10
781.2853176789769
 20
165.2976071052226
 30
0.0
 11
785.2853176789769
 21
165.2976071052226
 31
0.0
 12
783.2853176789767
 22
153.2976071052227
 32
0.0
 13
783.2853176789767
 23
153.2976071052227
 33
0.0
  0
MTEXT
  5
3A6
330
351
100
AcDbEntity
  8
标注
 62
     0
100
AcDbMText
 10
783.2853176789767
 20
366.816496155228
 30
0.0
 40
10.0
 41
0.0
 71
     5
 72
     1
  1
427mm [16 7/8"]
 11
0.0000000000000001
 21
1.0
 31
0.0
 73
     1
 44
1.0
  0
POINT
  5
3A7
330
351
100
AcDbEntity
  8
Defpoints
 62
     0
100
AcDbPoint
 10
990.0460419292476
 20
580.3353852052327
 30
0.0
  0
POINT
  5
3A8
330
351
100
AcDbEntity
  8
Defpoints
 62
     0
100
AcDbPoint
 10
1029.369405775677
 20
153.2976071052226
 30
0.0
  0
POINT
  5
3A9
330
351
100
AcDbEntity
  8
Defpoints
 62
     0
100
AcDbPoint
 10
783.2853176789767
 20
153.2976071052227
 30
0.0
  0
ENDBLK
  5
35D
330
351
100
AcDbEntity
  8
0
100
AcDbBlockEnd
  0
BLOCK
  5
369
330
35E
100
AcDbEntity
  8
0
100
AcDbBlockBegin
  2
*D30
 70
     1
 10
0.0
 20
0.0
 30
0.0
  3
*D30
  1

  0
LINE
  5
3B9
330
35E
100
AcDbEntity
  8
标注
 62
     0
370
    -2
100
AcDbLine
 10
860.3694057756765
 20
347.2976071052228
 30
0.0
 11
860.3694057756765
 21
85.70313371698096
 31
0.0
  0
LINE
  5
3BA
330
35E
100
AcDbEntity
  8
标注
 62
     0
370
    -2
100
AcDbLine
 10
1630.369405775678
 20
375.297607105223
 30
0.0
 11
1630.369405775678
 21
85.70313371698096
 31
0.0
  0
LINE
  5
3BB
330
35E
100
AcDbEntity
  8
标注
 62
     0
370
    -2
100
AcDbLine
 10
872.3694057756766
 20
86.95313371698096
 30
0.0
 11
1173.70273910901
 21
86.95313371698096
 31
0.0
  0
LINE
  5
3BC
330
35E
100
AcDbEntity
  8
标注
 62
     0
370
    -2
100
AcDbLine
 10
1618.369405775678
 20
86.95313371698096
 30
0.0
 11
1317.036072442343
 21
86.95313371698096
 31
0.0
  0
SOLID
  5
3BD
330
35E
100
AcDbEntity
  8
标注
 62
     0
100
AcDbTrace
 10
872.3694057756766
 20
88.95313371698097
 30
0.0
 11
872.3694057756766
 21
84.95313371698097
 31
0.0
 12
860.3694057756765
 22
86.95313371698096
 32
0.0
 13
860.3694057756765
 23
86.95313371698096
 33
0.0
  0
SOLID
  5
3BE
330
35E
100
AcDbEntity
  8
标注
 62
     0
100
AcDbTrace
 10
1618.369405775678
 20
88.95313371698097
 30
0.0
 11
1618.369405775678
 21
84.95313371698097
 31
0.0
 12
1630.369405775678
 22
86.95313371698096
 32
0.0
 13
1630.369405775678
 23
86.95313371698096
 33
0.0
  0
MTEXT
  5
3BF
330
35E
100
AcDbEntity
  8
标注
 62
     0
100
AcDbMText
 10
1245.369405775677
 20
86.95313371698096
 30
0.0
 40
10.0
 41
0.0
 71
     5
 72
     1
  1
770mm [30 3/8"]
 73
     1
 44
1.0
  0
POINT
  5
3C0
330
35E
100
AcDbEntity
  8
Defpoints
 62
     0
100
AcDbPoint
 10
860.3694057756765
 20
367.2976071052228
 30
0.0
  0
POINT
  5
3C1
330
35E
100
AcDbEntity
  8
Defpoints
 62
     0
100
AcDbPoint
 10
1630.369405775678
 20
395.297607105223
 30
0.0
  0
POINT
  5
3C2
330
35E
100
AcDbEntity
  8
Defpoints
 62
     0
100
AcDbPoint
 10
1630.369405775678
 20
86.95313371698096
 30
0.0
  0
ENDBLK
  5
36A
330
35E
100
AcDbEntity
  8
0
100
AcDbBlockEnd
  0
BLOCK
  5
371
330
36B
100
AcDbEntity
  8
0
100
AcDbBlockBegin
  2
*D31
 70
     1
 10
0.0
 20
0.0
 30
0.0
  3
*D31
  1

  0
LINE
  5
39B
330
36B
100
AcDbEntity
  8
标注
 62
     0
370
    -2
100
AcDbLine
 10
907.6305033914204
 20
530.3480370431773
 30
0.0
 11
898.6527360538561
 21
538.3104294997547
 31
0.0
  0
MTEXT
  5
39C
330
36B
100
AcDbEntity
  8
标注
 62
     0
100
AcDbMText
 10
962.4946371209807
 20
481.6889720307596
 30
0.0
 40
10.0
 41
0.0
 71
     5
 72
     1
  1
R94mm [R3 3/4"]
 11
0.7481472781303693
 21
-0.6635327047147863
 31
0.0
 73
     1
 44
1.0
  0
SOLID
  5
39D
330
36B
100
AcDbEntity
  8
标注
 62
     0
100
AcDbTrace
 10
899.9798014632856
 20
539.8067240560155
 30
0.0
 11
897.3256706444265
 21
536.8141349434941
 31
0.0
 12
889.6749687162916
 22
546.2728219563322
 32
0.0
 13
889.6749687162916
 23
546.2728219563322
 33
0.0
  0
POINT
  5
39E
330
36B
100
AcDbEntity
  8
Defpoints
 62
     0
100
AcDbPoint
 10
889.6749687162916
 20
546.2728219563322
 30
0.0
  0
POINT
  5
39F
330
36B
100
AcDbEntity
  8
Defpoints
 62
     0
100
AcDbPoint
 10
960.0008128605459
 20
483.9007477131426
 30
0.0
  0
ENDBLK
  5
372
330
36B
100
AcDbEntity
  8
0
100
AcDbBlockEnd
  0
BLOCK
  5
3D0
330
3CF
100
AcDbEntity
  8
0
100
AcDbBlockBegin
  2
*D32
 70
     1
 10
0.0
 20
0.0
 30
0.0
  3
*D32
  1

  0
LINE
  5
3D1
330
3CF
100
AcDbEntity
  8
标注
370
    -2
100
AcDbLine
 10
629.7668300292172
 20
350.801507957659
 30
0.0
 11
629.7668300292172
 21
86.99512986037294
 31
0.0
  0
LINE
  5
3D2
330
3CF
100
AcDbEntity
  8
标注
370
    -2
100
AcDbLine
 10
1407.766830029219
 20
350.8015079576574
 30
0.0
 11
1407.766830029219
 21
86.99512986037294
 31
0.0
  0
LINE
  5
3D3
330
3CF
100
AcDbEntity
  8
标注
370
    -2
100
AcDbLine
 10
645.7668300292167
 20
93.99512986037294
 30
0.0
 11
917.5168300292179
 21
93.99512986037294
 31
0.0
  0
LINE
  5
3D4
330
3CF
100
AcDbEntity
  8
标注
370
    -2
100
AcDbLine
 10
1391.766830029219
 20
93.99512986037294
 30
0.0
 11
1120.016830029218
 21
93.99512986037294
 31
0.0
  0
SOLID
  5
3D5
330
3CF
100
AcDbEntity
  8
标注
100
AcDbTrace
 10
645.7668300292167
 20
96.66179652703965
 30
0.0
 11
645.7668300292167
 21
91.3284631937063
 31
0.0
 12
629.7668300292172
 22
93.99512986037294
 32
0.0
 13
629.7668300292172
 23
93.99512986037294
 33
0.0
  0
SOLID
  5
3D6
330
3CF
100
AcDbEntity
  8
标注
100
AcDbTrace
 10
1391.766830029219
 20
96.66179652703965
 30
0.0
 11
1391.766830029219
 21
91.3284631937063
 31
0.0
 12
1407.766830029219
 22
93.99512986037294
 32
0.0
 13
1407.766830029219
 23
93.99512986037294
 33
0.0
  0
MTEXT
  5
3D7
330
3CF
100
AcDbEntity
  8
标注
100
AcDbMText
 10
1018.766830029218
 20
93.99512986037294
 30
0.0
 40
15.0
 41
0.0
 71
     5
 72
     1
  1
\A1;778mm [30 5/8"]
 73
     1
 44
1.0
  0
POINT
  5
3D8
330
3CF
100
AcDbEntity
  8
Defpoints
 62
     0
100
AcDbPoint
 10
629.7668300292172
 20
382.8015079576592
 30
0.0
  0
POINT
  5
3D9
330
3CF
100
AcDbEntity
  8
Defpoints
 62
     0
100
AcDbPoint
 10
1407.766830029219
 20
382.8015079576575
 30
0.0
  0
POINT
  5
3DA
330
3CF
100
AcDbEntity
  8
Defpoints
 62
     0
100
AcDbPoint
 10
1407.766830029219
 20
93.99512986037294
 30
0.0
  0
ENDBLK
  5
3DB
330
3CF
100
AcDbEntity
  8
0
100
AcDbBlockEnd
  0
BLOCK
  5
3DD
330
3DC
100
AcDbEntity
  8
0
100
AcDbBlockBegin
  2
*D33
 70
     1
 10
0.0
 20
0.0
 30
0.0
  3
*D33
  1

  0
LINE
  5
3DE
330
3DC
100
AcDbEntity
  8
标注
370
    -2
100
AcDbLine
 10
1250.766830029241
 20
168.8015079576649
 30
0.0
 11
1498.459419190176
 21
168.8015079576648
 31
0.0
  0
LINE
  5
3DF
330
3DC
100
AcDbEntity
  8
标注
370
    -2
100
AcDbLine
 10
1250.766830029216
 20
596.8015079576573
 30
0.0
 11
1498.459419190176
 21
596.8015079576572
 31
0.0
  0
LINE
  5
3E0
330
3DC
100
AcDbEntity
  8
标注
370
    -2
100
AcDbLine
 10
1491.459419190176
 20
184.8015079576648
 30
0.0
 11
1491.459419190176
 21
282.8015079576612
 31
0.0
  0
LINE
  5
3E1
330
3DC
100
AcDbEntity
  8
标注
370
    -2
100
AcDbLine
 10
1491.459419190176
 20
580.8015079576572
 30
0.0
 11
1491.459419190176
 21
482.8015079576612
 31
0.0
  0
SOLID
  5
3E2
330
3DC
100
AcDbEntity
  8
标注
100
AcDbTrace
 10
1488.792752523509
 20
184.8015079576648
 30
0.0
 11
1494.126085856843
 21
184.8015079576648
 31
0.0
 12
1491.459419190176
 22
168.8015079576648
 32
0.0
 13
1491.459419190176
 23
168.8015079576648
 33
0.0
  0
SOLID
  5
3E3
330
3DC
100
AcDbEntity
  8
标注
100
AcDbTrace
 10
1488.79275252351
 20
580.8015079576572
 30
0.0
 11
1494.126085856843
 21
580.8015079576572
 31
0.0
 12
1491.459419190176
 22
596.8015079576572
 32
0.0
 13
1491.459419190176
 23
596.8015079576572
 33
0.0
  0
MTEXT
  5
3E4
330
3DC
100
AcDbEntity
  8
标注
100
AcDbMText
 10
1491.459419190176
 20
382.8015079576614
 30
0.0
 40
15.0
 41
0.0
 71
     5
 72
     1
  1
\A1;428mm [16 7/8"]
 11
0.0000000000000001
 21
1.0
 31
0.0
 73
     1
 44
1.0
  0
POINT
  5
3E5
330
3DC
100
AcDbEntity
  8
Defpoints
 62
     0
100
AcDbPoint
 10
1218.766830029241
 20
168.8015079576649
 30
0.0
  0
POINT
  5
3E6
330
3DC
100
AcDbEntity
  8
Defpoints
 62
     0
100
AcDbPoint
 10
1218.766830029216
 20
596.8015079576573
 30
0.0
  0
POINT
  5
3E7
330
3DC
100
AcDbEntity
  8
Defpoints
 62
     0
100
AcDbPoint
 10
1491.459419190176
 20
596.8015079576572
 30
0.0
  0
ENDBLK
  5
3E8
330
3DC
100
AcDbEntity
  8
0
100
AcDbBlockEnd
  0
BLOCK
  5
3EA
330
3E9
100
AcDbEntity
  8
0
100
AcDbBlockBegin
  2
*D34
 70
     1
 10
0.0
 20
0.0
 30
0.0
  3
*D34
  1

  0
LINE
  5
3EB
330
3E9
100
AcDbEntity
  8
标注
370
    -2
100
AcDbLine
 10
1373.734820030951
 20
460.1197358878569
 30
0.0
 11
1389.712732965753
 21
460.9601514088375
 31
0.0
  0
MTEXT
  5
3EC
330
3E9
100
AcDbEntity
  8
标注
100
AcDbMText
 10
1255.148747467972
 20
453.8822769430803
 30
0.0
 40
15.0
 41
0.0
 71
     5
 72
     1
  1
\A1;R1504mm [R59 1/4"]
 11
0.99861955842509
 21
0.0525259700612775
 31
0.0
 73
     1
 44
1.0
  0
SOLID
  5
3ED
330
3E9
100
AcDbEntity
  8
标注
100
AcDbTrace
 10
1389.572663712256
 20
463.6231368979708
 30
0.0
 11
1389.85280221925
 21
458.2971659197038
 31
0.0
 12
1405.690645900555
 22
461.8005669298177
 32
0.0
 13
1405.690645900555
 23
461.8005669298177
 33
0.0
  0
POINT
  5
3EE
330
3E9
100
AcDbEntity
  8
Defpoints
 62
     0
100
AcDbPoint
 10
1405.690645900555
 20
461.8005669298177
 30
0.0
  0
POINT
  5
3EF
330
3E9
100
AcDbEntity
  8
Defpoints
 62
     0
100
AcDbPoint
 10
-96.23316997078131
 20
382.8015079576575
 30
0.0
  0
ENDBLK
  5
3F0
330
3E9
100
AcDbEntity
  8
0
100
AcDbBlockEnd
  0
BLOCK
  5
3F2
330
3F1
100
AcDbEntity
  8
0
100
AcDbBlockBegin
  2
*D35
 70
     1
 10
0.0
 20
0.0
 30
0.0
  3
*D35
  1

  0
LINE
  5
3F3
330
3F1
100
AcDbEntity
  8
标注
370
    -2
100
AcDbLine
 10
1342.207889930399
 20
214.1405650510263
 30
0.0
 11
1350.788029537584
 21
200.6357065059985
 31
0.0
  0
MTEXT
  5
3F4
330
3F1
100
AcDbEntity
  8
标注
100
AcDbMText
 10
1287.241370571869
 20
300.6560651051107
 30
0.0
 40
15.0
 41
0.0
 71
     5
 72
     1
  1
\A1;R94mm [R3 3/4"]
 11
0.5362587254490792
 21
-0.8440536590642382
 31
0.0
 73
     1
 44
1.0
  0
SOLID
  5
3F5
330
3F1
100
AcDbEntity
  8
标注
100
AcDbTrace
 10
1353.038839295089
 20
202.0657297738627
 30
0.0
 11
1348.53721978008
 21
199.2056832381342
 31
0.0
 12
1359.36816914477
 22
187.1308479609706
 32
0.0
 13
1359.36816914477
 23
187.1308479609706
 33
0.0
  0
POINT
  5
3F6
330
3F1
100
AcDbEntity
  8
Defpoints
 62
     0
100
AcDbPoint
 10
1359.36816914477
 20
187.1308479609706
 30
0.0
  0
POINT
  5
3F7
330
3F1
100
AcDbEntity
  8
Defpoints
 62
     0
100
AcDbPoint
 10
1308.959848952556
 20
266.4718919130091
 30
0.0
  0
ENDBLK
  5
3F8
330
3F1
100
AcDbEntity
  8
0
100
AcDbBlockEnd
  0
BLOCK
  5
3FA
330
3F9
100
AcDbEntity
  8
0
100
AcDbBlockBegin
  2
*D36
 70
     1
 10
0.0
 20
0.0
 30
0.0
  3
*D36
  1

  0
LINE
  5
3FB
330
3F9
100
AcDbEntity
  8
标注
370
    -2
100
AcDbLine
 10
768.8298879591493
 20
201.8658556621562
 30
0.0
 11
768.1481549616059
 21
185.8803860062449
 31
0.0
  0
MTEXT
  5
3FC
330
3F9
100
AcDbEntity
  8
标注
100
AcDbMText
 10
773.99614583116
 20
323.005742898359
 30
0.0
 40
15.0
 41
0.0
 71
     5
 72
     1
  1
\A1;R1204mm [R47 3/8"]
 11
0.0426083123464778
 21
0.9990918534944547
 31
0.0
 73
     1
 44
1.0
  0
SOLID
  5
3FD
330
3F9
100
AcDbEntity
  8
标注
100
AcDbTrace
 10
765.483910018954
 20
185.9940081725021
 30
0.0
 11
770.8123999042578
 21
185.7667638399876
 31
0.0
 12
767.4664219640622
 22
169.8949163503337
 32
0.0
 13
767.4664219640622
 23
169.8949163503337
 33
0.0
  0
POINT
  5
3FE
330
3F9
100
AcDbEntity
  8
Defpoints
 62
     0
100
AcDbPoint
 10
767.4664219640622
 20
169.8949163503337
 30
0.0
  0
POINT
  5
3FF
330
3F9
100
AcDbEntity
  8
Defpoints
 62
     0
100
AcDbPoint
 10
818.7668300292202
 20
1372.801507957657
 30
0.0
  0
ENDBLK
  5
400
330
3F9
100
AcDbEntity
  8
0
100
AcDbBlockEnd
  0
BLOCK
  5
43E
330
433
100
AcDbEntity
  8
0
100
AcDbBlockBegin
  2
*D37
 70
     1
 10
0.0
 20
0.0
 30
0.0
  3
*D37
  1

  0
LINE
  5
44D
330
433
100
AcDbEntity
  8
标注
370
    -2
100
AcDbLine
 10
1833.766402191076
 20
227.9959571961931
 30
0.0
 11
2092.458991352011
 21
227.9959571961931
 31
0.0
  0
LINE
  5
44E
330
433
100
AcDbEntity
  8
标注
370
    -2
100
AcDbLine
 10
1833.766402191051
 20
655.9959571961857
 30
0.0
 11
2092.458991352011
 21
655.9959571961857
 31
0.0
  0
LINE
  5
44F
330
433
100
AcDbEntity
  8
标注
370
    -2
100
AcDbLine
 10
2084.458991352011
 20
243.9959571961931
 30
0.0
 11
2084.458991352011
 21
415.6626238628561
 31
0.0
  0
LINE
  5
450
330
433
100
AcDbEntity
  8
标注
370
    -2
100
AcDbLine
 10
2084.458991352011
 20
639.9959571961857
 30
0.0
 11
2084.458991352011
 21
468.3292905295227
 31
0.0
  0
SOLID
  5
451
330
433
100
AcDbEntity
  8
标注
100
AcDbTrace
 10
2081.792324685345
 20
243.9959571961931
 30
0.0
 11
2087.125658018678
 21
243.9959571961931
 31
0.0
 12
2084.458991352011
 22
227.9959571961931
 32
0.0
 13
2084.458991352011
 23
227.9959571961931
 33
0.0
  0
SOLID
  5
452
330
433
100
AcDbEntity
  8
标注
100
AcDbTrace
 10
2081.792324685345
 20
639.9959571961857
 30
0.0
 11
2087.125658018678
 21
639.9959571961857
 31
0.0
 12
2084.458991352011
 22
655.9959571961857
 32
0.0
 13
2084.458991352011
 23
655.9959571961857
 33
0.0
  0
MTEXT
  5
453
330
433
100
AcDbEntity
  8
标注
100
AcDbMText
 10
2084.458991352011
 20
441.9959571961896
 30
0.0
 40
16.0
 41
0.0
 71
     5
 72
     1
  1
\A1;428
 11
0.0000000000000001
 21
1.0
 31
0.0
 73
     1
 44
1.0
  0
POINT
  5
454
330
433
100
AcDbEntity
  8
Defpoints
 62
     0
100
AcDbPoint
 10
1811.766402191076
 20
227.9959571961931
 30
0.0
  0
POINT
  5
455
330
433
100
AcDbEntity
  8
Defpoints
 62
     0
100
AcDbPoint
 10
1811.766402191051
 20
655.9959571961857
 30
0.0
  0
POINT
  5
456
330
433
100
AcDbEntity
  8
Defpoints
 62
     0
100
AcDbPoint
 10
2084.458991352011
 20
655.9959571961857
 30
0.0
  0
ENDBLK
  5
43F
330
433
100
AcDbEntity
  8
0
100
AcDbBlockEnd
  0
BLOCK
  5
44B
330
440
100
AcDbEntity
  8
0
100
AcDbBlockBegin
  2
*D38
 70
     1
 10
0.0
 20
0.0
 30
0.0
  3
*D38
  1

  0
LINE
  5
457
330
440
100
AcDbEntity
  8
标注
370
    -2
100
AcDbLine
 10
1222.766402191052
 20
419.9959571961874
 30
0.0
 11
1222.766402191052
 21
145.1895790989011
 31
0.0
  0
LINE
  5
458
330
440
100
AcDbEntity
  8
标注
370
    -2
100
AcDbLine
 10
2000.766402191054
 20
419.9959571961856
 30
0.0
 11
2000.766402191054
 21
145.1895790989011
 31
0.0
  0
LINE
  5
459
330
440
100
AcDbEntity
  8
标注
370
    -2
100
AcDbLine
 10
1238.766402191052
 20
153.1895790989012
 30
0.0
 11
1585.43306885772
 21
153.1895790989012
 31
0.0
  0
LINE
  5
45A
330
440
100
AcDbEntity
  8
标注
370
    -2
100
AcDbLine
 10
1984.766402191054
 20
153.1895790989012
 30
0.0
 11
1638.099735524386
 21
153.1895790989012
 31
0.0
  0
SOLID
  5
45B
330
440
100
AcDbEntity
  8
标注
100
AcDbTrace
 10
1238.766402191052
 20
155.8562457655678
 30
0.0
 11
1238.766402191052
 21
150.5229124322345
 31
0.0
 12
1222.766402191052
 22
153.1895790989012
 32
0.0
 13
1222.766402191052
 23
153.1895790989012
 33
0.0
  0
SOLID
  5
45C
330
440
100
AcDbEntity
  8
标注
100
AcDbTrace
 10
1984.766402191054
 20
155.8562457655678
 30
0.0
 11
1984.766402191054
 21
150.5229124322345
 31
0.0
 12
2000.766402191054
 22
153.1895790989012
 32
0.0
 13
2000.766402191054
 23
153.1895790989012
 33
0.0
  0
MTEXT
  5
45D
330
440
100
AcDbEntity
  8
标注
100
AcDbMText
 10
1611.766402191053
 20
153.1895790989012
 30
0.0
 40
16.0
 41
0.0
 71
     5
 72
     1
  1
\A1;778
 73
     1
 44
1.0
  0
POINT
  5
45E
330
440
100
AcDbEntity
  8
Defpoints
 62
     0
100
AcDbPoint
 10
1222.766402191052
 20
441.9959571961872
 30
0.0
  0
POINT
  5
45F
330
440
100
AcDbEntity
  8
Defpoints
 62
     0
100
AcDbPoint
 10
2000.766402191054
 20
441.9959571961856
 30
0.0
  0
POINT
  5
460
330
440
100
AcDbEntity
  8
Defpoints
 62
     0
100
AcDbPoint
 10
2000.766402191054
 20
153.1895790989012
 30
0.0
  0
ENDBLK
  5
44C
330
440
100
AcDbEntity
  8
0
100
AcDbBlockEnd
  0
BLOCK
  5
467
330
461
100
AcDbEntity
  8
0
100
AcDbBlockBegin
  2
*D39
 70
     1
 10
0.0
 20
0.0
 30
0.0
  3
*D39
  1

  0
LINE
  5
479
330
461
100
AcDbEntity
  8
标注
370
    -2
100
AcDbLine
 10
1365.362399353047
 20
343.9016710862668
 30
0.0
 11
1361.147727123441
 21
245.0748352447735
 31
0.0
  0
MTEXT
  5
47A
330
461
100
AcDbEntity
  8
标注
100
AcDbMText
 10
1366.995717992996
 20
382.2001921368878
 30
0.0
 40
16.0
 41
0.0
 71
     5
 72
     1
  1
\A1;R1204
 11
0.0426083123464778
 21
0.9990918534944547
 31
0.0
 73
     1
 44
1.0
  0
SOLID
  5
47B
330
461
100
AcDbEntity
  8
标注
100
AcDbTrace
 10
1358.483482180789
 20
245.1884574110308
 30
0.0
 11
1363.811972066093
 21
244.9612130785162
 31
0.0
 12
1360.465994125898
 22
229.0893655888622
 32
0.0
 13
1360.465994125898
 23
229.0893655888622
 33
0.0
  0
POINT
  5
47C
330
461
100
AcDbEntity
  8
Defpoints
 62
     0
100
AcDbPoint
 10
1360.465994125898
 20
229.0893655888622
 30
0.0
  0
POINT
  5
47D
330
461
100
AcDbEntity
  8
Defpoints
 62
     0
100
AcDbPoint
 10
1411.766402191055
 20
1431.995957196185
 30
0.0
  0
ENDBLK
  5
468
330
461
100
AcDbEntity
  8
0
100
AcDbBlockEnd
  0
BLOCK
  5
46F
330
469
100
AcDbEntity
  8
0
100
AcDbBlockBegin
  2
*D40
 70
     1
 10
0.0
 20
0.0
 30
0.0
  3
*D40
  1

  0
LINE
  5
483
330
469
100
AcDbEntity
  8
标注
370
    -2
100
AcDbLine
 10
1894.362422503864
 20
337.6237679882805
 30
0.0
 11
1943.787601699421
 21
259.8301557445269
 31
0.0
  0
MTEXT
  5
484
330
469
100
AcDbEntity
  8
标注
100
AcDbMText
 10
1880.240942733705
 20
359.8505143436388
 30
0.0
 40
16.0
 41
0.0
 71
     5
 72
     1
  1
\A1;R94
 11
0.5362587254490828
 21
-0.8440536590642356
 31
0.0
 73
     1
 44
1.0
  0
SOLID
  5
485
330
469
100
AcDbEntity
  8
标注
100
AcDbTrace
 10
1946.038411456925
 20
261.2601790123912
 30
0.0
 11
1941.536791941916
 21
258.4001324766626
 31
0.0
 12
1952.367741306606
 22
246.3252971994991
 32
0.0
 13
1952.367741306606
 23
246.3252971994991
 33
0.0
  0
POINT
  5
486
330
469
100
AcDbEntity
  8
Defpoints
 62
     0
100
AcDbPoint
 10
1952.367741306606
 20
246.3252971994991
 30
0.0
  0
POINT
  5
487
330
469
100
AcDbEntity
  8
Defpoints
 62
     0
100
AcDbPoint
 10
1901.959421114392
 20
325.6663411515376
 30
0.0
  0
ENDBLK
  5
470
330
469
100
AcDbEntity
  8
0
100
AcDbBlockEnd
  0
BLOCK
  5
477
330
471
100
AcDbEntity
  8
0
100
AcDbBlockBegin
  2
*D41
 70
     1
 10
0.0
 20
0.0
 30
0.0
  3
*D41
  1

  0
LINE
  5
47E
330
471
100
AcDbEntity
  8
标注
370
    -2
100
AcDbLine
 10
1886.428736036102
 20
515.0902217006241
 30
0.0
 11
1982.712305127589
 21
520.1546006473656
 31
0.0
  0
MTEXT
  5
47F
330
471
100
AcDbEntity
  8
标注
100
AcDbMText
 10
1848.148319629807
 20
513.0767261816084
 30
0.0
 40
16.0
 41
0.0
 71
     5
 72
     1
  1
\A1;R1504
 11
0.9986195584250902
 21
0.0525259700612775
 31
0.0
 73
     1
 44
1.0
  0
SOLID
  5
480
330
471
100
AcDbEntity
  8
标注
100
AcDbTrace
 10
1982.572235874091
 20
522.8175861364991
 30
0.0
 11
1982.852374381085
 21
517.4916151582321
 31
0.0
 12
1998.69021806239
 22
520.995016168346
 32
0.0
 13
1998.69021806239
 23
520.995016168346
 33
0.0
  0
POINT
  5
481
330
471
100
AcDbEntity
  8
Defpoints
 62
     0
100
AcDbPoint
 10
1998.69021806239
 20
520.995016168346
 30
0.0
  0
POINT
  5
482
330
471
100
AcDbEntity
  8
Defpoints
 62
     0
100
AcDbPoint
 10
496.7664021910538
 20
441.9959571961856
 30
0.0
  0
ENDBLK
  5
478
330
471
100
AcDbEntity
  8
0
100
AcDbBlockEnd
  0
BLOCK
  5
490
330
48F
100
AcDbEntity
  8
0
100
AcDbBlockBegin
  2
*D42
 70
     1
 10
0.0
 20
0.0
 30
0.0
  3
*D42
  1

  0
LINE
  5
491
330
48F
100
AcDbEntity
  8
标注
370
    -2
100
AcDbLine
 10
1361.015104642722
 20
560.42883341855
 30
0.0
 11
1527.904651464498
 21
560.42883341855
 31
0.0
  0
LINE
  5
492
330
48F
100
AcDbEntity
  8
标注
370
    -2
100
AcDbLine
 10
1361.015104642721
 20
146.4288334185503
 30
0.0
 11
1527.904651464498
 21
146.4288334185502
 31
0.0
  0
LINE
  5
493
330
48F
100
AcDbEntity
  8
标注
370
    -2
100
AcDbLine
 10
1520.904651464498
 20
544.42883341855
 30
0.0
 11
1520.904651464498
 21
448.4288334185499
 31
0.0
  0
LINE
  5
494
330
48F
100
AcDbEntity
  8
标注
370
    -2
100
AcDbLine
 10
1520.904651464498
 20
162.4288334185502
 30
0.0
 11
1520.904651464498
 21
258.4288334185502
 31
0.0
  0
SOLID
  5
495
330
48F
100
AcDbEntity
  8
标注
100
AcDbTrace
 10
1518.237984797831
 20
544.42883341855
 30
0.0
 11
1523.571318131165
 21
544.42883341855
 31
0.0
 12
1520.904651464498
 22
560.42883341855
 32
0.0
 13
1520.904651464498
 23
560.42883341855
 33
0.0
  0
SOLID
  5
496
330
48F
100
AcDbEntity
  8
标注
100
AcDbTrace
 10
1518.237984797831
 20
162.4288334185502
 30
0.0
 11
1523.571318131164
 21
162.4288334185502
 31
0.0
 12
1520.904651464498
 22
146.4288334185502
 32
0.0
 13
1520.904651464498
 23
146.4288334185502
 33
0.0
  0
MTEXT
  5
497
330
48F
100
AcDbEntity
  8
标注
100
AcDbMText
 10
1520.904651464498
 20
353.4288334185503
 30
0.0
 40
15.0
 41
0.0
 71
     5
 72
     1
  1
\A1;414mm [16 1/4"]
 11
0.0000000000000001
 21
1.0
 31
0.0
 73
     1
 44
1.0
  0
POINT
  5
498
330
48F
100
AcDbEntity
  8
Defpoints
 62
     0
100
AcDbPoint
 10
1329.015104642722
 20
560.42883341855
 30
0.0
  0
POINT
  5
499
330
48F
100
AcDbEntity
  8
Defpoints
 62
     0
100
AcDbPoint
 10
1329.015104642721
 20
146.4288334185503
 30
0.0
  0
POINT
  5
49A
330
48F
100
AcDbEntity
  8
Defpoints
 62
     0
100
AcDbPoint
 10
1520.904651464498
 20
146.4288334185502
 30
0.0
  0
ENDBLK
  5
49B
330
48F
100
AcDbEntity
  8
0
100
AcDbBlockEnd
  0
BLOCK
  5
49D
330
49C
100
AcDbEntity
  8
0
100
AcDbBlockBegin
  2
*D43
 70
     1
 10
0.0
 20
0.0
 30
0.0
  3
*D43
  1

  0
LINE
  5
49E
330
49C
100
AcDbEntity
  8
标注
370
    -2
100
AcDbLine
 10
1466.015104642722
 20
321.4288334185501
 30
0.0
 11
1466.015104642722
 21
74.96228029860548
 31
0.0
  0
LINE
  5
49F
330
49C
100
AcDbEntity
  8
标注
370
    -2
100
AcDbLine
 10
708.8151046427245
 20
218.4288334185501
 30
0.0
 11
708.8151046427245
 21
74.96228029860548
 31
0.0
  0
LINE
  5
4A0
330
49C
100
AcDbEntity
  8
标注
370
    -2
100
AcDbLine
 10
1450.015104642722
 20
81.96228029860547
 30
0.0
 11
1189.915104642723
 21
81.96228029860547
 31
0.0
  0
LINE
  5
4A1
330
49C
100
AcDbEntity
  8
标注
370
    -2
100
AcDbLine
 10
724.8151046427246
 20
81.96228029860547
 30
0.0
 11
984.9151046427234
 21
81.96228029860547
 31
0.0
  0
SOLID
  5
4A2
330
49C
100
AcDbEntity
  8
标注
100
AcDbTrace
 10
1450.015104642722
 20
84.62894696527216
 30
0.0
 11
1450.015104642722
 21
79.2956136319388
 31
0.0
 12
1466.015104642722
 22
81.96228029860547
 32
0.0
 13
1466.015104642722
 23
81.96228029860547
 33
0.0
  0
SOLID
  5
4A3
330
49C
100
AcDbEntity
  8
标注
100
AcDbTrace
 10
724.8151046427246
 20
84.62894696527216
 30
0.0
 11
724.8151046427246
 21
79.2956136319388
 31
0.0
 12
708.8151046427245
 22
81.96228029860547
 32
0.0
 13
708.8151046427245
 23
81.96228029860547
 33
0.0
  0
MTEXT
  5
4A4
330
49C
100
AcDbEntity
  8
标注
100
AcDbMText
 10
1087.415104642723
 20
81.96228029860547
 30
0.0
 40
15.0
 41
0.0
 71
     5
 72
     1
  1
\A1;757mm [29 3/4"]
 73
     1
 44
1.0
  0
POINT
  5
4A5
330
49C
100
AcDbEntity
  8
Defpoints
 62
     0
100
AcDbPoint
 10
1466.015104642722
 20
353.4288334185501
 30
0.0
  0
POINT
  5
4A6
330
49C
100
AcDbEntity
  8
Defpoints
 62
     0
100
AcDbPoint
 10
708.8151046427245
 20
250.4288334185501
 30
0.0
  0
POINT
  5
4A7
330
49C
100
AcDbEntity
  8
Defpoints
 62
     0
100
AcDbPoint
 10
708.8151046427245
 20
81.96228029860547
 30
0.0
  0
ENDBLK
  5
4A8
330
49C
100
AcDbEntity
  8
0
100
AcDbBlockEnd
  0
BLOCK
  5
4AA
330
4A9
100
AcDbEntity
  8
0
100
AcDbBlockBegin
  2
*D44
 70
     1
 10
0.0
 20
0.0
 30
0.0
  3
*D44
  1

  0
LINE
  5
4AB
330
4A9
100
AcDbEntity
  8
标注
370
    -2
100
AcDbLine
 10
905.8151046427246
 20
624.4288334185496
 30
0.0
 11
612.3618200222782
 21
624.4288334185498
 31
0.0
  0
LINE
  5
4AC
330
4A9
100
AcDbEntity
  8
标注
370
    -2
100
AcDbLine
 10
780.8151046427243
 20
146.4288334185501
 30
0.0
 11
612.3618200222781
 21
146.4288334185501
 31
0.0
  0
LINE
  5
4AD
330
4A9
100
AcDbEntity
  8
标注
370
    -2
100
AcDbLine
 10
619.3618200222783
 20
608.4288334185497
 30
0.0
 11
619.3618200222783
 21
485.42883341855
 31
0.0
  0
LINE
  5
4AE
330
4A9
100
AcDbEntity
  8
标注
370
    -2
100
AcDbLine
 10
619.3618200222781
 20
162.4288334185501
 30
0.0
 11
619.3618200222783
 21
285.42883341855
 31
0.0
  0
SOLID
  5
4AF
330
4A9
100
AcDbEntity
  8
标注
100
AcDbTrace
 10
616.6951533556116
 20
608.4288334185497
 30
0.0
 11
622.0284866889449
 21
608.4288334185497
 31
0.0
 12
619.3618200222783
 22
624.4288334185498
 32
0.0
 13
619.3618200222783
 23
624.4288334185498
 33
0.0
  0
SOLID
  5
4B0
330
4A9
100
AcDbEntity
  8
标注
100
AcDbTrace
 10
616.6951533556115
 20
162.4288334185501
 30
0.0
 11
622.0284866889447
 21
162.4288334185501
 31
0.0
 12
619.3618200222781
 22
146.4288334185501
 32
0.0
 13
619.3618200222781
 23
146.4288334185501
 33
0.0
  0
MTEXT
  5
4B1
330
4A9
100
AcDbEntity
  8
标注
100
AcDbMText
 10
619.3618200222781
 20
385.42883341855
 30
0.0
 40
15.0
 41
0.0
 71
     5
 72
     1
  1
\A1;478mm [18 7/8"]
 11
0.0000000000000001
 21
1.0
 31
0.0
 73
     1
 44
1.0
  0
POINT
  5
4B2
330
4A9
100
AcDbEntity
  8
Defpoints
 62
     0
100
AcDbPoint
 10
937.8151046427246
 20
624.4288334185496
 30
0.0
  0
POINT
  5
4B3
330
4A9
100
AcDbEntity
  8
Defpoints
 62
     0
100
AcDbPoint
 10
812.8151046427245
 20
146.4288334185501
 30
0.0
  0
POINT
  5
4B4
330
4A9
100
AcDbEntity
  8
Defpoints
 62
     0
100
AcDbPoint
 10
619.3618200222781
 20
146.4288334185501
 30
0.0
  0
ENDBLK
  5
4B5
330
4A9
100
AcDbEntity
  8
0
100
AcDbBlockEnd
  0
BLOCK
  5
4B7
330
4B6
100
AcDbEntity
  8
0
100
AcDbBlockBegin
  2
*D45
 70
     1
 10
0.0
 20
0.0
 30
0.0
  3
*D45
  1

  0
LINE
  5
4B8
330
4B6
100
AcDbEntity
  8
标注
370
    -2
100
AcDbLine
 10
1423.05855567782
 20
205.3484863583843
 30
0.0
 11
1436.812905176767
 21
197.1742665264486
 31
0.0
  0
MTEXT
  5
4B9
330
4B6
100
AcDbEntity
  8
标注
100
AcDbMText
 10
1337.0938713094
 20
256.4373603079824
 30
0.0
 40
15.0
 41
0.0
 71
     5
 72
     1
  1
\A1;R84mm [R3 1/4"]
 11
0.8596468436842002
 21
-0.5108887394959809
 31
0.0
 73
     1
 44
1.0
  0
SOLID
  5
4BA
330
4B6
100
AcDbEntity
  8
标注
100
AcDbTrace
 10
1438.175275148756
 20
199.4666581096064
 30
0.0
 11
1435.450535204778
 21
194.8818749432907
 31
0.0
 12
1450.567254675714
 22
189.0000466945129
 32
0.0
 13
1450.567254675714
 23
189.0000466945129
 33
0.0
  0
POINT
  5
4BB
330
4B6
100
AcDbEntity
  8
Defpoints
 62
     0
100
AcDbPoint
 10
1450.567254675714
 20
189.0000466945129
 30
0.0
  0
POINT
  5
4BC
330
4B6
100
AcDbEntity
  8
Defpoints
 62
     0
100
AcDbPoint
 10
1378.356919806242
 20
231.914700812175
 30
0.0
  0
ENDBLK
  5
4BD
330
4B6
100
AcDbEntity
  8
0
100
AcDbBlockEnd
  0
BLOCK
  5
4BF
330
4BE
100
AcDbEntity
  8
0
100
AcDbBlockBegin
  2
*D46
 70
     1
 10
0.0
 20
0.0
 30
0.0
  3
*D46
  1

  0
LINE
  5
4C0
330
4BE
100
AcDbEntity
  8
标注
370
    -2
100
AcDbLine
 10
1423.841438899511
 20
500.1453175591501
 30
0.0
 11
1437.836675543594
 21
507.8998872619846
 31
0.0
  0
MTEXT
  5
4C1
330
4BE
100
AcDbEntity
  8
标注
100
AcDbMText
 10
1336.371209873993
 20
451.679256916435
 30
0.0
 40
15.0
 41
0.0
 71
     5
 72
     1
  1
\A1;R84mm [R3 1/4"]
 11
0.8747022902551858
 21
0.48466060642715
 31
0.0
 73
     1
 44
1.0
  0
SOLID
  5
4C2
330
4BE
100
AcDbEntity
  8
标注
100
AcDbTrace
 10
1436.544247259789
 20
510.2324267026654
 30
0.0
 11
1439.1291038274
 21
505.5673478213043
 31
0.0
 12
1451.831912187677
 22
515.6544569648191
 32
0.0
 13
1451.831912187677
 23
515.6544569648191
 33
0.0
  0
POINT
  5
4C3
330
4BE
100
AcDbEntity
  8
Defpoints
 62
     0
100
AcDbPoint
 10
1451.831912187677
 20
515.6544569648191
 30
0.0
  0
POINT
  5
4C4
330
4BE
100
AcDbEntity
  8
Defpoints
 62
     0
100
AcDbPoint
 10
1378.356919806241
 20
474.9429660249385
 30
0.0
  0
ENDBLK
  5
4C5
330
4BE
100
AcDbEntity
  8
0
100
AcDbBlockEnd
  0
BLOCK
  5
4C7
330
4C6
100
AcDbEntity
  8
0
100
AcDbBlockBegin
  2
*D47
 70
     1
 10
0.0
 20
0.0
 30
0.0
  3
*D47
  1

  0
LINE
  5
4C8
330
4C6
100
AcDbEntity
  8
标注
370
    -2
100
AcDbLine
 10
780.7883390333127
 20
548.1689796828536
 30
0.0
 11
769.6335795655052
 21
559.6394348270648
 31
0.0
  0
MTEXT
  5
4C9
330
4C6
100
AcDbEntity
  8
标注
100
AcDbMText
 10
853.9914480407988
 20
472.8941177989678
 30
0.0
 40
15.0
 41
0.0
 71
     5
 72
     1
  1
\A1;R164mm [R6 1/2"]
 11
0.6971724667379661
 21
-0.7169034465131966
 31
0.0
 73
     1
 44
1.0
  0
SOLID
  5
4CA
330
4C6
100
AcDbEntity
  8
标注
100
AcDbTrace
 10
771.5453220895404
 20
561.4985614050326
 30
0.0
 11
767.7218370414697
 21
557.7803082490969
 31
0.0
 12
758.4788200976977
 22
571.109889971276
 32
0.0
 13
758.4788200976977
 23
571.109889971276
 33
0.0
  0
POINT
  5
4CB
330
4C6
100
AcDbEntity
  8
Defpoints
 62
     0
100
AcDbPoint
 10
758.4788200976977
 20
571.109889971276
 30
0.0
  0
POINT
  5
4CC
330
4C6
100
AcDbEntity
  8
Defpoints
 62
     0
100
AcDbPoint
 10
872.8151046427241
 20
453.5377247431118
 30
0.0
  0
ENDBLK
  5
4CD
330
4C6
100
AcDbEntity
  8
0
100
AcDbBlockEnd
  0
BLOCK
  5
4CF
330
4CE
100
AcDbEntity
  8
0
100
AcDbBlockBegin
  2
*D48
 70
     1
 10
0.0
 20
0.0
 30
0.0
  3
*D48
  1

  0
LINE
  5
4D0
330
4CE
100
AcDbEntity
  8
标注
370
    -2
100
AcDbLine
 10
967.9062144129996
 20
591.4033509507913
 30
0.0
 11
968.99548535491
 21
607.3662294134967
 31
0.0
  0
MTEXT
  5
4D1
330
4CE
100
AcDbEntity
  8
标注
100
AcDbMText
 10
960.0770795180187
 20
476.670162000095
 30
0.0
 40
15.0
 41
0.0
 71
     5
 72
     1
  1
\A1;R474mm [R18 5/8"]
 11
0.0680794338694003
 21
0.9976799039190987
 31
0.0
 73
     1
 44
1.0
  0
SOLID
  5
4D2
330
4CE
100
AcDbEntity
  8
标注
100
AcDbTrace
 10
966.3350056111259
 20
607.5477745704819
 30
0.0
 11
971.6559650986942
 21
607.1846842565117
 31
0.0
 12
970.0847562968204
 22
623.3291078762024
 32
0.0
 13
970.0847562968204
 23
623.3291078762024
 33
0.0
  0
POINT
  5
4D3
330
4CE
100
AcDbEntity
  8
Defpoints
 62
     0
100
AcDbPoint
 10
970.0847562968204
 20
623.3291078762024
 30
0.0
  0
POINT
  5
4D4
330
4CE
100
AcDbEntity
  8
Defpoints
 62
     0
100
AcDbPoint
 10
937.8151046427248
 20
150.4288334185497
 30
0.0
  0
ENDBLK
  5
4D5
330
4CE
100
AcDbEntity
  8
0
100
AcDbBlockEnd
  0
BLOCK
  5
4D7
330
4D6
100
AcDbEntity
  8
0
100
AcDbBlockBegin
  2
*D49
 70
     1
 10
0.0
 20
0.0
 30
0.0
  3
*D49
  1

  0
LINE
  5
4D8
330
4D6
100
AcDbEntity
  8
标注
370
    -2
100
AcDbLine
 10
762.0920211910697
 20
199.329236500801
 30
0.0
 11
750.8202248684797
 21
187.973770519079
 31
0.0
  0
MTEXT
  5
4D9
330
4D6
100
AcDbEntity
  8
标注
100
AcDbMText
 10
835.1825754703641
 20
272.9623362260299
 30
0.0
 40
15.0
 41
0.0
 71
     5
 72
     1
  1
\A1;R104mm [R4 1/8"]
 11
0.7044872701618759
 21
0.7097166238576268
 31
0.0
 73
     1
 44
1.0
  0
SOLID
  5
4DA
330
4D6
100
AcDbEntity
  8
标注
100
AcDbTrace
 10
748.9276472048593
 20
189.8524032395107
 30
0.0
 11
752.7128025321001
 21
186.0951377986473
 31
0.0
 12
739.5484285458897
 22
176.618304537357
 32
0.0
 13
739.5484285458897
 23
176.618304537357
 33
0.0
  0
POINT
  5
4DB
330
4D6
100
AcDbEntity
  8
Defpoints
 62
     0
100
AcDbPoint
 10
739.5484285458897
 20
176.618304537357
 30
0.0
  0
POINT
  5
4DC
330
4D6
100
AcDbEntity
  8
Defpoints
 62
     0
100
AcDbPoint
 10
812.8151046427245
 20
250.4288334185501
 30
0.0
  0
ENDBLK
  5
4DD
330
4D6
100
AcDbEntity
  8
0
100
AcDbBlockEnd
  0
BLOCK
  5
4DF
330
4DE
100
AcDbEntity
  8
0
100
AcDbBlockBegin
  2
*D50
 70
     1
 10
0.0
 20
0.0
 30
0.0
  3
*D50
  1

  0
LINE
  5
4E0
330
4DE
100
AcDbEntity
  8
标注
370
    -2
100
AcDbLine
 10
1054.364368627594
 20
575.0559266003573
 30
0.0
 11
1060.612764262124
 21
589.7854056133568
 31
0.0
  0
MTEXT
  5
4E1
330
4DE
100
AcDbEntity
  8
标注
100
AcDbMText
 10
1013.359272275993
 20
478.3937205775488
 30
0.0
 40
15.0
 41
0.0
 71
     5
 72
     1
  1
\A1;R164mm [R6 1/2"]
 11
0.3905247271581066
 21
0.9205924383124633
 31
0.0
 73
     1
 44
1.0
  0
SOLID
  5
4E2
330
4DE
100
AcDbEntity
  8
标注
100
AcDbTrace
 10
1058.157851093291
 20
590.8268048857785
 30
0.0
 11
1063.067677430957
 21
588.7440063409352
 31
0.0
 12
1066.861159896654
 22
604.5148846263563
 32
0.0
 13
1066.861159896654
 23
604.5148846263563
 33
0.0
  0
POINT
  5
4E3
330
4DE
100
AcDbEntity
  8
Defpoints
 62
     0
100
AcDbPoint
 10
1066.861159896654
 20
604.5148846263563
 30
0.0
  0
POINT
  5
4E4
330
4DE
100
AcDbEntity
  8
Defpoints
 62
     0
100
AcDbPoint
 10
1002.815104642724
 20
453.5377247431124
 30
0.0
  0
ENDBLK
  5
4E5
330
4DE
100
AcDbEntity
  8
0
100
AcDbBlockEnd
  0
BLOCK
  5
4E7
330
4E6
100
AcDbEntity
  8
0
100
AcDbBlockBegin
  2
*D51
 70
     1
 10
0.0
 20
0.0
 30
0.0
  3
*D51
  1

  0
LINE
  5
4E8
330
4E6
100
AcDbEntity
  8
标注
370
    -2
100
AcDbLine
 10
1141.911766325867
 20
590.9062541346465
 30
0.0
 11
1134.11163468733
 21
576.936359846518
 31
0.0
  0
MTEXT
  5
4E9
330
4E6
100
AcDbEntity
  8
标注
100
AcDbMText
 10
1183.95935093986
 20
666.2127155315887
 30
0.0
 40
15.0
 41
0.0
 71
     5
 72
     1
  1
\A1;R20mm [R3/4"]
 11
0.4875082274086014
 21
0.8731183930080295
 31
0.0
 73
     1
 44
1.0
  0
SOLID
  5
4EA
330
4E6
100
AcDbEntity
  8
标注
100
AcDbTrace
 10
1131.783318972642
 20
578.2363817862743
 30
0.0
 11
1136.439950402018
 21
575.6363379067618
 31
0.0
 12
1126.311503048792
 22
562.9664655583892
 32
0.0
 13
1126.311503048792
 23
562.9664655583892
 33
0.0
  0
POINT
  5
4EB
330
4E6
100
AcDbEntity
  8
Defpoints
 62
     0
100
AcDbPoint
 10
1126.311503048792
 20
562.9664655583892
 30
0.0
  0
POINT
  5
4EC
330
4E6
100
AcDbEntity
  8
Defpoints
 62
     0
100
AcDbPoint
 10
1136.061667596964
 20
580.4288334185501
 30
0.0
  0
ENDBLK
  5
4ED
330
4E6
100
AcDbEntity
  8
0
100
AcDbBlockEnd
  0
BLOCK
  5
54E
330
548
100
AcDbEntity
  8
0
100
AcDbBlockBegin
  2
*D52
 70
     1
 10
0.0
 20
0.0
 30
0.0
  3
*D52
  1

  0
LINE
  5
610
330
548
100
AcDbEntity
  8
标注
 62
     0
370
    -2
100
AcDbLine
 10
1667.458449166971
 20
658.5439028171129
 30
0.0
 11
1646.129964217844
 21
620.3449731230107
 31
0.0
  0
MTEXT
  5
611
330
548
100
AcDbEntity
  8
标注
 62
     0
100
AcDbMText
 10
1697.927713380009
 20
713.1138023801137
 30
0.0
 40
10.0
 41
0.0
 71
     5
 72
     1
  1
R20mm [R3/4"]
 11
0.4875082274086121
 21
0.8731183930080231
 31
0.0
 73
     1
 44
1.0
  0
SOLID
  5
612
330
548
100
AcDbEntity
  8
标注
 62
     0
100
AcDbTrace
 10
1644.383727431828
 20
621.319989577828
 30
0.0
 11
1647.87620100386
 21
619.3699566681932
 31
0.0
 12
1640.27986548894
 22
609.8675524069142
 32
0.0
 13
1640.27986548894
 23
609.8675524069142
 33
0.0
  0
POINT
  5
613
330
548
100
AcDbEntity
  8
Defpoints
 62
     0
100
AcDbPoint
 10
1640.27986548894
 20
609.8675524069142
 30
0.0
  0
POINT
  5
614
330
548
100
AcDbEntity
  8
Defpoints
 62
     0
100
AcDbPoint
 10
1650.030030037112
 20
627.3299202670752
 30
0.0
  0
ENDBLK
  5
54F
330
548
100
AcDbEntity
  8
0
100
AcDbBlockEnd
  0
BLOCK
  5
556
330
550
100
AcDbEntity
  8
0
100
AcDbBlockBegin
  2
*D53
 70
     1
 10
0.0
 20
0.0
 30
0.0
  3
*D53
  1

  0
LINE
  5
60B
330
550
100
AcDbEntity
  8
标注
 62
     0
370
    -2
100
AcDbLine
 10
1556.616989252999
 20
594.3392402995081
 30
0.0
 11
1576.143225610905
 21
640.3688622151319
 31
0.0
  0
MTEXT
  5
60C
330
550
100
AcDbEntity
  8
标注
 62
     0
100
AcDbMText
 10
1527.327634716141
 20
525.2948074260731
 30
0.0
 40
10.0
 41
0.0
 71
     5
 72
     1
  1
R164mm [R6 1/2"]
 11
0.390524727158108
 21
0.9205924383124626
 31
0.0
 73
     1
 44
1.0
  0
SOLID
  5
60D
330
550
100
AcDbEntity
  8
标注
 62
     0
100
AcDbTrace
 10
1574.30204073428
 20
641.1499116694479
 30
0.0
 11
1577.98441048753
 21
639.5878127608157
 31
0.0
 12
1580.829522336802
 22
651.4159714748816
 32
0.0
 13
1580.829522336802
 23
651.4159714748816
 33
0.0
  0
POINT
  5
60E
330
550
100
AcDbEntity
  8
Defpoints
 62
     0
100
AcDbPoint
 10
1580.829522336802
 20
651.4159714748816
 30
0.0
  0
POINT
  5
60F
330
550
100
AcDbEntity
  8
Defpoints
 62
     0
100
AcDbPoint
 10
1516.783467082872
 20
500.4388115916368
 30
0.0
  0
ENDBLK
  5
557
330
550
100
AcDbEntity
  8
0
100
AcDbBlockEnd
  0
BLOCK
  5
55E
330
558
100
AcDbEntity
  8
0
100
AcDbBlockBegin
  2
*D54
 70
     1
 10
0.0
 20
0.0
 30
0.0
  3
*D54
  1

  0
LINE
  5
5FC
330
558
100
AcDbEntity
  8
标注
 62
     0
370
    -2
100
AcDbLine
 10
1296.901465373506
 20
267.2261068051139
 30
0.0
 11
1261.97063822798
 21
232.0359908721735
 31
0.0
  0
MTEXT
  5
5FD
330
558
100
AcDbEntity
  8
标注
 62
     0
100
AcDbMText
 10
1349.150937910512
 20
319.8634230745546
 30
0.0
 40
10.0
 41
0.0
 71
     5
 72
     1
  1
R104mm [R4 1/8"]
 11
0.7044872701618738
 21
0.7097166238576289
 31
0.0
 73
     1
 44
1.0
  0
SOLID
  5
5FE
330
558
100
AcDbEntity
  8
标注
 62
     0
100
AcDbTrace
 10
1260.551204980265
 20
233.4449654124971
 30
0.0
 11
1263.390071475696
 21
230.6270163318496
 31
0.0
 12
1253.516790986038
 22
223.5193913858819
 32
0.0
 13
1253.516790986038
 23
223.5193913858819
 33
0.0
  0
POINT
  5
5FF
330
558
100
AcDbEntity
  8
Defpoints
 62
     0
100
AcDbPoint
 10
1253.516790986038
 20
223.5193913858819
 30
0.0
  0
POINT
  5
600
330
558
100
AcDbEntity
  8
Defpoints
 62
     0
100
AcDbPoint
 10
1326.783467082872
 20
297.3299202670753
 30
0.0
  0
ENDBLK
  5
55F
330
558
100
AcDbEntity
  8
0
100
AcDbBlockEnd
  0
BLOCK
  5
566
330
560
100
AcDbEntity
  8
0
100
AcDbBlockBegin
  2
*D55
 70
     1
 10
0.0
 20
0.0
 30
0.0
  3
*D55
  1

  0
LINE
  5
606
330
560
100
AcDbEntity
  8
标注
 62
     0
370
    -2
100
AcDbLine
 10
1479.605262390833
 20
605.0484410020127
 30
0.0
 11
1483.236165530535
 21
658.2580358776985
 31
0.0
  0
MTEXT
  5
607
330
560
100
AcDbEntity
  8
标注
 62
     0
100
AcDbMText
 10
1474.045441958166
 20
523.57124884862
 30
0.0
 40
10.0
 41
0.0
 71
     5
 72
     1
  1
R474mm [R18 5/8"]
 11
0.0680794338693999
 21
0.9976799039190987
 31
0.0
 73
     1
 44
1.0
  0
SOLID
  5
608
330
560
100
AcDbEntity
  8
标注
 62
     0
100
AcDbTrace
 10
1481.240805722697
 20
658.3941947454373
 30
0.0
 11
1485.231525338373
 21
658.1218770099597
 31
0.0
 12
1484.053118736968
 22
670.2301947247276
 32
0.0
 13
1484.053118736968
 23
670.2301947247276
 33
0.0
  0
POINT
  5
609
330
560
100
AcDbEntity
  8
Defpoints
 62
     0
100
AcDbPoint
 10
1484.053118736968
 20
670.2301947247276
 30
0.0
  0
POINT
  5
60A
330
560
100
AcDbEntity
  8
Defpoints
 62
     0
100
AcDbPoint
 10
1451.783467082872
 20
197.3299202670748
 30
0.0
  0
ENDBLK
  5
567
330
560
100
AcDbEntity
  8
0
100
AcDbBlockEnd
  0
BLOCK
  5
56E
330
568
100
AcDbEntity
  8
0
100
AcDbBlockBegin
  2
*D56
 70
     1
 10
0.0
 20
0.0
 30
0.0
  3
*D56
  1

  0
LINE
  5
601
330
568
100
AcDbEntity
  8
标注
 62
     0
370
    -2
100
AcDbLine
 10
1315.6718754756
 20
573.5629631359833
 30
0.0
 11
1280.813252138702
 21
609.408135461643
 31
0.0
  0
MTEXT
  5
602
330
568
100
AcDbEntity
  8
标注
 62
     0
100
AcDbMText
 10
1367.959810480947
 20
519.7952046474936
 30
0.0
 40
10.0
 41
0.0
 71
     5
 72
     1
  1
R164mm [R6 1/2"]
 11
0.6971724667379661
 21
-0.7169034465131966
 31
0.0
 73
     1
 44
1.0
  0
SOLID
  5
603
330
568
100
AcDbEntity
  8
标注
 62
     0
100
AcDbTrace
 10
1282.247059031728
 20
610.8024803951186
 30
0.0
 11
1279.379445245675
 21
608.0137905281673
 31
0.0
 12
1272.447182537846
 22
618.0109768198012
 32
0.0
 13
1272.447182537846
 23
618.0109768198012
 33
0.0
  0
POINT
  5
604
330
568
100
AcDbEntity
  8
Defpoints
 62
     0
100
AcDbPoint
 10
1272.447182537846
 20
618.0109768198012
 30
0.0
  0
POINT
  5
605
330
568
100
AcDbEntity
  8
Defpoints
 62
     0
100
AcDbPoint
 10
1386.783467082873
 20
500.4388115916371
 30
0.0
  0
ENDBLK
  5
56F
330
568
100
AcDbEntity
  8
0
100
AcDbBlockEnd
  0
BLOCK
  5
576
330
570
100
AcDbEntity
  8
0
100
AcDbBlockBegin
  2
*D57
 70
     1
 10
0.0
 20
0.0
 30
0.0
  3
*D57
  1

  0
LINE
  5
5F2
330
570
100
AcDbEntity
  8
标注
 62
     0
370
    -2
100
AcDbLine
 10
1913.02656978243
 20
533.3143538922406
 30
0.0
 11
1955.303847144763
 21
556.739616536219
 31
0.0
  0
MTEXT
  5
5F3
330
570
100
AcDbEntity
  8
标注
 62
     0
100
AcDbMText
 10
1850.339572314141
 20
498.5803437649616
 30
0.0
 40
10.0
 41
0.0
 71
     5
 72
     1
  1
R84mm [R3 1/4"]
 11
0.8747022902551876
 21
0.4846606064271468
 31
0.0
 73
     1
 44
1.0
  0
SOLID
  5
5F4
330
570
100
AcDbEntity
  8
标注
 62
     0
100
AcDbTrace
 10
1954.334525931908
 20
558.4890211167293
 30
0.0
 11
1956.273168357617
 21
554.9902119557087
 31
0.0
 12
1965.800274627825
 22
562.5555438133447
 32
0.0
 13
1965.800274627825
 23
562.5555438133447
 33
0.0
  0
POINT
  5
5F5
330
570
100
AcDbEntity
  8
Defpoints
 62
     0
100
AcDbPoint
 10
1965.800274627825
 20
562.5555438133447
 30
0.0
  0
POINT
  5
5F6
330
570
100
AcDbEntity
  8
Defpoints
 62
     0
100
AcDbPoint
 10
1892.325282246389
 20
521.8440528734642
 30
0.0
  0
ENDBLK
  5
577
330
570
100
AcDbEntity
  8
0
100
AcDbBlockEnd
  0
BLOCK
  5
57E
330
578
100
AcDbEntity
  8
0
100
AcDbBlockBegin
  2
*D58
 70
     1
 10
0.0
 20
0.0
 30
0.0
  3
*D58
  1

  0
LINE
  5
5F7
330
578
100
AcDbEntity
  8
标注
 62
     0
370
    -2
100
AcDbLine
 10
1912.670257546915
 20
266.7247541592955
 30
0.0
 11
1954.219854991652
 21
242.03179841699
 31
0.0
  0
MTEXT
  5
5F8
330
578
100
AcDbEntity
  8
标注
 62
     0
100
AcDbMText
 10
1851.062233749548
 20
303.3384471565073
 30
0.0
 40
10.0
 41
0.0
 71
     5
 72
     1
  1
R84mm [R3 1/4"]
 11
0.8596468436842002
 21
-0.5108887394959809
 31
0.0
 73
     1
 44
1.0
  0
SOLID
  5
5F9
330
578
100
AcDbEntity
  8
标注
 62
     0
100
AcDbTrace
 10
1955.241632470644
 20
243.7510921043585
 30
0.0
 11
1953.19807751266
 21
240.3125047296216
 31
0.0
 12
1964.535617115862
 22
235.9011335430382
 32
0.0
 13
1964.535617115862
 23
235.9011335430382
 33
0.0
  0
POINT
  5
5FA
330
578
100
AcDbEntity
  8
Defpoints
 62
     0
100
AcDbPoint
 10
1964.535617115862
 20
235.9011335430382
 30
0.0
  0
POINT
  5
5FB
330
578
100
AcDbEntity
  8
Defpoints
 62
     0
100
AcDbPoint
 10
1892.32528224639
 20
278.8157876607004
 30
0.0
  0
ENDBLK
  5
57F
330
578
100
AcDbEntity
  8
0
100
AcDbBlockEnd
  0
BLOCK
  5
58B
330
580
100
AcDbEntity
  8
0
100
AcDbBlockBegin
  2
*D59
 70
     1
 10
0.0
 20
0.0
 30
0.0
  3
*D59
  1

  0
LINE
  5
629
330
580
100
AcDbEntity
  8
标注
 62
     0
370
    -2
100
AcDbLine
 10
1431.783467082873
 20
671.3299202670746
 30
0.0
 11
1162.334434351827
 21
671.3299202670746
 31
0.0
  0
LINE
  5
62A
330
580
100
AcDbEntity
  8
标注
 62
     0
370
    -2
100
AcDbLine
 10
1306.783467082873
 20
193.329920267075
 30
0.0
 11
1162.334434351827
 21
193.329920267075
 31
0.0
  0
LINE
  5
62B
330
580
100
AcDbEntity
  8
标注
 62
     0
370
    -2
100
AcDbLine
 10
1163.584434351828
 20
659.3299202670747
 30
0.0
 11
1163.584434351827
 21
503.9965869337414
 31
0.0
  0
LINE
  5
62C
330
580
100
AcDbEntity
  8
标注
 62
     0
370
    -2
100
AcDbLine
 10
1163.584434351827
 20
205.3299202670751
 30
0.0
 11
1163.584434351827
 21
360.6632536004083
 31
0.0
  0
SOLID
  5
62D
330
580
100
AcDbEntity
  8
标注
 62
     0
100
AcDbTrace
 10
1161.584434351827
 20
659.3299202670747
 30
0.0
 11
1165.584434351828
 21
659.3299202670747
 31
0.0
 12
1163.584434351828
 22
671.3299202670746
 32
0.0
 13
1163.584434351828
 23
671.3299202670746
 33
0.0
  0
SOLID
  5
62E
330
580
100
AcDbEntity
  8
标注
 62
     0
100
AcDbTrace
 10
1161.584434351827
 20
205.3299202670751
 30
0.0
 11
1165.584434351827
 21
205.3299202670751
 31
0.0
 12
1163.584434351827
 22
193.329920267075
 32
0.0
 13
1163.584434351827
 23
193.329920267075
 33
0.0
  0
MTEXT
  5
62F
330
580
100
AcDbEntity
  8
标注
 62
     0
100
AcDbMText
 10
1163.584434351827
 20
432.3299202670751
 30
0.0
 40
10.0
 41
0.0
 71
     5
 72
     1
  1
478mm [18 7/8"]
 11
0.0000000000000001
 21
1.0
 31
0.0
 73
     1
 44
1.0
  0
POINT
  5
630
330
580
100
AcDbEntity
  8
Defpoints
 62
     0
100
AcDbPoint
 10
1451.783467082873
 20
671.3299202670746
 30
0.0
  0
POINT
  5
631
330
580
100
AcDbEntity
  8
Defpoints
 62
     0
100
AcDbPoint
 10
1326.783467082872
 20
193.329920267075
 30
0.0
  0
POINT
  5
632
330
580
100
AcDbEntity
  8
Defpoints
 62
     0
100
AcDbPoint
 10
1163.584434351827
 20
193.329920267075
 30
0.0
  0
ENDBLK
  5
58C
330
580
100
AcDbEntity
  8
0
100
AcDbBlockEnd
  0
BLOCK
  5
598
330
58D
100
AcDbEntity
  8
0
100
AcDbBlockBegin
  2
*D60
 70
     1
 10
0.0
 20
0.0
 30
0.0
  3
*D60
  1

  0
LINE
  5
615
330
58D
100
AcDbEntity
  8
标注
 62
     0
370
    -2
100
AcDbLine
 10
1979.98346708287
 20
380.3299202670751
 30
0.0
 11
1979.98346708287
 21
127.6133671471304
 31
0.0
  0
LINE
  5
616
330
58D
100
AcDbEntity
  8
标注
 62
     0
370
    -2
100
AcDbLine
 10
1222.783467082873
 20
277.3299202670751
 30
0.0
 11
1222.783467082873
 21
127.6133671471304
 31
0.0
  0
LINE
  5
617
330
58D
100
AcDbEntity
  8
标注
 62
     0
370
    -2
100
AcDbLine
 10
1967.98346708287
 20
128.8633671471304
 30
0.0
 11
1682.216800416205
 21
128.8633671471304
 31
0.0
  0
LINE
  5
618
330
58D
100
AcDbEntity
  8
标注
 62
     0
370
    -2
100
AcDbLine
 10
1234.783467082873
 20
128.8633671471304
 30
0.0
 11
1520.550133749538
 21
128.8633671471304
 31
0.0
  0
SOLID
  5
619
330
58D
100
AcDbEntity
  8
标注
 62
     0
100
AcDbTrace
 10
1967.98346708287
 20
130.8633671471304
 30
0.0
 11
1967.98346708287
 21
126.8633671471304
 31
0.0
 12
1979.98346708287
 22
128.8633671471304
 32
0.0
 13
1979.98346708287
 23
128.8633671471304
 33
0.0
  0
SOLID
  5
61A
330
58D
100
AcDbEntity
  8
标注
 62
     0
100
AcDbTrace
 10
1234.783467082873
 20
130.8633671471304
 30
0.0
 11
1234.783467082873
 21
126.8633671471304
 31
0.0
 12
1222.783467082873
 22
128.8633671471304
 32
0.0
 13
1222.783467082873
 23
128.8633671471304
 33
0.0
  0
MTEXT
  5
61B
330
58D
100
AcDbEntity
  8
标注
 62
     0
100
AcDbMText
 10
1601.383467082872
 20
128.8633671471304
 30
0.0
 40
10.0
 41
0.0
 71
     5
 72
     1
  1
757,2mm [29 3/4"]
 73
     1
 44
1.0
  0
POINT
  5
61C
330
58D
100
AcDbEntity
  8
Defpoints
 62
     0
100
AcDbPoint
 10
1979.98346708287
 20
400.3299202670748
 30
0.0
  0
POINT
  5
61D
330
58D
100
AcDbEntity
  8
Defpoints
 62
     0
100
AcDbPoint
 10
1222.783467082873
 20
297.3299202670751
 30
0.0
  0
POINT
  5
61E
330
58D
100
AcDbEntity
  8
Defpoints
 62
     0
100
AcDbPoint
 10
1222.783467082873
 20
128.8633671471304
 30
0.0
  0
ENDBLK
  5
599
330
58D
100
AcDbEntity
  8
0
100
AcDbBlockEnd
  0
BLOCK
  5
5A5
330
59A
100
AcDbEntity
  8
0
100
AcDbBlockBegin
  2
*D61
 70
     1
 10
0.0
 20
0.0
 30
0.0
  3
*D61
  1

  0
LINE
  5
5E8
330
59A
100
AcDbEntity
  8
标注
 62
     0
370
    -2
100
AcDbLine
 10
1862.983467082869
 20
607.3299202670748
 30
0.0
 11
2036.123013904646
 21
607.3299202670748
 31
0.0
  0
LINE
  5
5E9
330
59A
100
AcDbEntity
  8
标注
 62
     0
370
    -2
100
AcDbLine
 10
1862.983467082869
 20
193.3299202670752
 30
0.0
 11
2036.123013904646
 21
193.3299202670752
 31
0.0
  0
LINE
  5
5EA
330
59A
100
AcDbEntity
  8
标注
 62
     0
370
    -2
100
AcDbLine
 10
2034.873013904646
 20
595.3299202670748
 30
0.0
 11
2034.873013904646
 21
468.6632536004085
 31
0.0
  0
LINE
  5
5EB
330
59A
100
AcDbEntity
  8
标注
 62
     0
370
    -2
100
AcDbLine
 10
2034.873013904646
 20
205.3299202670753
 30
0.0
 11
2034.873013904646
 21
331.9965869337418
 31
0.0
  0
SOLID
  5
5EC
330
59A
100
AcDbEntity
  8
标注
 62
     0
100
AcDbTrace
 10
2032.873013904646
 20
595.3299202670748
 30
0.0
 11
2036.873013904646
 21
595.3299202670748
 31
0.0
 12
2034.873013904646
 22
607.3299202670748
 32
0.0
 13
2034.873013904646
 23
607.3299202670748
 33
0.0
  0
SOLID
  5
5ED
330
59A
100
AcDbEntity
  8
标注
 62
     0
100
AcDbTrace
 10
2032.873013904646
 20
205.3299202670753
 30
0.0
 11
2036.873013904646
 21
205.3299202670753
 31
0.0
 12
2034.873013904646
 22
193.3299202670752
 32
0.0
 13
2034.873013904646
 23
193.3299202670752
 33
0.0
  0
MTEXT
  5
5EE
330
59A
100
AcDbEntity
  8
标注
 62
     0
100
AcDbMText
 10
2034.873013904646
 20
400.3299202670755
 30
0.0
 40
10.0
 41
0.0
 71
     5
 72
     1
  1
414mm [16 1/4"]
 11
0.0000000000000001
 21
1.0
 31
0.0
 73
     1
 44
1.0
  0
POINT
  5
5EF
330
59A
100
AcDbEntity
  8
Defpoints
 62
     0
100
AcDbPoint
 10
1842.98346708287
 20
607.3299202670748
 30
0.0
  0
POINT
  5
5F0
330
59A
100
AcDbEntity
  8
Defpoints
 62
     0
100
AcDbPoint
 10
1842.983467082869
 20
193.3299202670753
 30
0.0
  0
POINT
  5
5F1
330
59A
100
AcDbEntity
  8
Defpoints
 62
     0
100
AcDbPoint
 10
2034.873013904646
 20
193.3299202670752
 30
0.0
  0
ENDBLK
  5
5A6
330
59A
100
AcDbEntity
  8
0
100
AcDbBlockEnd
  0
BLOCK
  5
65B
330
650
100
AcDbEntity
  8
0
100
AcDbBlockBegin
  2
*D62
 70
     1
 10
0.0
 20
0.0
 30
0.0
  3
*D62
  1

  0
LINE
  5
6BD
330
650
100
AcDbEntity
  8
标注
 62
     0
370
    -2
100
AcDbLine
 10
1876.174163327646
 20
671.3299202670746
 30
0.0
 11
2161.035837627305
 21
671.3299202670746
 31
0.0
  0
LINE
  5
6BE
330
650
100
AcDbEntity
  8
标注
 62
     0
370
    -2
100
AcDbLine
 10
2001.174163327646
 20
193.329920267075
 30
0.0
 11
2161.035837627305
 21
193.329920267075
 31
0.0
  0
LINE
  5
6BF
330
650
100
AcDbEntity
  8
标注
 62
     0
370
    -2
100
AcDbLine
 10
2159.785837627305
 20
659.3299202670745
 30
0.0
 11
2159.785837627305
 21
503.9965869337414
 31
0.0
  0
LINE
  5
6C0
330
650
100
AcDbEntity
  8
标注
 62
     0
370
    -2
100
AcDbLine
 10
2159.785837627305
 20
205.329920267075
 30
0.0
 11
2159.785837627305
 21
360.6632536004081
 31
0.0
  0
SOLID
  5
6C1
330
650
100
AcDbEntity
  8
标注
 62
     0
100
AcDbTrace
 10
2157.785837627305
 20
659.3299202670745
 30
0.0
 11
2161.785837627305
 21
659.3299202670745
 31
0.0
 12
2159.785837627305
 22
671.3299202670746
 32
0.0
 13
2159.785837627305
 23
671.3299202670746
 33
0.0
  0
SOLID
  5
6C2
330
650
100
AcDbEntity
  8
标注
 62
     0
100
AcDbTrace
 10
2157.785837627305
 20
205.329920267075
 30
0.0
 11
2161.785837627305
 21
205.329920267075
 31
0.0
 12
2159.785837627305
 22
193.329920267075
 32
0.0
 13
2159.785837627305
 23
193.329920267075
 33
0.0
  0
MTEXT
  5
6C3
330
650
100
AcDbEntity
  8
标注
 62
     0
100
AcDbMText
 10
2159.785837627305
 20
432.3299202670751
 30
0.0
 40
10.0
 41
0.0
 71
     5
 72
     1
  1
478mm [18 7/8"]
 11
0.0000000000000001
 21
1.0
 31
0.0
 73
     1
 44
1.0
  0
POINT
  5
6C4
330
650
100
AcDbEntity
  8
Defpoints
 62
     0
100
AcDbPoint
 10
1856.174163327646
 20
671.3299202670746
 30
0.0
  0
POINT
  5
6C5
330
650
100
AcDbEntity
  8
Defpoints
 62
     0
100
AcDbPoint
 10
1981.174163327646
 20
193.329920267075
 30
0.0
  0
POINT
  5
6C6
330
650
100
AcDbEntity
  8
Defpoints
 62
     0
100
AcDbPoint
 10
2159.785837627305
 20
193.329920267075
 30
0.0
  0
ENDBLK
  5
65C
330
650
100
AcDbEntity
  8
0
100
AcDbBlockEnd
  0
BLOCK
  5
668
330
65D
100
AcDbEntity
  8
0
100
AcDbBlockBegin
  2
*D63
 70
     1
 10
0.0
 20
0.0
 30
0.0
  3
*D63
  1

  0
LINE
  5
6B3
330
65D
100
AcDbEntity
  8
标注
 62
     0
370
    -2
100
AcDbLine
 10
1327.974163327648
 20
380.3299202670751
 30
0.0
 11
1327.974163327648
 21
115.6567673790059
 31
0.0
  0
LINE
  5
6B4
330
65D
100
AcDbEntity
  8
标注
 62
     0
370
    -2
100
AcDbLine
 10
2085.174163327646
 20
277.3299202670751
 30
0.0
 11
2085.174163327646
 21
115.6567673790059
 31
0.0
  0
LINE
  5
6B5
330
65D
100
AcDbEntity
  8
标注
 62
     0
370
    -2
100
AcDbLine
 10
1339.974163327648
 20
116.9067673790059
 30
0.0
 11
1573.740829994314
 21
116.9067673790059
 31
0.0
  0
LINE
  5
6B6
330
65D
100
AcDbEntity
  8
标注
 62
     0
370
    -2
100
AcDbLine
 10
2073.174163327646
 20
116.9067673790059
 30
0.0
 11
1735.40749666098
 21
116.9067673790059
 31
0.0
  0
SOLID
  5
6B7
330
65D
100
AcDbEntity
  8
标注
 62
     0
100
AcDbTrace
 10
1339.974163327648
 20
118.9067673790059
 30
0.0
 11
1339.974163327648
 21
114.9067673790059
 31
0.0
 12
1327.974163327648
 22
116.9067673790059
 32
0.0
 13
1327.974163327648
 23
116.9067673790059
 33
0.0
  0
SOLID
  5
6B8
330
65D
100
AcDbEntity
  8
标注
 62
     0
100
AcDbTrace
 10
2073.174163327646
 20
118.9067673790059
 30
0.0
 11
2073.174163327646
 21
114.9067673790059
 31
0.0
 12
2085.174163327646
 22
116.9067673790059
 32
0.0
 13
2085.174163327646
 23
116.9067673790059
 33
0.0
  0
MTEXT
  5
6B9
330
65D
100
AcDbEntity
  8
标注
 62
     0
100
AcDbMText
 10
1654.574163327647
 20
116.9067673790059
 30
0.0
 40
10.0
 41
0.0
 71
     5
 72
     1
  1
757,2mm [29 3/4"]
 73
     1
 44
1.0
  0
POINT
  5
6BA
330
65D
100
AcDbEntity
  8
Defpoints
 62
     0
100
AcDbPoint
 10
1327.974163327648
 20
400.3299202670748
 30
0.0
  0
POINT
  5
6BB
330
65D
100
AcDbEntity
  8
Defpoints
 62
     0
100
AcDbPoint
 10
2085.174163327646
 20
297.3299202670751
 30
0.0
  0
POINT
  5
6BC
330
65D
100
AcDbEntity
  8
Defpoints
 62
     0
100
AcDbPoint
 10
2085.174163327646
 20
116.9067673790059
 30
0.0
  0
ENDBLK
  5
669
330
65D
100
AcDbEntity
  8
0
100
AcDbBlockEnd
  0
BLOCK
  5
675
330
66A
100
AcDbEntity
  8
0
100
AcDbBlockBegin
  2
*D64
 70
     1
 10
0.0
 20
0.0
 30
0.0
  3
*D64
  1

  0
LINE
  5
6D1
330
66A
100
AcDbEntity
  8
标注
 62
     0
370
    -2
100
AcDbLine
 10
1444.974163327649
 20
607.3299202670748
 30
0.0
 11
1278.059851829566
 21
607.3299202670749
 31
0.0
  0
LINE
  5
6D2
330
66A
100
AcDbEntity
  8
标注
 62
     0
370
    -2
100
AcDbLine
 10
1444.974163327649
 20
193.3299202670748
 30
0.0
 11
1278.059851829566
 21
193.3299202670749
 31
0.0
  0
LINE
  5
6D3
330
66A
100
AcDbEntity
  8
标注
 62
     0
370
    -2
100
AcDbLine
 10
1279.309851829566
 20
595.3299202670749
 30
0.0
 11
1279.309851829565
 21
468.6632536004084
 31
0.0
  0
LINE
  5
6D4
330
66A
100
AcDbEntity
  8
标注
 62
     0
370
    -2
100
AcDbLine
 10
1279.309851829565
 20
205.3299202670749
 30
0.0
 11
1279.309851829565
 21
331.9965869337416
 31
0.0
  0
SOLID
  5
6D5
330
66A
100
AcDbEntity
  8
标注
 62
     0
100
AcDbTrace
 10
1277.309851829566
 20
595.3299202670749
 30
0.0
 11
1281.309851829566
 21
595.3299202670748
 31
0.0
 12
1279.309851829566
 22
607.3299202670749
 32
0.0
 13
1279.309851829566
 23
607.3299202670749
 33
0.0
  0
SOLID
  5
6D6
330
66A
100
AcDbEntity
  8
标注
 62
     0
100
AcDbTrace
 10
1277.309851829566
 20
205.3299202670749
 30
0.0
 11
1281.309851829565
 21
205.3299202670749
 31
0.0
 12
1279.309851829565
 22
193.3299202670749
 32
0.0
 13
1279.309851829565
 23
193.3299202670749
 33
0.0
  0
MTEXT
  5
6D7
330
66A
100
AcDbEntity
  8
标注
 62
     0
100
AcDbMText
 10
1279.309851829565
 20
400.3299202670751
 30
0.0
 40
10.0
 41
0.0
 71
     5
 72
     1
  1
414mm [16 1/4"]
 11
0.0000000000000001
 21
1.0
 31
0.0
 73
     1
 44
1.0
  0
POINT
  5
6D8
330
66A
100
AcDbEntity
  8
Defpoints
 62
     0
100
AcDbPoint
 10
1464.974163327649
 20
607.3299202670748
 30
0.0
  0
POINT
  5
6D9
330
66A
100
AcDbEntity
  8
Defpoints
 62
     0
100
AcDbPoint
 10
1464.974163327649
 20
193.3299202670748
 30
0.0
  0
POINT
  5
6DA
330
66A
100
AcDbEntity
  8
Defpoints
 62
     0
100
AcDbPoint
 10
1279.309851829565
 20
193.3299202670749
 30
0.0
  0
ENDBLK
  5
676
330
66A
100
AcDbEntity
  8
0
100
AcDbBlockEnd
  0
BLOCK
  5
6FF
330
6F4
100
AcDbEntity
  8
0
100
AcDbBlockBegin
  2
*D65
 70
     1
 10
0.0
 20
0.0
 30
0.0
  3
*D65
  1

  0
LINE
  5
702
330
6F4
100
AcDbEntity
  8
标注
 62
     0
370
    -2
100
AcDbLine
 10
793.3530851726738
 20
670.637404948154
 30
0.0
 11
1110.93539267303
 21
670.637404948154
 31
0.0
  0
LINE
  5
703
330
6F4
100
AcDbEntity
  8
标注
 62
     0
370
    -2
100
AcDbLine
 10
963.2918659889746
 20
190.5643664360813
 30
0.0
 11
1110.93539267303
 21
190.5643664360813
 31
0.0
  0
LINE
  5
704
330
6F4
100
AcDbEntity
  8
标注
 62
     0
370
    -2
100
AcDbLine
 10
1109.68539267303
 20
658.6374049481539
 30
0.0
 11
1109.68539267303
 21
507.2675523587843
 31
0.0
  0
LINE
  5
705
330
6F4
100
AcDbEntity
  8
标注
 62
     0
370
    -2
100
AcDbLine
 10
1109.68539267303
 20
202.5643664360813
 30
0.0
 11
1109.68539267303
 21
353.9342190254509
 31
0.0
  0
SOLID
  5
706
330
6F4
100
AcDbEntity
  8
标注
 62
     0
100
AcDbTrace
 10
1107.68539267303
 20
658.6374049481539
 30
0.0
 11
1111.68539267303
 21
658.6374049481539
 31
0.0
 12
1109.68539267303
 22
670.637404948154
 32
0.0
 13
1109.68539267303
 23
670.637404948154
 33
0.0
  0
SOLID
  5
707
330
6F4
100
AcDbEntity
  8
标注
 62
     0
100
AcDbTrace
 10
1107.68539267303
 20
202.5643664360813
 30
0.0
 11
1111.68539267303
 21
202.5643664360813
 31
0.0
 12
1109.68539267303
 22
190.5643664360813
 32
0.0
 13
1109.68539267303
 23
190.5643664360813
 33
0.0
  0
MTEXT
  5
708
330
6F4
100
AcDbEntity
  8
标注
 62
     0
100
AcDbMText
 10
1109.68539267303
 20
430.6008856921176
 30
0.0
 40
10.0
 41
0.0
 71
     5
 72
     1
  1
480,1mm [18 7/8"]
 11
0.0000000000000001
 21
1.0
 31
0.0
 73
     1
 44
1.0
  0
POINT
  5
709
330
6F4
100
AcDbEntity
  8
Defpoints
 62
     0
100
AcDbPoint
 10
773.3530851726738
 20
670.637404948154
 30
0.0
  0
POINT
  5
70A
330
6F4
100
AcDbEntity
  8
Defpoints
 62
     0
100
AcDbPoint
 10
943.2918659889748
 20
190.5643664360813
 30
0.0
  0
POINT
  5
70B
330
6F4
100
AcDbEntity
  8
Defpoints
 62
     0
100
AcDbPoint
 10
1109.68539267303
 20
190.5643664360813
 30
0.0
  0
ENDBLK
  5
700
330
6F4
100
AcDbEntity
  8
0
100
AcDbBlockEnd
  0
BLOCK
  5
719
330
70E
100
AcDbEntity
  8
0
100
AcDbBlockBegin
  2
*D66
 70
     1
 10
0.0
 20
0.0
 30
0.0
  3
*D66
  1

  0
LINE
  5
745
330
70E
100
AcDbEntity
  8
标注
 62
     0
370
    -2
100
AcDbLine
 10
503.4143043563655
 20
270.5643664360959
 30
0.0
 11
503.4143043563655
 21
108.2780152638197
 31
0.0
  0
LINE
  5
746
330
70E
100
AcDbEntity
  8
标注
 62
     0
370
    -2
100
AcDbLine
 10
1043.230684260232
 20
274.0618802022278
 30
0.0
 11
1043.230684260232
 21
108.2780152638197
 31
0.0
  0
LINE
  5
747
330
70E
100
AcDbEntity
  8
标注
 62
     0
370
    -2
100
AcDbLine
 10
515.4143043563655
 20
109.5280152638197
 30
0.0
 11
695.8224943082988
 21
109.5280152638197
 31
0.0
  0
LINE
  5
748
330
70E
100
AcDbEntity
  8
标注
 62
     0
370
    -2
100
AcDbLine
 10
1031.230684260232
 20
109.5280152638197
 30
0.0
 11
850.8224943082987
 21
109.5280152638197
 31
0.0
  0
SOLID
  5
749
330
70E
100
AcDbEntity
  8
标注
 62
     0
100
AcDbTrace
 10
515.4143043563655
 20
111.5280152638197
 30
0.0
 11
515.4143043563655
 21
107.5280152638197
 31
0.0
 12
503.4143043563655
 22
109.5280152638197
 32
0.0
 13
503.4143043563655
 23
109.5280152638197
 33
0.0
  0
SOLID
  5
74A
330
70E
100
AcDbEntity
  8
标注
 62
     0
100
AcDbTrace
 10
1031.230684260232
 20
111.5280152638197
 30
0.0
 11
1031.230684260232
 21
107.5280152638197
 31
0.0
 12
1043.230684260232
 22
109.5280152638197
 32
0.0
 13
1043.230684260232
 23
109.5280152638197
 33
0.0
  0
MTEXT
  5
74B
330
70E
100
AcDbEntity
  8
标注
 62
     0
100
AcDbMText
 10
773.3224943082988
 20
109.5280152638197
 30
0.0
 40
10.0
 41
0.0
 71
     5
 72
     1
  1
539,8mm [21 1/4"]
 73
     1
 44
1.0
  0
POINT
  5
74C
330
70E
100
AcDbEntity
  8
Defpoints
 62
     0
100
AcDbPoint
 10
503.4143043563655
 20
290.564366436096
 30
0.0
  0
POINT
  5
74D
330
70E
100
AcDbEntity
  8
Defpoints
 62
     0
100
AcDbPoint
 10
1043.230684260232
 20
294.0618802022278
 30
0.0
  0
POINT
  5
74E
330
70E
100
AcDbEntity
  8
Defpoints
 62
     0
100
AcDbPoint
 10
1043.230684260232
 20
109.5280152638197
 30
0.0
  0
ENDBLK
  5
71A
330
70E
100
AcDbEntity
  8
0
100
AcDbBlockEnd
  0
BLOCK
  5
779
330
76E
100
AcDbEntity
  8
0
100
AcDbBlockBegin
  2
*D67
 70
     1
 10
0.0
 20
0.0
 30
0.0
  3
*D67
  1

  0
LINE
  5
7C0
330
76E
100
AcDbEntity
  8
标注
 62
     0
370
    -2
100
AcDbLine
 10
854.9317923619382
 20
210.0488641348635
 30
0.0
 11
854.9317923619382
 21
76.4440702156262
 31
0.0
  0
LINE
  5
7C1
330
76E
100
AcDbEntity
  8
标注
 62
     0
370
    -2
100
AcDbLine
 10
307.1178597272258
 20
213.6862784516537
 30
0.0
 11
307.1178597272258
 21
76.4440702156262
 31
0.0
  0
LINE
  5
7C2
330
76E
100
AcDbEntity
  8
标注
 62
     0
370
    -2
100
AcDbLine
 10
842.9317923619382
 20
77.6940702156262
 30
0.0
 11
652.6914927112486
 21
77.6940702156262
 31
0.0
  0
LINE
  5
7C3
330
76E
100
AcDbEntity
  8
标注
 62
     0
370
    -2
100
AcDbLine
 10
319.1178597272258
 20
77.6940702156262
 30
0.0
 11
509.3581593779153
 21
77.6940702156262
 31
0.0
  0
SOLID
  5
7C4
330
76E
100
AcDbEntity
  8
标注
 62
     0
100
AcDbTrace
 10
842.9317923619382
 20
79.6940702156262
 30
0.0
 11
842.9317923619382
 21
75.6940702156262
 31
0.0
 12
854.9317923619382
 22
77.6940702156262
 32
0.0
 13
854.9317923619382
 23
77.6940702156262
 33
0.0
  0
SOLID
  5
7C5
330
76E
100
AcDbEntity
  8
标注
 62
     0
100
AcDbTrace
 10
319.1178597272258
 20
79.6940702156262
 30
0.0
 11
319.1178597272258
 21
75.6940702156262
 31
0.0
 12
307.1178597272258
 22
77.6940702156262
 32
0.0
 13
307.1178597272258
 23
77.6940702156262
 33
0.0
  0
MTEXT
  5
7C6
330
76E
100
AcDbEntity
  8
标注
 62
     0
100
AcDbMText
 10
581.024826044582
 20
77.6940702156262
 30
0.0
 40
10.0
 41
0.0
 71
     5
 72
     1
  1
548mm [21 5/8"]
 73
     1
 44
1.0
  0
POINT
  5
7C7
330
76E
100
AcDbEntity
  8
Defpoints
 62
     0
100
AcDbPoint
 10
854.9317923619382
 20
230.0488641348636
 30
0.0
  0
POINT
  5
7C8
330
76E
100
AcDbEntity
  8
Defpoints
 62
     0
100
AcDbPoint
 10
307.1178597272258
 20
233.6862784516537
 30
0.0
  0
POINT
  5
7C9
330
76E
100
AcDbEntity
  8
Defpoints
 62
     0
100
AcDbPoint
 10
307.1178597272258
 20
77.6940702156262
 30
0.0
  0
ENDBLK
  5
77A
330
76E
100
AcDbEntity
  8
0
100
AcDbBlockEnd
  0
BLOCK
  5
79D
330
792
100
AcDbEntity
  8
0
100
AcDbBlockBegin
  2
*D68
 70
     1
 10
0.0
 20
0.0
 30
0.0
  3
*D68
  1

  0
LINE
  5
7CB
330
792
100
AcDbEntity
  8
标注
 62
     0
370
    -2
100
AcDbLine
 10
600.9930115456387
 20
614.1219026469357
 30
0.0
 11
912.4689824796707
 21
614.1219026469356
 31
0.0
  0
LINE
  5
7CC
330
792
100
AcDbEntity
  8
标注
 62
     0
370
    -2
100
AcDbLine
 10
770.9317923619383
 20
126.0488641348632
 30
0.0
 11
912.4689824796703
 21
126.0488641348631
 31
0.0
  0
LINE
  5
7CD
330
792
100
AcDbEntity
  8
标注
 62
     0
370
    -2
100
AcDbLine
 10
911.2189824796706
 20
602.1219026469355
 30
0.0
 11
911.2189824796706
 21
440.0853833908993
 31
0.0
  0
LINE
  5
7CE
330
792
100
AcDbEntity
  8
标注
 62
     0
370
    -2
100
AcDbLine
 10
911.2189824796706
 20
138.0488641348632
 30
0.0
 11
911.2189824796706
 21
300.0853833908994
 31
0.0
  0
SOLID
  5
7CF
330
792
100
AcDbEntity
  8
标注
 62
     0
100
AcDbTrace
 10
909.2189824796705
 20
602.1219026469355
 30
0.0
 11
913.2189824796707
 21
602.1219026469355
 31
0.0
 12
911.2189824796706
 22
614.1219026469356
 32
0.0
 13
911.2189824796706
 23
614.1219026469356
 33
0.0
  0
SOLID
  5
7D0
330
792
100
AcDbEntity
  8
标注
 62
     0
100
AcDbTrace
 10
909.2189824796705
 20
138.0488641348632
 30
0.0
 11
913.2189824796704
 21
138.0488641348632
 31
0.0
 12
911.2189824796706
 22
126.0488641348631
 32
0.0
 13
911.2189824796706
 23
126.0488641348631
 33
0.0
  0
MTEXT
  5
7D1
330
792
100
AcDbEntity
  8
标注
 62
     0
100
AcDbMText
 10
911.2189824796706
 20
370.0853833908997
 30
0.0
 40
10.0
 41
0.0
 71
     5
 72
     1
  1
488mm [19 1/4"]
 11
0.0000000000000001
 21
1.0
 31
0.0
 73
     1
 44
1.0
  0
POINT
  5
7D2
330
792
100
AcDbEntity
  8
Defpoints
 62
     0
100
AcDbPoint
 10
580.9930115456388
 20
614.1219026469357
 30
0.0
  0
POINT
  5
7D3
330
792
100
AcDbEntity
  8
Defpoints
 62
     0
100
AcDbPoint
 10
750.9317923619382
 20
126.0488641348632
 30
0.0
  0
POINT
  5
7D4
330
792
100
AcDbEntity
  8
Defpoints
 62
     0
100
AcDbPoint
 10
911.2189824796706
 20
126.0488641348631
 30
0.0
  0
ENDBLK
  5
79E
330
792
100
AcDbEntity
  8
0
100
AcDbBlockEnd
  0
BLOCK
  5
7DE
330
7DD
100
AcDbEntity
  8
0
100
AcDbBlockBegin
  2
*D69
 70
     1
 10
0.0
 20
0.0
 30
0.0
  3
*D69
  1

  0
LINE
  5
7DF
330
7DD
100
AcDbEntity
  8
标注
 62
     0
370
    -2
100
AcDbLine
 10
10051.6328203855
 20
172.9688347876654
 30
0.0
 11
9982.902456779452
 21
207.6839196727551
 31
0.0
  0
LINE
  5
7E0
330
7DD
100
AcDbEntity
  8
标注
 62
     0
370
    -2
100
AcDbLine
 10
9610.68737075703
 20
395.6863923621359
 30
0.0
 11
9599.976145259985
 21
401.0965354611107
 31
0.0
  0
MTEXT
  5
7E1
330
7DD
100
AcDbEntity
  8
标注
 62
     0
100
AcDbMText
 10
10028.2588170591
 20
198.7788322401475
 30
0.0
 40
15.0
 41
0.0
 71
     5
 72
     1
  1
\U+2205393
 11
0.8926021247540072
 21
-0.4508452582479178
 31
0.0
 73
     1
 44
1.0
  0
LINE
  5
7E2
330
7DD
100
AcDbEntity
  8
标注
 62
     0
370
    -2
100
AcDbLine
 10
9621.39859625408
 20
390.2762492631609
 30
0.0
 11
9972.191231282405
 21
213.09406277173
 31
0.0
  0
SOLID
  5
7E3
330
7DD
100
AcDbEntity
  8
标注
 62
     0
100
AcDbTrace
 10
9611.589061273527
 20
397.4715966116437
 30
0.0
 11
9609.785680240534
 21
393.9011881126271
 31
0.0
 12
9621.39859625408
 22
390.2762492631609
 32
0.0
 13
9621.39859625408
 23
390.2762492631609
 33
0.0
  0
SOLID
  5
7E4
330
7DD
100
AcDbEntity
  8
标注
 62
     0
100
AcDbTrace
 10
9983.804147295948
 20
209.4691239222629
 30
0.0
 11
9982.000766262956
 21
205.8987154232464
 31
0.0
 12
9972.191231282405
 22
213.09406277173
 32
0.0
 13
9972.191231282405
 23
213.09406277173
 33
0.0
  0
POINT
  5
7E5
330
7DD
100
AcDbEntity
  8
Defpoints
 62
     0
100
AcDbPoint
 10
9972.191231282405
 20
213.09406277173
 30
0.0
  0
POINT
  5
7E6
330
7DD
100
AcDbEntity
  8
Defpoints
 62
     0
100
AcDbPoint
 10
9621.39859625408
 20
390.2762492631609
 30
0.0
  0
ENDBLK
  5
7E7
330
7DD
100
AcDbEntity
  8
0
100
AcDbBlockEnd
  0
BLOCK
  5
7E9
330
7E8
100
AcDbEntity
  8
0
100
AcDbBlockBegin
  2
*D70
 70
     1
 10
0.0
 20
0.0
 30
0.0
  3
*D70
  1

  0
LINE
  5
7EA
330
7E8
100
AcDbEntity
  8
标注
 62
     0
370
    -2
100
AcDbLine
 10
9803.79491376825
 20
105.1851560174464
 30
0.0
 11
9904.600894706833
 21
105.1851560174464
 31
0.0
  0
LINE
  5
7EB
330
7E8
100
AcDbEntity
  8
标注
 62
     0
370
    -2
100
AcDbLine
 10
9803.79491376825
 20
98.18515601744641
 30
0.0
 11
9904.600894706833
 21
98.18515601744636
 31
0.0
  0
LINE
  5
7EC
330
7E8
100
AcDbEntity
  8
标注
 62
     0
370
    -2
100
AcDbLine
 10
9903.350894706832
 20
117.1851560174463
 30
0.0
 11
9903.350894706832
 21
129.1851560174464
 31
0.0
  0
LINE
  5
7ED
330
7E8
100
AcDbEntity
  8
标注
 62
     0
370
    -2
100
AcDbLine
 10
9903.350894706832
 20
86.18515601744638
 30
0.0
 11
9903.350894706832
 21
54.18515601744638
 31
0.0
  0
LINE
  5
7EE
330
7E8
100
AcDbEntity
  8
标注
 62
     0
370
    -2
100
AcDbLine
 10
9903.350894706832
 20
105.1851560174464
 30
0.0
 11
9903.350894706832
 21
98.18515601744636
 31
0.0
  0
SOLID
  5
7EF
330
7E8
100
AcDbEntity
  8
标注
 62
     0
100
AcDbTrace
 10
9901.350894706833
 20
117.1851560174463
 30
0.0
 11
9905.350894706836
 21
117.1851560174463
 31
0.0
 12
9903.350894706832
 22
105.1851560174464
 32
0.0
 13
9903.350894706832
 23
105.1851560174464
 33
0.0
  0
SOLID
  5
7F0
330
7E8
100
AcDbEntity
  8
标注
 62
     0
100
AcDbTrace
 10
9901.350894706833
 20
86.18515601744638
 30
0.0
 11
9905.350894706836
 21
86.18515601744638
 31
0.0
 12
9903.350894706832
 22
98.18515601744636
 32
0.0
 13
9903.350894706832
 23
98.18515601744636
 33
0.0
  0
MTEXT
  5
7F1
330
7E8
100
AcDbEntity
  8
标注
 62
     0
100
AcDbMText
 10
9890.850894706833
 20
64.18515601744797
 30
0.0
 40
15.0
 41
0.0
 71
     5
 72
     1
  1
7
 11
0.0000000000000001
 21
1.0
 31
0.0
 73
     1
 44
1.0
  0
POINT
  5
7F2
330
7E8
100
AcDbEntity
  8
Defpoints
 62
     0
100
AcDbPoint
 10
9796.794913768248
 20
105.1851560174464
 30
0.0
  0
POINT
  5
7F3
330
7E8
100
AcDbEntity
  8
Defpoints
 62
     0
100
AcDbPoint
 10
9796.794913768248
 20
98.18515601744641
 30
0.0
  0
POINT
  5
7F4
330
7E8
100
AcDbEntity
  8
Defpoints
 62
     0
100
AcDbPoint
 10
9903.350894706832
 20
98.18515601744636
 30
0.0
  0
ENDBLK
  5
7F5
330
7E8
100
AcDbEntity
  8
0
100
AcDbBlockEnd
  0
BLOCK
  5
7F7
330
7F6
100
AcDbEntity
  8
0
100
AcDbBlockBegin
  2
*D71
 70
     1
 10
0.0
 20
0.0
 30
0.0
  3
*D71
  1

  0
LINE
  5
7F8
330
7F6
100
AcDbEntity
  8
标注
 62
     0
370
    -2
100
AcDbLine
 10
10081.42840492905
 20
246.1534019517769
 30
0.0
 11
10008.30704254463
 21
260.4193180824402
 31
0.0
  0
LINE
  5
7F9
330
7F6
100
AcDbEntity
  8
标注
 62
     0
370
    -2
100
AcDbLine
 10
9585.282784991852
 20
342.9509939524519
 30
0.0
 11
9573.504847426576
 21
345.2488596379278
 31
0.0
  0
MTEXT
  5
7FA
330
7F6
100
AcDbEntity
  8
标注
 62
     0
100
AcDbMText
 10
10053.15030260852
 20
264.4061121381987
 30
0.0
 40
15.0
 41
0.0
 71
     5
 72
     1
  1
\U+2205407
 11
0.9814947971062359
 21
-0.1914888071229977
 31
0.0
 73
     1
 44
1.0
  0
LINE
  5
7FB
330
7F6
100
AcDbEntity
  8
标注
 62
     0
370
    -2
100
AcDbLine
 10
9597.060722557126
 20
340.653128266976
 30
0.0
 11
9996.529104979364
 21
262.7171837679161
 31
0.0
  0
SOLID
  5
7FC
330
7F6
100
AcDbEntity
  8
标注
 62
     0
100
AcDbTrace
 10
9585.665762606096
 20
344.9139835466643
 30
0.0
 11
9584.899807377606
 21
340.9880043582393
 31
0.0
 12
9597.060722557126
 22
340.653128266976
 32
0.0
 13
9597.060722557126
 23
340.653128266976
 33
0.0
  0
SOLID
  5
7FD
330
7F6
100
AcDbEntity
  8
标注
 62
     0
100
AcDbTrace
 10
10008.69002015888
 20
262.3823076766528
 30
0.0
 11
10007.92406493039
 21
258.4563284882277
 31
0.0
 12
9996.529104979364
 22
262.7171837679161
 32
0.0
 13
9996.529104979364
 23
262.7171837679161
 33
0.0
  0
POINT
  5
7FE
330
7F6
100
AcDbEntity
  8
Defpoints
 62
     0
100
AcDbPoint
 10
9996.529104979364
 20
262.7171837679161
 30
0.0
  0
POINT
  5
7FF
330
7F6
100
AcDbEntity
  8
Defpoints
 62
     0
100
AcDbPoint
 10
9597.060722557126
 20
340.653128266976
 30
0.0
  0
ENDBLK
  5
800
330
7F6
100
AcDbEntity
  8
0
100
AcDbBlockEnd
  0
BLOCK
  5
825
330
819
100
AcDbEntity
  8
0
100
AcDbBlockBegin
  2
*D72
 70
     1
 10
0.0
 20
0.0
 30
0.0
  3
*D72
  1

  0
LINE
  5
832
330
819
100
AcDbEntity
  8
标注
 62
     0
370
    -2
100
AcDbLine
 10
572.86678774964
 20
70.20760518955173
 30
0.0
 11
660.6727686882249
 21
70.2076051895517
 31
0.0
  0
LINE
  5
833
330
819
100
AcDbEntity
  8
标注
 62
     0
370
    -2
100
AcDbLine
 10
572.86678774964
 20
63.20760518955172
 30
0.0
 11
660.6727686882249
 21
63.20760518955168
 31
0.0
  0
LINE
  5
834
330
819
100
AcDbEntity
  8
标注
 62
     0
370
    -2
100
AcDbLine
 10
659.4227686882247
 20
82.20760518955172
 30
0.0
 11
659.4227686882247
 21
94.20760518955171
 31
0.0
  0
LINE
  5
835
330
819
100
AcDbEntity
  8
标注
 62
     0
370
    -2
100
AcDbLine
 10
659.4227686882247
 20
51.20760518955169
 30
0.0
 11
659.4227686882247
 21
39.2076051895517
 31
0.0
  0
LINE
  5
836
330
819
100
AcDbEntity
  8
标注
 62
     0
370
    -2
100
AcDbLine
 10
659.4227686882247
 20
70.2076051895517
 30
0.0
 11
659.4227686882247
 21
63.20760518955168
 31
0.0
  0
SOLID
  5
837
330
819
100
AcDbEntity
  8
标注
 62
     0
100
AcDbTrace
 10
657.422768688225
 20
82.20760518955172
 30
0.0
 11
661.422768688225
 21
82.20760518955172
 31
0.0
 12
659.4227686882247
 22
70.2076051895517
 32
0.0
 13
659.4227686882247
 23
70.2076051895517
 33
0.0
  0
SOLID
  5
838
330
819
100
AcDbEntity
  8
标注
 62
     0
100
AcDbTrace
 10
657.422768688225
 20
51.20760518955169
 30
0.0
 11
661.422768688225
 21
51.20760518955169
 31
0.0
 12
659.4227686882247
 22
63.20760518955168
 32
0.0
 13
659.4227686882247
 23
63.20760518955168
 33
0.0
  0
MTEXT
  5
839
330
819
100
AcDbEntity
  8
标注
 62
     0
100
AcDbMText
 10
659.4227686882247
 20
-7.459061477114855
 30
0.0
 40
10.0
 41
0.0
 71
     5
 72
     1
  1
7mm [1/4"]
 11
0.0000000000000001
 21
1.0
 31
0.0
 73
     1
 44
1.0
  0
POINT
  5
83A
330
819
100
AcDbEntity
  8
Defpoints
 62
     0
100
AcDbPoint
 10
552.86678774964
 20
70.20760518955173
 30
0.0
  0
POINT
  5
83B
330
819
100
AcDbEntity
  8
Defpoints
 62
     0
100
AcDbPoint
 10
552.86678774964
 20
63.20760518955172
 30
0.0
  0
POINT
  5
83C
330
819
100
AcDbEntity
  8
Defpoints
 62
     0
100
AcDbPoint
 10
659.4227686882247
 20
63.20760518955168
 30
0.0
  0
ENDBLK
  5
826
330
819
100
AcDbEntity
  8
0
100
AcDbBlockEnd
  0
BLOCK
  5
830
330
827
100
AcDbEntity
  8
0
100
AcDbBlockBegin
  2
*D73
 70
     1
 10
0.0
 20
0.0
 30
0.0
  3
*D73
  1

  0
LINE
  5
875
330
827
100
AcDbEntity
  8
标注
 62
     0
370
    -2
100
AcDbLine
 10
677.1814325708223
 20
344.1369050462061
 30
0.0
 11
709.4736587767543
 21
364.2500982225568
 31
0.0
  0
MTEXT
  5
876
330
827
100
AcDbEntity
  8
标注
 62
     0
100
AcDbMText
 10
609.2760142392783
 20
301.8420571186158
 30
0.0
 40
10.0
 41
0.0
 71
     5
 72
     1
  1
\U+2205393mm [\U+220515 1/2"]
 11
0.8488177291443015
 21
0.528685599094879
 31
0.0
 73
     1
 44
1.0
  0
SOLID
  5
877
330
827
100
AcDbEntity
  8
标注
 62
     0
100
AcDbTrace
 10
708.4162875785647
 20
365.9477336808453
 30
0.0
 11
710.5310299749443
 21
362.5524627642682
 31
0.0
 12
719.659471526486
 22
370.5943254116953
 32
0.0
 13
719.659471526486
 23
370.5943254116953
 33
0.0
  0
POINT
  5
878
330
827
100
AcDbEntity
  8
Defpoints
 62
     0
100
AcDbPoint
 10
719.659471526486
 20
370.5943254116953
 30
0.0
  0
POINT
  5
879
330
827
100
AcDbEntity
  8
Defpoints
 62
     0
100
AcDbPoint
 10
386.0741039727757
 20
162.820884967408
 30
0.0
  0
ENDBLK
  5
831
330
827
100
AcDbEntity
  8
0
100
AcDbBlockEnd
  0
BLOCK
  5
846
330
83D
100
AcDbEntity
  8
0
100
AcDbBlockBegin
  2
*D74
 70
     1
 10
0.0
 20
0.0
 30
0.0
  3
*D74
  1

  0
LINE
  5
858
330
83D
100
AcDbEntity
  8
标注
 62
     0
370
    -2
100
AcDbLine
 10
776.1568540912994
 20
223.1439015690697
 30
0.0
 11
764.3789165260248
 21
225.4417672545457
 31
0.0
  0
LINE
  5
859
330
83D
100
AcDbEntity
  8
标注
 62
     0
370
    -2
100
AcDbLine
 10
341.3546589732375
 20
307.9734431245576
 30
0.0
 11
329.5767214079626
 21
310.2713088100336
 31
0.0
  0
MTEXT
  5
85A
330
83D
100
AcDbEntity
  8
标注
 62
     0
100
AcDbMText
 10
835.8644542485956
 20
211.494999135754
 30
0.0
 40
10.0
 41
0.0
 71
     5
 72
     1
  1
\U+2205407mm [\U+220516"]
 11
0.9814947971062359
 21
-0.1914888071229977
 31
0.0
 73
     1
 44
1.0
  0
LINE
  5
85B
330
83D
100
AcDbEntity
  8
标注
 62
     0
370
    -2
100
AcDbLine
 10
353.1325965385124
 20
305.6755774390816
 30
0.0
 11
752.6009789607497
 21
227.7396329400216
 31
0.0
  0
SOLID
  5
85C
330
83D
100
AcDbEntity
  8
标注
 62
     0
100
AcDbTrace
 10
341.7376365874835
 20
309.9364327187702
 30
0.0
 11
340.9716813589915
 21
306.0104535303452
 31
0.0
 12
353.1325965385124
 22
305.6755774390816
 32
0.0
 13
353.1325965385124
 23
305.6755774390816
 33
0.0
  0
SOLID
  5
85D
330
83D
100
AcDbEntity
  8
标注
 62
     0
100
AcDbTrace
 10
764.7618941402706
 20
227.4047568487581
 30
0.0
 11
763.9959389117787
 21
223.4787776603332
 31
0.0
 12
752.6009789607497
 22
227.7396329400216
 32
0.0
 13
752.6009789607497
 23
227.7396329400216
 33
0.0
  0
POINT
  5
85E
330
83D
100
AcDbEntity
  8
Defpoints
 62
     0
100
AcDbPoint
 10
752.6009789607497
 20
227.7396329400216
 30
0.0
  0
POINT
  5
85F
330
83D
100
AcDbEntity
  8
Defpoints
 62
     0
100
AcDbPoint
 10
353.1325965385124
 20
305.6755774390816
 30
0.0
  0
ENDBLK
  5
847
330
83D
100
AcDbEntity
  8
0
100
AcDbBlockEnd
  0
BLOCK
  5
885
330
87C
100
AcDbEntity
  8
0
100
AcDbBlockBegin
  2
*D75
 70
     1
 10
0.0
 20
0.0
 30
0.0
  3
*D75
  1

  0
LINE
  5
888
330
87C
100
AcDbEntity
  8
标注
 62
     0
370
    -2
100
AcDbLine
 10
768.2449912329132
 20
313.9567264968715
 30
0.0
 11
756.5237284583126
 21
311.3853457454528
 31
0.0
  0
LINE
  5
889
330
87C
100
AcDbEntity
  8
标注
 62
     0
370
    -2
100
AcDbLine
 10
349.2098470409489
 20
222.0298646336507
 30
0.0
 11
337.4885842663486
 21
219.4584838822319
 31
0.0
  0
MTEXT
  5
88A
330
87C
100
AcDbEntity
  8
标注
 62
     0
100
AcDbMText
 10
846.3867430635826
 20
331.0992648396633
 30
0.0
 40
10.0
 41
0.0
 71
     5
 72
     1
  1
\U+2205393mm [\U+220515 1/2"]
 11
0.9767718978833666
 21
0.2142817292848974
 31
0.0
 73
     1
 44
1.0
  0
LINE
  5
88B
330
87C
100
AcDbEntity
  8
标注
 62
     0
370
    -2
100
AcDbLine
 10
360.9311098155493
 20
224.6012453850695
 30
0.0
 11
744.8024656837125
 21
308.813964994034
 31
0.0
  0
SOLID
  5
88C
330
87C
100
AcDbEntity
  8
标注
 62
     0
100
AcDbTrace
 10
348.7812835823792
 20
223.9834084294174
 30
0.0
 11
349.6384104995188
 21
220.076320837884
 31
0.0
 12
360.9311098155493
 22
224.6012453850695
 32
0.0
 13
360.9311098155493
 23
224.6012453850695
 33
0.0
  0
SOLID
  5
88D
330
87C
100
AcDbEntity
  8
标注
 62
     0
100
AcDbTrace
 10
756.0951649997432
 20
313.3388895412195
 30
0.0
 11
756.9522919168828
 21
309.431801949686
 31
0.0
 12
744.8024656837125
 22
308.813964994034
 32
0.0
 13
744.8024656837125
 23
308.813964994034
 33
0.0
  0
POINT
  5
88E
330
87C
100
AcDbEntity
  8
Defpoints
 62
     0
100
AcDbPoint
 10
744.8024656837125
 20
308.813964994034
 30
0.0
  0
POINT
  5
88F
330
87C
100
AcDbEntity
  8
Defpoints
 62
     0
100
AcDbPoint
 10
360.9311098155493
 20
224.6012453850695
 30
0.0
  0
ENDBLK
  5
886
330
87C
100
AcDbEntity
  8
0
100
AcDbBlockEnd
  0
BLOCK
  5
895
330
894
100
AcDbEntity
  8
0
100
AcDbBlockBegin
  2
*D76
 70
     1
 10
0.0
 20
0.0
 30
0.0
  3
*D76
  1

  0
LINE
  5
896
330
894
100
AcDbEntity
  8
标注
370
    -2
100
AcDbLine
 10
1359.386651086131
 20
520.5648851832664
 30
0.0
 11
1510.399029973287
 21
520.5648851832664
 31
0.0
  0
LINE
  5
897
330
894
100
AcDbEntity
  8
标注
370
    -2
100
AcDbLine
 10
1359.386651086131
 20
104.5648851832812
 30
0.0
 11
1510.399029973287
 21
104.5648851832811
 31
0.0
  0
LINE
  5
898
330
894
100
AcDbEntity
  8
标注
370
    -2
100
AcDbLine
 10
1503.399029973287
 20
504.5648851832665
 30
0.0
 11
1503.399029973287
 21
410.0648851832739
 31
0.0
  0
LINE
  5
899
330
894
100
AcDbEntity
  8
标注
370
    -2
100
AcDbLine
 10
1503.399029973287
 20
120.5648851832811
 30
0.0
 11
1503.399029973287
 21
215.0648851832739
 31
0.0
  0
SOLID
  5
89A
330
894
100
AcDbEntity
  8
标注
100
AcDbTrace
 10
1500.73236330662
 20
504.5648851832665
 30
0.0
 11
1506.065696639953
 21
504.5648851832665
 31
0.0
 12
1503.399029973287
 22
520.5648851832664
 32
0.0
 13
1503.399029973287
 23
520.5648851832664
 33
0.0
  0
SOLID
  5
89B
330
894
100
AcDbEntity
  8
标注
100
AcDbTrace
 10
1500.73236330662
 20
120.5648851832811
 30
0.0
 11
1506.065696639953
 21
120.5648851832811
 31
0.0
 12
1503.399029973287
 22
104.5648851832811
 32
0.0
 13
1503.399029973287
 23
104.5648851832811
 33
0.0
  0
MTEXT
  5
89C
330
894
100
AcDbEntity
  8
标注
100
AcDbMText
 10
1503.399029973287
 20
312.5648851832742
 30
0.0
 40
15.0
 41
0.0
 71
     5
 72
     1
  1
\A1;416mm [16 3/8"]
 11
0.0000000000000001
 21
1.0
 31
0.0
 73
     1
 44
1.0
  0
POINT
  5
89D
330
894
100
AcDbEntity
  8
Defpoints
 62
     0
100
AcDbPoint
 10
1327.386651086131
 20
520.5648851832664
 30
0.0
  0
POINT
  5
89E
330
894
100
AcDbEntity
  8
Defpoints
 62
     0
100
AcDbPoint
 10
1327.386651086131
 20
104.5648851832812
 30
0.0
  0
POINT
  5
89F
330
894
100
AcDbEntity
  8
Defpoints
 62
     0
100
AcDbPoint
 10
1503.399029973287
 20
104.5648851832811
 30
0.0
  0
ENDBLK
  5
8A0
330
894
100
AcDbEntity
  8
0
100
AcDbBlockEnd
  0
BLOCK
  5
8A2
330
8A1
100
AcDbEntity
  8
0
100
AcDbBlockBegin
  2
*D77
 70
     1
 10
0.0
 20
0.0
 30
0.0
  3
*D77
  1

  0
LINE
  5
8A3
330
8A1
100
AcDbEntity
  8
标注
370
    -2
100
AcDbLine
 10
712.3866510861311
 20
176.5648851832665
 30
0.0
 11
712.3866510861311
 21
41.10516556401942
 31
0.0
  0
LINE
  5
8A4
330
8A1
100
AcDbEntity
  8
标注
370
    -2
100
AcDbLine
 10
1431.386651086131
 20
176.5648851832811
 30
0.0
 11
1431.386651086131
 21
41.10516556401942
 31
0.0
  0
LINE
  5
8A5
330
8A1
100
AcDbEntity
  8
标注
370
    -2
100
AcDbLine
 10
728.3866510861313
 20
48.10516556401944
 30
0.0
 11
974.3866510861312
 21
48.10516556401944
 31
0.0
  0
LINE
  5
8A6
330
8A1
100
AcDbEntity
  8
标注
370
    -2
100
AcDbLine
 10
1415.386651086131
 20
48.10516556401944
 30
0.0
 11
1169.386651086131
 21
48.10516556401944
 31
0.0
  0
SOLID
  5
8A7
330
8A1
100
AcDbEntity
  8
标注
100
AcDbTrace
 10
728.3866510861313
 20
50.77183223068611
 30
0.0
 11
728.3866510861313
 21
45.43849889735278
 31
0.0
 12
712.3866510861311
 22
48.10516556401944
 32
0.0
 13
712.3866510861311
 23
48.10516556401944
 33
0.0
  0
SOLID
  5
8A8
330
8A1
100
AcDbEntity
  8
标注
100
AcDbTrace
 10
1415.386651086131
 20
50.77183223068611
 30
0.0
 11
1415.386651086131
 21
45.43849889735278
 31
0.0
 12
1431.386651086131
 22
48.10516556401944
 32
0.0
 13
1431.386651086131
 23
48.10516556401944
 33
0.0
  0
MTEXT
  5
8A9
330
8A1
100
AcDbEntity
  8
标注
100
AcDbMText
 10
1071.886651086131
 20
48.10516556401944
 30
0.0
 40
15.0
 41
0.0
 71
     5
 72
     1
  1
\A1;719mm [28 1/4"]
 73
     1
 44
1.0
  0
POINT
  5
8AA
330
8A1
100
AcDbEntity
  8
Defpoints
 62
     0
100
AcDbPoint
 10
712.3866510861311
 20
208.5648851832666
 30
0.0
  0
POINT
  5
8AB
330
8A1
100
AcDbEntity
  8
Defpoints
 62
     0
100
AcDbPoint
 10
1431.386651086131
 20
208.5648851832812
 30
0.0
  0
POINT
  5
8AC
330
8A1
100
AcDbEntity
  8
Defpoints
 62
     0
100
AcDbPoint
 10
1431.386651086131
 20
48.10516556401944
 30
0.0
  0
ENDBLK
  5
8AD
330
8A1
100
AcDbEntity
  8
0
100
AcDbBlockEnd
  0
BLOCK
  5
8AF
330
8AE
100
AcDbEntity
  8
0
100
AcDbBlockBegin
  2
*D78
 70
     1
 10
0.0
 20
0.0
 30
0.0
  3
*D78
  1

  0
LINE
  5
8B0
330
8AE
100
AcDbEntity
  8
标注
370
    -2
100
AcDbLine
 10
765.0811324267877
 20
467.0796726726469
 30
0.0
 11
753.6799060580444
 21
478.305181003617
 31
0.0
  0
MTEXT
  5
8B1
330
8AE
100
AcDbEntity
  8
标注
100
AcDbMText
 10
839.0109596616055
 20
394.2892670890125
 30
0.0
 40
15.0
 41
0.0
 71
     5
 72
     1
  1
\A1;R104mm [R4 1/8"]
 11
0.7125766480464363
 21
-0.7015942706856332
 31
0.0
 73
     1
 44
1.0
  0
SOLID
  5
8B2
330
8AE
100
AcDbEntity
  8
标注
100
AcDbTrace
 10
755.5508241132062
 20
480.2053853984075
 30
0.0
 11
751.8089880028829
 21
476.4049766088265
 31
0.0
 12
742.2786796893015
 22
489.5306893345871
 32
0.0
 13
742.2786796893015
 23
489.5306893345871
 33
0.0
  0
POINT
  5
8B3
330
8AE
100
AcDbEntity
  8
Defpoints
 62
     0
100
AcDbPoint
 10
742.2786796893015
 20
489.5306893345871
 30
0.0
  0
POINT
  5
8B4
330
8AE
100
AcDbEntity
  8
Defpoints
 62
     0
100
AcDbPoint
 10
816.3866510861312
 20
416.5648851832811
 30
0.0
  0
ENDBLK
  5
8B5
330
8AE
100
AcDbEntity
  8
0
100
AcDbBlockEnd
  0
BLOCK
  5
8E2
330
8DC
100
AcDbEntity
  8
0
100
AcDbBlockBegin
  2
*D79
 70
     1
 10
0.0
 20
0.0
 30
0.0
  3
*D79
  1

  0
LINE
  5
95E
330
8DC
100
AcDbEntity
  8
标注
 62
     0
370
    -2
100
AcDbLine
 10
296.1401218249983
 20
476.1285700365585
 30
0.0
 11
286.1002385344176
 21
482.7012972872142
 31
0.0
  0
MTEXT
  5
95F
330
8DC
100
AcDbEntity
  8
标注
 62
     0
100
AcDbMText
 10
358.1921782737272
 20
435.5054641123651
 30
0.0
 40
10.0
 41
0.0
 71
     5
 72
     1
  1
R104mm [R4 1/8"]
 11
0.8366569408817351
 21
-0.5477272708880001
 31
0.0
 73
     1
 44
1.0
  0
SOLID
  5
960
330
8DC
100
AcDbEntity
  8
标注
 62
     0
100
AcDbTrace
 10
287.1956930761936
 20
484.3746111689778
 30
0.0
 11
285.0047839926416
 21
481.027983405451
 31
0.0
 12
276.0603552438368
 22
489.2740245378703
 32
0.0
 13
276.0603552438368
 23
489.2740245378703
 33
0.0
  0
POINT
  5
961
330
8DC
100
AcDbEntity
  8
Defpoints
 62
     0
100
AcDbPoint
 10
276.0603552438368
 20
489.2740245378703
 30
0.0
  0
POINT
  5
962
330
8DC
100
AcDbEntity
  8
Defpoints
 62
     0
100
AcDbPoint
 10
363.0726770955375
 20
432.3103883655183
 30
0.0
  0
ENDBLK
  5
8E3
330
8DC
100
AcDbEntity
  8
0
100
AcDbBlockEnd
  0
BLOCK
  5
8EF
330
8E4
100
AcDbEntity
  8
0
100
AcDbBlockBegin
  2
*D80
 70
     1
 10
0.0
 20
0.0
 30
0.0
  3
*D80
  1

  0
LINE
  5
949
330
8E4
100
AcDbEntity
  8
标注
 62
     0
370
    -2
100
AcDbLine
 10
259.0726770955374
 20
204.310388365504
 30
0.0
 11
259.0726770955374
 21
62.60066874625682
 31
0.0
  0
LINE
  5
94A
330
8E4
100
AcDbEntity
  8
标注
 62
     0
370
    -2
100
AcDbLine
 10
978.0726770955373
 20
204.3103883655185
 30
0.0
 11
978.0726770955373
 21
62.60066874625682
 31
0.0
  0
LINE
  5
94B
330
8E4
100
AcDbEntity
  8
标注
 62
     0
370
    -2
100
AcDbLine
 10
271.0726770955374
 20
63.85066874625682
 30
0.0
 11
548.5726770955372
 21
63.85066874625682
 31
0.0
  0
LINE
  5
94C
330
8E4
100
AcDbEntity
  8
标注
 62
     0
370
    -2
100
AcDbLine
 10
966.0726770955372
 20
63.85066874625682
 30
0.0
 11
688.5726770955373
 21
63.85066874625682
 31
0.0
  0
SOLID
  5
94D
330
8E4
100
AcDbEntity
  8
标注
 62
     0
100
AcDbTrace
 10
271.0726770955374
 20
65.85066874625681
 30
0.0
 11
271.0726770955374
 21
61.85066874625682
 31
0.0
 12
259.0726770955374
 22
63.85066874625682
 32
0.0
 13
259.0726770955374
 23
63.85066874625682
 33
0.0
  0
SOLID
  5
94E
330
8E4
100
AcDbEntity
  8
标注
 62
     0
100
AcDbTrace
 10
966.0726770955372
 20
65.85066874625681
 30
0.0
 11
966.0726770955372
 21
61.85066874625682
 31
0.0
 12
978.0726770955373
 22
63.85066874625682
 32
0.0
 13
978.0726770955373
 23
63.85066874625682
 33
0.0
  0
MTEXT
  5
94F
330
8E4
100
AcDbEntity
  8
标注
 62
     0
100
AcDbMText
 10
618.5726770955373
 20
63.85066874625682
 30
0.0
 40
10.0
 41
0.0
 71
     5
 72
     1
  1
719mm [28 1/4"]
 73
     1
 44
1.0
  0
POINT
  5
950
330
8E4
100
AcDbEntity
  8
Defpoints
 62
     0
100
AcDbPoint
 10
259.0726770955374
 20
224.310388365504
 30
0.0
  0
POINT
  5
951
330
8E4
100
AcDbEntity
  8
Defpoints
 62
     0
100
AcDbPoint
 10
978.0726770955373
 20
224.3103883655185
 30
0.0
  0
POINT
  5
952
330
8E4
100
AcDbEntity
  8
Defpoints
 62
     0
100
AcDbPoint
 10
978.0726770955373
 20
63.85066874625682
 30
0.0
  0
ENDBLK
  5
8F0
330
8E4
100
AcDbEntity
  8
0
100
AcDbBlockEnd
  0
BLOCK
  5
8FC
330
8F1
100
AcDbEntity
  8
0
100
AcDbBlockBegin
  2
*D81
 70
     1
 10
0.0
 20
0.0
 30
0.0
  3
*D81
  1

  0
LINE
  5
93F
330
8F1
100
AcDbEntity
  8
标注
 62
     0
370
    -2
100
AcDbLine
 10
894.0726770955373
 20
536.3103883655038
 30
0.0
 11
1051.335055982693
 21
536.3103883655038
 31
0.0
  0
LINE
  5
940
330
8F1
100
AcDbEntity
  8
标注
 62
     0
370
    -2
100
AcDbLine
 10
894.0726770955373
 20
120.3103883655187
 30
0.0
 11
1051.335055982693
 21
120.3103883655186
 31
0.0
  0
LINE
  5
941
330
8F1
100
AcDbEntity
  8
标注
 62
     0
370
    -2
100
AcDbLine
 10
1050.085055982693
 20
524.3103883655038
 30
0.0
 11
1050.085055982693
 21
398.3103883655116
 31
0.0
  0
LINE
  5
942
330
8F1
100
AcDbEntity
  8
标注
 62
     0
370
    -2
100
AcDbLine
 10
1050.085055982693
 20
132.3103883655186
 30
0.0
 11
1050.085055982693
 21
258.3103883655115
 31
0.0
  0
SOLID
  5
943
330
8F1
100
AcDbEntity
  8
标注
 62
     0
100
AcDbTrace
 10
1048.085055982693
 20
524.3103883655038
 30
0.0
 11
1052.085055982693
 21
524.3103883655038
 31
0.0
 12
1050.085055982693
 22
536.3103883655038
 32
0.0
 13
1050.085055982693
 23
536.3103883655038
 33
0.0
  0
SOLID
  5
944
330
8F1
100
AcDbEntity
  8
标注
 62
     0
100
AcDbTrace
 10
1048.085055982693
 20
132.3103883655186
 30
0.0
 11
1052.085055982693
 21
132.3103883655186
 31
0.0
 12
1050.085055982693
 22
120.3103883655186
 32
0.0
 13
1050.085055982693
 23
120.3103883655186
 33
0.0
  0
MTEXT
  5
945
330
8F1
100
AcDbEntity
  8
标注
 62
     0
100
AcDbMText
 10
1050.085055982693
 20
328.3103883655117
 30
0.0
 40
10.0
 41
0.0
 71
     5
 72
     1
  1
416mm [16 3/8"]
 11
0.0000000000000001
 21
1.0
 31
0.0
 73
     1
 44
1.0
  0
POINT
  5
946
330
8F1
100
AcDbEntity
  8
Defpoints
 62
     0
100
AcDbPoint
 10
874.0726770955372
 20
536.3103883655038
 30
0.0
  0
POINT
  5
947
330
8F1
100
AcDbEntity
  8
Defpoints
 62
     0
100
AcDbPoint
 10
874.0726770955372
 20
120.3103883655187
 30
0.0
  0
POINT
  5
948
330
8F1
100
AcDbEntity
  8
Defpoints
 62
     0
100
AcDbPoint
 10
1050.085055982693
 20
120.3103883655186
 30
0.0
  0
ENDBLK
  5
8FD
330
8F1
100
AcDbEntity
  8
0
100
AcDbBlockEnd
  0
BLOCK
  5
966
330
965
100
AcDbEntity
  8
0
 48
5.0
100
AcDbBlockBegin
  2
*D82
 70
     1
 10
0.0
 20
0.0
 30
0.0
  3
*D82
  1

  0
LINE
  5
967
330
965
100
AcDbEntity
  8
标注
 48
5.0
370
    -2
100
AcDbLine
 10
25818.20045489622
 20
-109895.2553183897
 30
0.0
 11
25833.20045489622
 21
-109895.2553183897
 31
0.0
  0
LINE
  5
968
330
965
100
AcDbEntity
  8
标注
 48
5.0
370
    -2
100
AcDbLine
 10
25818.20045489622
 20
-110301.2553183897
 30
0.0
 11
25833.20045489622
 21
-110301.2553183897
 31
0.0
  0
LINE
  5
969
330
965
100
AcDbEntity
  8
标注
 48
5.0
370
    -2
100
AcDbLine
 10
25838.20045489622
 20
-109910.2553183897
 30
0.0
 11
25838.20045489622
 21
-110172.9615509608
 31
0.0
  0
LINE
  5
96A
330
965
100
AcDbEntity
  8
标注
 48
5.0
370
    -2
100
AcDbLine
 10
25838.20045489622
 20
-110286.2553183897
 30
0.0
 11
25838.20045489622
 21
-110213.1282176274
 31
0.0
  0
SOLID
  5
96B
330
965
100
AcDbEntity
  8
标注
 48
5.0
100
AcDbTrace
 10
25835.70045489622
 20
-109910.2553183897
 30
0.0
 11
25840.70045489622
 21
-109910.2553183897
 31
0.0
 12
25838.20045489622
 22
-109895.2553183897
 32
0.0
 13
25838.20045489622
 23
-109895.2553183897
 33
0.0
  0
SOLID
  5
96C
330
965
100
AcDbEntity
  8
标注
 48
5.0
100
AcDbTrace
 10
25835.70045489622
 20
-110286.2553183897
 30
0.0
 11
25840.70045489622
 21
-110286.2553183897
 31
0.0
 12
25838.20045489622
 22
-110301.2553183897
 32
0.0
 13
25838.20045489622
 23
-110301.2553183897
 33
0.0
  0
MTEXT
  5
96D
330
965
100
AcDbEntity
  8
标注
 48
5.0
100
AcDbMText
 10
25838.20045489624
 20
-110193.0448842941
 30
0.0
 40
15.0
 41
0.0
 71
     5
 72
     1
  1
\A1;406
 11
0.0000000000000001
 21
1.0
 31
0.0
 73
     1
 44
1.0
  0
POINT
  5
96E
330
965
100
AcDbEntity
  8
Defpoints
 62
     0
 48
5.0
100
AcDbPoint
 10
25838.20045489622
 20
-109895.2553183897
 30
0.0
  0
POINT
  5
96F
330
965
100
AcDbEntity
  8
Defpoints
 62
     0
 48
5.0
100
AcDbPoint
 10
25838.20045489622
 20
-110301.2553183897
 30
0.0
  0
POINT
  5
970
330
965
100
AcDbEntity
  8
Defpoints
 62
     0
 48
5.0
100
AcDbPoint
 10
25838.20045489622
 20
-110301.2553183897
 30
0.0
  0
ENDBLK
  5
971
330
965
100
AcDbEntity
  8
0
 48
5.0
100
AcDbBlockEnd
  0
BLOCK
  5
973
330
972
100
AcDbEntity
  8
0
 48
5.0
100
AcDbBlockBegin
  2
*D83
 70
     1
 10
0.0
 20
0.0
 30
0.0
  3
*D83
  1

  0
LINE
  5
974
330
972
100
AcDbEntity
  8
标注
 48
5.0
370
    -2
100
AcDbLine
 10
25971.20045489622
 20
-110078.2553183897
 30
0.0
 11
25971.20045489622
 21
-110093.2553183897
 31
0.0
  0
LINE
  5
975
330
972
100
AcDbEntity
  8
标注
 48
5.0
370
    -2
100
AcDbLine
 10
25705.20045489622
 20
-110078.2553183897
 30
0.0
 11
25705.20045489622
 21
-110093.2553183897
 31
0.0
  0
LINE
  5
976
330
972
100
AcDbEntity
  8
标注
 48
5.0
370
    -2
100
AcDbLine
 10
25956.20045489622
 20
-110098.2553183897
 30
0.0
 11
25897.91391282358
 21
-110098.2553183897
 31
0.0
  0
LINE
  5
977
330
972
100
AcDbEntity
  8
标注
 48
5.0
370
    -2
100
AcDbLine
 10
25720.20045489622
 20
-110098.2553183897
 30
0.0
 11
25858.08057949024
 21
-110098.2553183897
 31
0.0
  0
SOLID
  5
978
330
972
100
AcDbEntity
  8
标注
 48
5.0
100
AcDbTrace
 10
25956.20045489622
 20
-110095.7553183897
 30
0.0
 11
25956.20045489622
 21
-110100.7553183897
 31
0.0
 12
25971.20045489622
 22
-110098.2553183897
 32
0.0
 13
25971.20045489622
 23
-110098.2553183897
 33
0.0
  0
SOLID
  5
979
330
972
100
AcDbEntity
  8
标注
 48
5.0
100
AcDbTrace
 10
25720.20045489622
 20
-110095.7553183897
 30
0.0
 11
25720.20045489622
 21
-110100.7553183897
 31
0.0
 12
25705.20045489622
 22
-110098.2553183897
 32
0.0
 13
25705.20045489622
 23
-110098.2553183897
 33
0.0
  0
MTEXT
  5
97A
330
972
100
AcDbEntity
  8
标注
 48
5.0
100
AcDbMText
 10
25877.99724615691
 20
-110098.2553183897
 30
0.0
 40
15.0
 41
0.0
 71
     5
 72
     1
  1
\A1;266
 73
     1
 44
1.0
  0
POINT
  5
97B
330
972
100
AcDbEntity
  8
Defpoints
 62
     0
 48
5.0
100
AcDbPoint
 10
25971.20045489622
 20
-110098.2553183897
 30
0.0
  0
POINT
  5
97C
330
972
100
AcDbEntity
  8
Defpoints
 62
     0
 48
5.0
100
AcDbPoint
 10
25705.20045489622
 20
-110098.2553183897
 30
0.0
  0
POINT
  5
97D
330
972
100
AcDbEntity
  8
Defpoints
 62
     0
 48
5.0
100
AcDbPoint
 10
25705.20045489622
 20
-110098.2553183897
 30
0.0
  0
ENDBLK
  5
97E
330
972
100
AcDbEntity
  8
0
 48
5.0
100
AcDbBlockEnd
  0
BLOCK
  5
980
330
97F
100
AcDbEntity
  8
0
 48
5.0
100
AcDbBlockBegin
  2
*D84
 70
     1
 10
0.0
 20
0.0
 30
0.0
  3
*D84
  1

  0
LINE
  5
981
330
97F
100
AcDbEntity
  8
标注
 48
5.0
370
    -2
100
AcDbLine
 10
25735.78174331746
 20
-110049.2023249267
 30
0.0
 11
25720.7859555524
 21
-110048.8468684523
 31
0.0
  0
MTEXT
  5
982
330
97F
100
AcDbEntity
  8
标注
 48
5.0
100
AcDbMText
 10
25766.56476320185
 20
-110049.9319980783
 30
0.0
 40
15.0
 41
0.0
 71
     5
 72
     1
  1
\A1;R2100
 11
0.9997191843375688
 21
-0.0236970982912768
 31
0.0
 73
     1
 44
1.0
  0
SOLID
  5
983
330
97F
100
AcDbEntity
  8
标注
 48
5.0
100
AcDbTrace
 10
25720.84519829812
 20
-110046.3475704915
 30
0.0
 11
25720.72671280666
 21
-110051.3461664132
 31
0.0
 12
25705.79016778733
 22
-110048.491411978
 32
0.0
 13
25705.79016778733
 23
-110048.491411978
 33
0.0
  0
POINT
  5
984
330
97F
100
AcDbEntity
  8
Defpoints
 62
     0
 48
5.0
100
AcDbPoint
 10
25705.79016778733
 20
-110048.491411978
 30
0.0
  0
POINT
  5
985
330
97F
100
AcDbEntity
  8
Defpoints
 62
     0
 48
5.0
100
AcDbPoint
 10
27805.20045489622
 20
-110098.2553183897
 30
0.0
  0
ENDBLK
  5
986
330
97F
100
AcDbEntity
  8
0
 48
5.0
100
AcDbBlockEnd
  0
BLOCK
  5
988
330
987
100
AcDbEntity
  8
0
 48
5.0
100
AcDbBlockBegin
  2
*D85
 70
     1
 10
0.0
 20
0.0
 30
0.0
  3
*D85
  1

  0
LINE
  5
989
330
987
100
AcDbEntity
  8
标注
 48
5.0
370
    -2
100
AcDbLine
 10
25821.36245674009
 20
-109925.418275135
 30
0.0
 11
25821.07214642705
 21
-109910.4210847341
 31
0.0
  0
MTEXT
  5
98A
330
987
100
AcDbEntity
  8
标注
 48
5.0
100
AcDbMText
 10
25821.85517785472
 20
-109950.8718399544
 30
0.0
 40
15.0
 41
0.0
 71
     5
 72
     1
  1
\A1;R900
 11
0.0193540208691045
 21
-0.9998126933962174
 31
0.0
 73
     1
 44
1.0
  0
SOLID
  5
98B
330
987
100
AcDbEntity
  8
标注
 48
5.0
100
AcDbTrace
 10
25823.57167816054
 20
-109910.3726996819
 30
0.0
 11
25818.57261469356
 21
-109910.4694697862
 31
0.0
 12
25820.78183611402
 22
-109895.4238943331
 32
0.0
 13
25820.78183611402
 23
-109895.4238943331
 33
0.0
  0
POINT
  5
98C
330
987
100
AcDbEntity
  8
Defpoints
 62
     0
 48
5.0
100
AcDbPoint
 10
25820.78183611402
 20
-109895.4238943331
 30
0.0
  0
POINT
  5
98D
330
987
100
AcDbEntity
  8
Defpoints
 62
     0
 48
5.0
100
AcDbPoint
 10
25838.20045489621
 20
-110795.2553183897
 30
0.0
  0
ENDBLK
  5
98E
330
987
100
AcDbEntity
  8
0
 48
5.0
100
AcDbBlockEnd
  0
BLOCK
  5
990
330
98F
100
AcDbEntity
  8
0
 48
5.0
100
AcDbBlockBegin
  2
*D86
 70
     1
 10
0.0
 20
0.0
 30
0.0
  3
*D86
  1

  0
LINE
  5
991
330
98F
100
AcDbEntity
  8
标注
 48
5.0
370
    -2
100
AcDbLine
 10
25749.92919981668
 20
-109945.3644633951
 30
0.0
 11
25738.25036784187
 21
-109935.9514466786
 31
0.0
  0
MTEXT
  5
992
330
98F
100
AcDbEntity
  8
标注
 48
5.0
100
AcDbMText
 10
25773.87080536502
 20
-109964.6611476638
 30
0.0
 40
15.0
 41
0.0
 71
     5
 72
     1
  1
\A1;4-R80
 11
0.7785887983202392
 21
-0.6275344477638229
 31
0.0
 73
     1
 44
1.0
  0
SOLID
  5
993
330
98F
100
AcDbEntity
  8
标注
 48
5.0
100
AcDbTrace
 10
25739.81920396128
 20
-109934.0049746828
 30
0.0
 11
25736.68153172247
 21
-109937.8979186744
 31
0.0
 12
25726.57153586707
 22
-109926.5384299622
 32
0.0
 13
25726.57153586707
 23
-109926.5384299622
 33
0.0
  0
POINT
  5
994
330
98F
100
AcDbEntity
  8
Defpoints
 62
     0
 48
5.0
100
AcDbPoint
 10
25726.57153586707
 20
-109926.5384299622
 30
0.0
  0
POINT
  5
995
330
98F
100
AcDbEntity
  8
Defpoints
 62
     0
 48
5.0
100
AcDbPoint
 10
25788.85863973272
 20
-109976.7411857833
 30
0.0
  0
ENDBLK
  5
996
330
98F
100
AcDbEntity
  8
0
 48
5.0
100
AcDbBlockEnd
  0
BLOCK
  5
998
330
997
100
AcDbEntity
  8
0
 48
5.0
100
AcDbBlockBegin
  2
*D87
 70
     1
 10
0.0
 20
0.0
 30
0.0
  3
*D87
  1

  0
LINE
  5
999
330
997
100
AcDbEntity
  8
标注
 48
5.0
370
    -2
100
AcDbLine
 10
25975.20045489622
 20
-110118.2553183897
 30
0.0
 11
25975.20045489622
 21
-110385.356701189
 31
0.0
  0
LINE
  5
99A
330
997
100
AcDbEntity
  8
标注
 48
5.0
370
    -2
100
AcDbLine
 10
25701.20045489622
 20
-110118.2553183897
 30
0.0
 11
25701.20045489622
 21
-110385.356701189
 31
0.0
  0
LINE
  5
99B
330
997
100
AcDbEntity
  8
标注
 48
5.0
370
    -2
100
AcDbLine
 10
25960.20045489622
 20
-110380.356701189
 30
0.0
 11
25858.28378822955
 21
-110380.356701189
 31
0.0
  0
LINE
  5
99C
330
997
100
AcDbEntity
  8
标注
 48
5.0
370
    -2
100
AcDbLine
 10
25716.20045489622
 20
-110380.356701189
 30
0.0
 11
25818.11712156289
 21
-110380.356701189
 31
0.0
  0
SOLID
  5
99D
330
997
100
AcDbEntity
  8
标注
 48
5.0
100
AcDbTrace
 10
25960.20045489622
 20
-110377.856701189
 30
0.0
 11
25960.20045489622
 21
-110382.856701189
 31
0.0
 12
25975.20045489622
 22
-110380.356701189
 32
0.0
 13
25975.20045489622
 23
-110380.356701189
 33
0.0
  0
SOLID
  5
99E
330
997
100
AcDbEntity
  8
标注
 48
5.0
100
AcDbTrace
 10
25716.20045489622
 20
-110377.856701189
 30
0.0
 11
25716.20045489622
 21
-110382.856701189
 31
0.0
 12
25701.20045489622
 22
-110380.356701189
 32
0.0
 13
25701.20045489622
 23
-110380.356701189
 33
0.0
  0
MTEXT
  5
99F
330
997
100
AcDbEntity
  8
标注
 48
5.0
100
AcDbMText
 10
25838.20045489622
 20
-110380.356701189
 30
0.0
 40
15.0
 41
0.0
 71
     5
 72
     1
  1
\A1;274
 73
     1
 44
1.0
  0
POINT
  5
9A0
330
997
100
AcDbEntity
  8
Defpoints
 62
     0
 48
5.0
100
AcDbPoint
 10
25975.20045489622
 20
-110098.2553183897
 30
0.0
  0
POINT
  5
9A1
330
997
100
AcDbEntity
  8
Defpoints
 62
     0
 48
5.0
100
AcDbPoint
 10
25701.20045489622
 20
-110098.2553183897
 30
0.0
  0
POINT
  5
9A2
330
997
100
AcDbEntity
  8
Defpoints
 62
     0
 48
5.0
100
AcDbPoint
 10
25701.20045489622
 20
-110380.356701189
 30
0.0
  0
ENDBLK
  5
9A3
330
997
100
AcDbEntity
  8
0
 48
5.0
100
AcDbBlockEnd
  0
BLOCK
  5
9A5
330
9A4
100
AcDbEntity
  8
0
 48
5.0
100
AcDbBlockBegin
  2
*D88
 70
     1
 10
0.0
 20
0.0
 30
0.0
  3
*D88
  1

  0
LINE
  5
9A6
330
9A4
100
AcDbEntity
  8
标注
 48
5.0
370
    -2
100
AcDbLine
 10
25858.20045489622
 20
-109891.2553183897
 30
0.0
 11
26029.48479337504
 21
-109891.2553183897
 31
0.0
  0
LINE
  5
9A7
330
9A4
100
AcDbEntity
  8
标注
 48
5.0
370
    -2
100
AcDbLine
 10
25858.20045489622
 20
-110305.2553183897
 30
0.0
 11
26029.48479337504
 21
-110305.2553183897
 31
0.0
  0
LINE
  5
9A8
330
9A4
100
AcDbEntity
  8
标注
 48
5.0
370
    -2
100
AcDbLine
 10
26024.48479337504
 20
-109906.2553183897
 30
0.0
 11
26024.48479337504
 21
-110078.0053183897
 31
0.0
  0
LINE
  5
9A9
330
9A4
100
AcDbEntity
  8
标注
 48
5.0
370
    -2
100
AcDbLine
 10
26024.48479337504
 20
-110290.2553183897
 30
0.0
 11
26024.48479337504
 21
-110118.5053183897
 31
0.0
  0
SOLID
  5
9AA
330
9A4
100
AcDbEntity
  8
标注
 48
5.0
100
AcDbTrace
 10
26021.98479337504
 20
-109906.2553183897
 30
0.0
 11
26026.98479337504
 21
-109906.2553183897
 31
0.0
 12
26024.48479337504
 22
-109891.2553183897
 32
0.0
 13
26024.48479337504
 23
-109891.2553183897
 33
0.0
  0
SOLID
  5
9AB
330
9A4
100
AcDbEntity
  8
标注
 48
5.0
100
AcDbTrace
 10
26021.98479337504
 20
-110290.2553183897
 30
0.0
 11
26026.98479337504
 21
-110290.2553183897
 31
0.0
 12
26024.48479337504
 22
-110305.2553183897
 32
0.0
 13
26024.48479337504
 23
-110305.2553183897
 33
0.0
  0
MTEXT
  5
9AC
330
9A4
100
AcDbEntity
  8
标注
 48
5.0
100
AcDbMText
 10
26024.48479337506
 20
-110098.2553183897
 30
0.0
 40
15.0
 41
0.0
 71
     5
 72
     1
  1
\A1;414
 11
0.0000000000000001
 21
1.0
 31
0.0
 73
     1
 44
1.0
  0
POINT
  5
9AD
330
9A4
100
AcDbEntity
  8
Defpoints
 62
     0
 48
5.0
100
AcDbPoint
 10
25838.20045489622
 20
-109891.2553183897
 30
0.0
  0
POINT
  5
9AE
330
9A4
100
AcDbEntity
  8
Defpoints
 62
     0
 48
5.0
100
AcDbPoint
 10
25838.20045489622
 20
-110305.2553183897
 30
0.0
  0
POINT
  5
9AF
330
9A4
100
AcDbEntity
  8
Defpoints
 62
     0
 48
5.0
100
AcDbPoint
 10
26024.48479337504
 20
-110305.2553183897
 30
0.0
  0
ENDBLK
  5
9B0
330
9A4
100
AcDbEntity
  8
0
 48
5.0
100
AcDbBlockEnd
  0
BLOCK
  5
9B2
330
9B1
100
AcDbEntity
  8
0
 48
5.0
100
AcDbBlockBegin
  2
*D89
 70
     1
 10
0.0
 20
0.0
 30
0.0
  3
*D89
  1

  0
LINE
  5
9B3
330
9B1
100
AcDbEntity
  8
标注
 48
5.0
370
    -2
100
AcDbLine
 10
25818.20045489622
 20
-110301.2553183897
 30
0.0
 11
25833.20045489622
 21
-110301.2553183897
 31
0.0
  0
LINE
  5
9B4
330
9B1
100
AcDbEntity
  8
标注
 48
5.0
370
    -2
100
AcDbLine
 10
25818.20045489622
 20
-110305.2553183897
 30
0.0
 11
25833.20045489622
 21
-110305.2553183897
 31
0.0
  0
LINE
  5
9B5
330
9B1
100
AcDbEntity
  8
标注
 48
5.0
370
    -2
100
AcDbLine
 10
25838.20045489622
 20
-110286.2553183897
 30
0.0
 11
25838.20045489622
 21
-110271.2553183897
 31
0.0
  0
LINE
  5
9B6
330
9B1
100
AcDbEntity
  8
标注
 48
5.0
370
    -2
100
AcDbLine
 10
25838.20045489622
 20
-110320.2553183897
 30
0.0
 11
25838.20045489622
 21
-110335.2553183897
 31
0.0
  0
LINE
  5
9B7
330
9B1
100
AcDbEntity
  8
标注
 48
5.0
370
    -2
100
AcDbLine
 10
25838.20045489622
 20
-110301.2553183897
 30
0.0
 11
25838.20045489622
 21
-110305.2553183897
 31
0.0
  0
SOLID
  5
9B8
330
9B1
100
AcDbEntity
  8
标注
 48
5.0
100
AcDbTrace
 10
25835.70045489622
 20
-110286.2553183897
 30
0.0
 11
25840.70045489622
 21
-110286.2553183897
 31
0.0
 12
25838.20045489622
 22
-110301.2553183897
 32
0.0
 13
25838.20045489622
 23
-110301.2553183897
 33
0.0
  0
SOLID
  5
9B9
330
9B1
100
AcDbEntity
  8
标注
 48
5.0
100
AcDbTrace
 10
25835.70045489622
 20
-110320.2553183897
 30
0.0
 11
25840.70045489622
 21
-110320.2553183897
 31
0.0
 12
25838.20045489622
 22
-110305.2553183897
 32
0.0
 13
25838.20045489622
 23
-110305.2553183897
 33
0.0
  0
MTEXT
  5
9BA
330
9B1
100
AcDbEntity
  8
标注
 48
5.0
100
AcDbMText
 10
25838.20045489624
 20
-110344.838651723
 30
0.0
 40
15.0
 41
0.0
 71
     5
 72
     1
  1
\A1;4
 11
0.0000000000000001
 21
1.0
 31
0.0
 73
     1
 44
1.0
  0
POINT
  5
9BB
330
9B1
100
AcDbEntity
  8
Defpoints
 62
     0
 48
5.0
100
AcDbPoint
 10
25838.20045489622
 20
-110301.2553183897
 30
0.0
  0
POINT
  5
9BC
330
9B1
100
AcDbEntity
  8
Defpoints
 62
     0
 48
5.0
100
AcDbPoint
 10
25838.20045489622
 20
-110305.2553183897
 30
0.0
  0
POINT
  5
9BD
330
9B1
100
AcDbEntity
  8
Defpoints
 62
     0
 48
5.0
100
AcDbPoint
 10
25838.20045489622
 20
-110305.2553183897
 30
0.0
  0
ENDBLK
  5
9BE
330
9B1
100
AcDbEntity
  8
0
 48
5.0
100
AcDbBlockEnd
  0
BLOCK
  5
9C0
330
9BF
100
AcDbEntity
  8
0
 48
5.0
100
AcDbBlockBegin
  2
*D90
 70
     1
 10
0.0
 20
0.0
 30
0.0
  3
*D90
  1

  0
LINE
  5
9C1
330
9BF
100
AcDbEntity
  8
标注
 48
5.0
370
    -2
100
AcDbLine
 10
25705.20045489622
 20
-110078.2553183897
 30
0.0
 11
25705.20045489622
 21
-110093.2553183897
 31
0.0
  0
LINE
  5
9C2
330
9BF
100
AcDbEntity
  8
标注
 48
5.0
370
    -2
100
AcDbLine
 10
25701.20045489622
 20
-110078.2553183897
 30
0.0
 11
25701.20045489622
 21
-110093.2553183897
 31
0.0
  0
LINE
  5
9C3
330
9BF
100
AcDbEntity
  8
标注
 48
5.0
370
    -2
100
AcDbLine
 10
25720.20045489622
 20
-110098.2553183897
 30
0.0
 11
25735.20045489622
 21
-110098.2553183897
 31
0.0
  0
LINE
  5
9C4
330
9BF
100
AcDbEntity
  8
标注
 48
5.0
370
    -2
100
AcDbLine
 10
25686.20045489622
 20
-110098.2553183897
 30
0.0
 11
25671.20045489622
 21
-110098.2553183897
 31
0.0
  0
LINE
  5
9C5
330
9BF
100
AcDbEntity
  8
标注
 48
5.0
370
    -2
100
AcDbLine
 10
25705.20045489622
 20
-110098.2553183897
 30
0.0
 11
25701.20045489622
 21
-110098.2553183897
 31
0.0
  0
SOLID
  5
9C6
330
9BF
100
AcDbEntity
  8
标注
 48
5.0
100
AcDbTrace
 10
25720.20045489622
 20
-110095.7553183897
 30
0.0
 11
25720.20045489622
 21
-110100.7553183897
 31
0.0
 12
25705.20045489622
 22
-110098.2553183897
 32
0.0
 13
25705.20045489622
 23
-110098.2553183897
 33
0.0
  0
SOLID
  5
9C7
330
9BF
100
AcDbEntity
  8
标注
 48
5.0
100
AcDbTrace
 10
25686.20045489622
 20
-110095.7553183897
 30
0.0
 11
25686.20045489622
 21
-110100.7553183897
 31
0.0
 12
25701.20045489622
 22
-110098.2553183897
 32
0.0
 13
25701.20045489622
 23
-110098.2553183897
 33
0.0
  0
MTEXT
  5
9C8
330
9BF
100
AcDbEntity
  8
标注
 48
5.0
100
AcDbMText
 10
25661.61712156289
 20
-110098.2553183897
 30
0.0
 40
15.0
 41
0.0
 71
     5
 72
     1
  1
\A1;4
 73
     1
 44
1.0
  0
POINT
  5
9C9
330
9BF
100
AcDbEntity
  8
Defpoints
 62
     0
 48
5.0
100
AcDbPoint
 10
25705.20045489622
 20
-110098.2553183897
 30
0.0
  0
POINT
  5
9CA
330
9BF
100
AcDbEntity
  8
Defpoints
 62
     0
 48
5.0
100
AcDbPoint
 10
25701.20045489622
 20
-110098.2553183897
 30
0.0
  0
POINT
  5
9CB
330
9BF
100
AcDbEntity
  8
Defpoints
 62
     0
 48
5.0
100
AcDbPoint
 10
25701.20045489622
 20
-110098.2553183897
 30
0.0
  0
ENDBLK
  5
9CC
330
9BF
100
AcDbEntity
  8
0
 48
5.0
100
AcDbBlockEnd
  0
BLOCK
  5
A30
330
A24
100
AcDbEntity
  8
0
100
AcDbBlockBegin
  2
*D91
 70
     1
 10
0.0
 20
0.0
 30
0.0
  3
*D91
  1

  0
LINE
  5
A8C
330
A24
100
AcDbEntity
  8
标注
370
    -2
100
AcDbLine
 10
1522.926468173797
 20
321.1336443114792
 30
0.0
 11
1536.926468173797
 21
321.1336443114792
 31
0.0
  0
LINE
  5
A8D
330
A24
100
AcDbEntity
  8
标注
370
    -2
100
AcDbLine
 10
1522.926468173797
 20
317.1336443114792
 30
0.0
 11
1536.926468173797
 21
317.1336443114792
 31
0.0
  0
LINE
  5
A8E
330
A24
100
AcDbEntity
  8
标注
370
    -2
100
AcDbLine
 10
1544.926468173797
 20
337.1336443114792
 30
0.0
 11
1544.926468173797
 21
353.1336443114792
 31
0.0
  0
LINE
  5
A8F
330
A24
100
AcDbEntity
  8
标注
370
    -2
100
AcDbLine
 10
1544.926468173797
 20
301.1336443114792
 30
0.0
 11
1544.926468173797
 21
285.1336443114792
 31
0.0
  0
LINE
  5
A90
330
A24
100
AcDbEntity
  8
标注
370
    -2
100
AcDbLine
 10
1544.926468173797
 20
321.1336443114792
 30
0.0
 11
1544.926468173797
 21
317.1336443114792
 31
0.0
  0
SOLID
  5
A91
330
A24
100
AcDbEntity
  8
标注
100
AcDbTrace
 10
1542.259801507131
 20
337.1336443114792
 30
0.0
 11
1547.593134840464
 21
337.1336443114792
 31
0.0
 12
1544.926468173797
 22
321.1336443114792
 32
0.0
 13
1544.926468173797
 23
321.1336443114792
 33
0.0
  0
SOLID
  5
A92
330
A24
100
AcDbEntity
  8
标注
100
AcDbTrace
 10
1542.259801507131
 20
301.1336443114792
 30
0.0
 11
1547.593134840464
 21
301.1336443114792
 31
0.0
 12
1544.926468173797
 22
317.1336443114792
 32
0.0
 13
1544.926468173797
 23
317.1336443114792
 33
0.0
  0
MTEXT
  5
A93
330
A24
100
AcDbEntity
  8
标注
100
AcDbMText
 10
1544.926468173797
 20
274.8003109781461
 30
0.0
 40
16.0
 41
0.0
 71
     5
 72
     1
  1
\A1;4
 11
0.0000000000000001
 21
1.0
 31
0.0
 73
     1
 44
1.0
  0
POINT
  5
A94
330
A24
100
AcDbEntity
  8
Defpoints
 62
     0
100
AcDbPoint
 10
1544.926468173797
 20
321.1336443114792
 30
0.0
  0
POINT
  5
A95
330
A24
100
AcDbEntity
  8
Defpoints
 62
     0
100
AcDbPoint
 10
1544.926468173797
 20
317.1336443114792
 30
0.0
  0
POINT
  5
A96
330
A24
100
AcDbEntity
  8
Defpoints
 62
     0
100
AcDbPoint
 10
1544.926468173797
 20
317.1336443114792
 30
0.0
  0
ENDBLK
  5
A31
330
A24
100
AcDbEntity
  8
0
100
AcDbBlockEnd
  0
BLOCK
  5
A3E
330
A32
100
AcDbEntity
  8
0
100
AcDbBlockBegin
  2
*D92
 70
     1
 10
0.0
 20
0.0
 30
0.0
  3
*D92
  1

  0
LINE
  5
A97
330
A32
100
AcDbEntity
  8
标注
370
    -2
100
AcDbLine
 10
1411.926468173797
 20
546.1336443114792
 30
0.0
 11
1411.926468173797
 21
532.1336443114792
 31
0.0
  0
LINE
  5
A98
330
A32
100
AcDbEntity
  8
标注
370
    -2
100
AcDbLine
 10
1407.926468173798
 20
546.1336443114792
 30
0.0
 11
1407.926468173798
 21
532.1336443114792
 31
0.0
  0
LINE
  5
A99
330
A32
100
AcDbEntity
  8
标注
370
    -2
100
AcDbLine
 10
1427.926468173797
 20
524.1336443114792
 30
0.0
 11
1443.926468173797
 21
524.1336443114792
 31
0.0
  0
LINE
  5
A9A
330
A32
100
AcDbEntity
  8
标注
370
    -2
100
AcDbLine
 10
1391.926468173798
 20
524.1336443114792
 30
0.0
 11
1375.926468173798
 21
524.1336443114792
 31
0.0
  0
LINE
  5
A9B
330
A32
100
AcDbEntity
  8
标注
370
    -2
100
AcDbLine
 10
1411.926468173797
 20
524.1336443114792
 30
0.0
 11
1407.926468173798
 21
524.1336443114792
 31
0.0
  0
SOLID
  5
A9C
330
A32
100
AcDbEntity
  8
标注
100
AcDbTrace
 10
1427.926468173797
 20
526.8003109781458
 30
0.0
 11
1427.926468173797
 21
521.4669776448126
 31
0.0
 12
1411.926468173797
 22
524.1336443114792
 32
0.0
 13
1411.926468173797
 23
524.1336443114792
 33
0.0
  0
SOLID
  5
A9D
330
A32
100
AcDbEntity
  8
标注
100
AcDbTrace
 10
1391.926468173798
 20
526.8003109781458
 30
0.0
 11
1391.926468173798
 21
521.4669776448126
 31
0.0
 12
1407.926468173798
 22
524.1336443114792
 32
0.0
 13
1407.926468173798
 23
524.1336443114792
 33
0.0
  0
MTEXT
  5
A9E
330
A32
100
AcDbEntity
  8
标注
100
AcDbMText
 10
1365.593134840464
 20
524.1336443114792
 30
0.0
 40
16.0
 41
0.0
 71
     5
 72
     1
  1
\A1;4
 73
     1
 44
1.0
  0
POINT
  5
A9F
330
A32
100
AcDbEntity
  8
Defpoints
 62
     0
100
AcDbPoint
 10
1411.926468173797
 20
524.1336443114792
 30
0.0
  0
POINT
  5
AA0
330
A32
100
AcDbEntity
  8
Defpoints
 62
     0
100
AcDbPoint
 10
1407.926468173798
 20
524.1336443114792
 30
0.0
  0
POINT
  5
AA1
330
A32
100
AcDbEntity
  8
Defpoints
 62
     0
100
AcDbPoint
 10
1407.926468173798
 20
524.1336443114792
 30
0.0
  0
ENDBLK
  5
A3F
330
A32
100
AcDbEntity
  8
0
100
AcDbBlockEnd
  0
BLOCK
  5
A4B
330
A40
100
AcDbEntity
  8
0
100
AcDbBlockBegin
  2
*D93
 70
     1
 10
0.0
 20
0.0
 30
0.0
  3
*D93
  1

  0
LINE
  5
A41
330
A40
100
AcDbEntity
  8
标注
370
    -2
100
AcDbLine
 10
1566.926468173798
 20
727.1336443114791
 30
0.0
 11
1552.926468173816
 21
727.1336443114791
 31
0.0
  0
LINE
  5
A42
330
A40
100
AcDbEntity
  8
标注
370
    -2
100
AcDbLine
 10
1566.926468173798
 20
321.1336443114792
 30
0.0
 11
1552.926468173816
 21
321.1336443114792
 31
0.0
  0
LINE
  5
A43
330
A40
100
AcDbEntity
  8
标注
370
    -2
100
AcDbLine
 10
1544.926468173816
 20
711.1336443114792
 30
0.0
 11
1544.926468173816
 21
454.3440784070781
 31
0.0
  0
LINE
  5
A44
330
A40
100
AcDbEntity
  8
标注
370
    -2
100
AcDbLine
 10
1544.926468173816
 20
337.1336443114792
 30
0.0
 11
1544.926468173816
 21
404.3440784070781
 31
0.0
  0
SOLID
  5
A45
330
A40
100
AcDbEntity
  8
标注
100
AcDbTrace
 10
1542.259801507149
 20
711.1336443114792
 30
0.0
 11
1547.593134840483
 21
711.1336443114792
 31
0.0
 12
1544.926468173816
 22
727.1336443114791
 32
0.0
 13
1544.926468173816
 23
727.1336443114791
 33
0.0
  0
SOLID
  5
A46
330
A40
100
AcDbEntity
  8
标注
100
AcDbTrace
 10
1542.259801507149
 20
337.1336443114792
 30
0.0
 11
1547.593134840482
 21
337.1336443114792
 31
0.0
 12
1544.926468173816
 22
321.1336443114792
 32
0.0
 13
1544.926468173816
 23
321.1336443114792
 33
0.0
  0
MTEXT
  5
A47
330
A40
100
AcDbEntity
  8
标注
100
AcDbMText
 10
1544.926468173816
 20
429.3440784070784
 30
0.0
 40
16.0
 41
0.0
 71
     5
 72
     1
  1
\A1;406
 11
0.0000000000000001
 21
1.0
 31
0.0
 73
     1
 44
1.0
  0
POINT
  5
A48
330
A40
100
AcDbEntity
  8
Defpoints
 62
     0
100
AcDbPoint
 10
1544.926468173797
 20
727.1336443114791
 30
0.0
  0
POINT
  5
A49
330
A40
100
AcDbEntity
  8
Defpoints
 62
     0
100
AcDbPoint
 10
1544.926468173797
 20
321.1336443114792
 30
0.0
  0
POINT
  5
A4A
330
A40
100
AcDbEntity
  8
Defpoints
 62
     0
100
AcDbPoint
 10
1544.926468173816
 20
321.1336443114792
 30
0.0
  0
ENDBLK
  5
A4C
330
A40
100
AcDbEntity
  8
0
100
AcDbBlockEnd
  0
BLOCK
  5
A58
330
A4D
100
AcDbEntity
  8
0
100
AcDbBlockBegin
  2
*D94
 70
     1
 10
0.0
 20
0.0
 30
0.0
  3
*D94
  1

  0
LINE
  5
A4E
330
A4D
100
AcDbEntity
  8
标注
370
    -2
100
AcDbLine
 10
1677.926468173797
 20
546.1336443114792
 30
0.0
 11
1677.926468173797
 21
532.1336443114792
 31
0.0
  0
LINE
  5
A4F
330
A4D
100
AcDbEntity
  8
标注
370
    -2
100
AcDbLine
 10
1411.926468173797
 20
546.1336443114792
 30
0.0
 11
1411.926468173797
 21
532.1336443114792
 31
0.0
  0
LINE
  5
A50
330
A4D
100
AcDbEntity
  8
标注
370
    -2
100
AcDbLine
 10
1661.926468173797
 20
524.1336443114792
 30
0.0
 11
1611.056592767822
 21
524.1336443114792
 31
0.0
  0
LINE
  5
A51
330
A4D
100
AcDbEntity
  8
标注
370
    -2
100
AcDbLine
 10
1427.926468173797
 20
524.1336443114792
 30
0.0
 11
1558.389926101155
 21
524.1336443114792
 31
0.0
  0
SOLID
  5
A52
330
A4D
100
AcDbEntity
  8
标注
100
AcDbTrace
 10
1661.926468173797
 20
526.8003109781458
 30
0.0
 11
1661.926468173797
 21
521.4669776448126
 31
0.0
 12
1677.926468173797
 22
524.1336443114792
 32
0.0
 13
1677.926468173797
 23
524.1336443114792
 33
0.0
  0
SOLID
  5
A53
330
A4D
100
AcDbEntity
  8
标注
100
AcDbTrace
 10
1427.926468173797
 20
526.8003109781458
 30
0.0
 11
1427.926468173797
 21
521.4669776448126
 31
0.0
 12
1411.926468173797
 22
524.1336443114792
 32
0.0
 13
1411.926468173797
 23
524.1336443114792
 33
0.0
  0
MTEXT
  5
A54
330
A4D
100
AcDbEntity
  8
标注
100
AcDbMText
 10
1584.723259434489
 20
524.1336443114792
 30
0.0
 40
16.0
 41
0.0
 71
     5
 72
     1
  1
\A1;266
 73
     1
 44
1.0
  0
POINT
  5
A55
330
A4D
100
AcDbEntity
  8
Defpoints
 62
     0
100
AcDbPoint
 10
1677.926468173797
 20
524.1336443114792
 30
0.0
  0
POINT
  5
A56
330
A4D
100
AcDbEntity
  8
Defpoints
 62
     0
100
AcDbPoint
 10
1411.926468173797
 20
524.1336443114792
 30
0.0
  0
POINT
  5
A57
330
A4D
100
AcDbEntity
  8
Defpoints
 62
     0
100
AcDbPoint
 10
1411.926468173797
 20
524.1336443114792
 30
0.0
  0
ENDBLK
  5
A59
330
A4D
100
AcDbEntity
  8
0
100
AcDbBlockEnd
  0
BLOCK
  5
A60
330
A5A
100
AcDbEntity
  8
0
100
AcDbBlockBegin
  2
*D95
 70
     1
 10
0.0
 20
0.0
 30
0.0
  3
*D95
  1

  0
LINE
  5
AB3
330
A5A
100
AcDbEntity
  8
标注
370
    -2
100
AcDbLine
 10
1444.507194963709
 20
573.1392435778396
 30
0.0
 11
1428.511688014308
 21
573.5183971505001
 31
0.0
  0
MTEXT
  5
AB4
330
A5A
100
AcDbEntity
  8
标注
100
AcDbMText
 10
1481.496804784199
 20
572.2624509410625
 30
0.0
 40
16.0
 41
0.0
 71
     5
 72
     1
  1
\A1;R2100
 11
0.9997191843375688
 21
-0.0236970982912768
 31
0.0
 73
     1
 44
1.0
  0
SOLID
  5
AB5
330
A5A
100
AcDbEntity
  8
标注
100
AcDbTrace
 10
1428.574880276418
 20
576.1843149754001
 30
0.0
 11
1428.448495752198
 21
570.8524793256
 31
0.0
 12
1412.516181064907
 22
573.8975507231606
 32
0.0
 13
1412.516181064907
 23
573.8975507231606
 33
0.0
  0
POINT
  5
AB6
330
A5A
100
AcDbEntity
  8
Defpoints
 62
     0
100
AcDbPoint
 10
1412.516181064907
 20
573.8975507231606
 30
0.0
  0
POINT
  5
AB7
330
A5A
100
AcDbEntity
  8
Defpoints
 62
     0
100
AcDbPoint
 10
3511.926468173799
 20
524.1336443114792
 30
0.0
  0
ENDBLK
  5
A61
330
A5A
100
AcDbEntity
  8
0
100
AcDbBlockEnd
  0
BLOCK
  5
A68
330
A62
100
AcDbEntity
  8
0
100
AcDbBlockBegin
  2
*D96
 70
     1
 10
0.0
 20
0.0
 30
0.0
  3
*D96
  1

  0
LINE
  5
AB8
330
A62
100
AcDbEntity
  8
标注
370
    -2
100
AcDbLine
 10
1528.127178059414
 20
694.971062179396
 30
0.0
 11
1527.817513725509
 21
710.9680652737355
 31
0.0
  0
MTEXT
  5
AB9
330
A62
100
AcDbEntity
  8
标注
100
AcDbMText
 10
1528.740055386936
 20
663.3103268885157
 30
0.0
 40
16.0
 41
0.0
 71
     5
 72
     1
  1
\A1;R900
 11
0.0193540208691045
 21
-0.9998126933962174
 31
0.0
 73
     1
 44
1.0
  0
SOLID
  5
ABA
330
A62
100
AcDbEntity
  8
标注
100
AcDbTrace
 10
1530.483680907899
 20
711.0196759960531
 30
0.0
 11
1525.151346543118
 21
710.9164545514176
 31
0.0
 12
1527.507849391603
 22
726.9650683680749
 32
0.0
 13
1527.507849391603
 23
726.9650683680749
 33
0.0
  0
POINT
  5
ABB
330
A62
100
AcDbEntity
  8
Defpoints
 62
     0
100
AcDbPoint
 10
1527.507849391603
 20
726.9650683680749
 30
0.0
  0
POINT
  5
ABC
330
A62
100
AcDbEntity
  8
Defpoints
 62
     0
100
AcDbPoint
 10
1544.926468173797
 20
-172.8663556885207
 30
0.0
  0
ENDBLK
  5
A69
330
A62
100
AcDbEntity
  8
0
100
AcDbBlockEnd
  0
BLOCK
  5
A70
330
A6A
100
AcDbEntity
  8
0
100
AcDbBlockBegin
  2
*D97
 70
     1
 10
0.0
 20
0.0
 30
0.0
  3
*D97
  1

  0
LINE
  5
AA7
330
A6A
100
AcDbEntity
  8
标注
370
    -2
100
AcDbLine
 10
1458.212390690881
 20
675.7694304105382
 30
0.0
 11
1445.754969917757
 21
685.8099815747594
 31
0.0
  0
MTEXT
  5
AA8
330
A6A
100
AcDbEntity
  8
标注
100
AcDbMText
 10
1490.134531422009
 20
650.0405180522216
 30
0.0
 40
16.0
 41
0.0
 71
     5
 72
     1
  1
\A1;4-R80
 11
0.7785887983202404
 21
-0.6275344477638215
 31
0.0
 73
     1
 44
1.0
  0
SOLID
  5
AA9
330
A6A
100
AcDbEntity
  8
标注
100
AcDbTrace
 10
1447.428395111794
 20
687.8862183702797
 30
0.0
 11
1444.08154472372
 21
683.7337447792386
 31
0.0
 12
1433.297549144633
 22
695.8505327389805
 32
0.0
 13
1433.297549144633
 23
695.8505327389805
 33
0.0
  0
POINT
  5
AAA
330
A6A
100
AcDbEntity
  8
Defpoints
 62
     0
100
AcDbPoint
 10
1433.297549144633
 20
695.8505327389805
 30
0.0
  0
POINT
  5
AAB
330
A6A
100
AcDbEntity
  8
Defpoints
 62
     0
100
AcDbPoint
 10
1495.584653010278
 20
645.6477769178542
 30
0.0
  0
ENDBLK
  5
A71
330
A6A
100
AcDbEntity
  8
0
100
AcDbBlockEnd
  0
BLOCK
  5
A7D
330
A72
100
AcDbEntity
  8
0
100
AcDbBlockBegin
  2
*D98
 70
     1
 10
0.0
 20
0.0
 30
0.0
  3
*D98
  1

  0
LINE
  5
ADB
330
A72
100
AcDbEntity
  8
标注
 62
     0
370
    -2
100
AcDbLine
 10
719.3794478984925
 20
338.8426268213293
 30
0.0
 11
719.3794478984925
 21
75.49124402204279
 31
0.0
  0
LINE
  5
ADC
330
A72
100
AcDbEntity
  8
标注
 62
     0
370
    -2
100
AcDbLine
 10
445.3794478984928
 20
338.8426268213293
 30
0.0
 11
445.3794478984928
 21
75.49124402204279
 31
0.0
  0
LINE
  5
ADD
330
A72
100
AcDbEntity
  8
标注
 62
     0
370
    -2
100
AcDbLine
 10
707.3794478984925
 20
76.74124402204279
 30
0.0
 11
653.212781231826
 21
76.74124402204279
 31
0.0
  0
LINE
  5
ADE
330
A72
100
AcDbEntity
  8
标注
 62
     0
370
    -2
100
AcDbLine
 10
457.3794478984928
 20
76.74124402204279
 30
0.0
 11
511.5461145651592
 21
76.74124402204279
 31
0.0
  0
SOLID
  5
ADF
330
A72
100
AcDbEntity
  8
标注
 62
     0
100
AcDbTrace
 10
707.3794478984925
 20
78.74124402204279
 30
0.0
 11
707.3794478984925
 21
74.74124402204279
 31
0.0
 12
719.3794478984925
 22
76.74124402204279
 32
0.0
 13
719.3794478984925
 23
76.74124402204279
 33
0.0
  0
SOLID
  5
AE0
330
A72
100
AcDbEntity
  8
标注
 62
     0
100
AcDbTrace
 10
457.3794478984928
 20
78.74124402204279
 30
0.0
 11
457.3794478984928
 21
74.74124402204279
 31
0.0
 12
445.3794478984928
 22
76.74124402204279
 32
0.0
 13
445.3794478984928
 23
76.74124402204279
 33
0.0
  0
MTEXT
  5
AE1
330
A72
100
AcDbEntity
  8
标注
 62
     0
100
AcDbMText
 10
582.3794478984926
 20
76.74124402204279
 30
0.0
 40
10.0
 41
0.0
 71
     5
 72
     1
  1
274mm [10 3/4"]
 73
     1
 44
1.0
  0
POINT
  5
AE2
330
A72
100
AcDbEntity
  8
Defpoints
 62
     0
100
AcDbPoint
 10
719.3794478984925
 20
358.8426268213293
 30
0.0
  0
POINT
  5
AE3
330
A72
100
AcDbEntity
  8
Defpoints
 62
     0
100
AcDbPoint
 10
445.3794478984928
 20
358.8426268213293
 30
0.0
  0
POINT
  5
AE4
330
A72
100
AcDbEntity
  8
Defpoints
 62
     0
100
AcDbPoint
 10
445.3794478984928
 20
76.74124402204279
 30
0.0
  0
ENDBLK
  5
A7E
330
A72
100
AcDbEntity
  8
0
100
AcDbBlockEnd
  0
BLOCK
  5
A8A
330
A7F
100
AcDbEntity
  8
0
100
AcDbBlockBegin
  2
*D99
 70
     1
 10
0.0
 20
0.0
 30
0.0
  3
*D99
  1

  0
LINE
  5
AD1
330
A7F
100
AcDbEntity
  8
标注
 62
     0
370
    -2
100
AcDbLine
 10
602.3794478984926
 20
565.8426268213292
 30
0.0
 11
769.9137863773138
 21
565.8426268213291
 31
0.0
  0
LINE
  5
AD2
330
A7F
100
AcDbEntity
  8
标注
 62
     0
370
    -2
100
AcDbLine
 10
602.3794478984926
 20
151.8426268213293
 30
0.0
 11
769.9137863773137
 21
151.8426268213293
 31
0.0
  0
LINE
  5
AD3
330
A7F
100
AcDbEntity
  8
标注
 62
     0
370
    -2
100
AcDbLine
 10
768.6637863773142
 20
553.842626821329
 30
0.0
 11
768.6637863773142
 21
427.1759601546626
 31
0.0
  0
LINE
  5
AD4
330
A7F
100
AcDbEntity
  8
标注
 62
     0
370
    -2
100
AcDbLine
 10
768.6637863773137
 20
163.8426268213293
 30
0.0
 11
768.6637863773142
 21
290.5092934879959
 31
0.0
  0
SOLID
  5
AD5
330
A7F
100
AcDbEntity
  8
标注
 62
     0
100
AcDbTrace
 10
766.6637863773138
 20
553.842626821329
 30
0.0
 11
770.6637863773138
 21
553.842626821329
 31
0.0
 12
768.6637863773142
 22
565.8426268213291
 32
0.0
 13
768.6637863773142
 23
565.8426268213291
 33
0.0
  0
SOLID
  5
AD6
330
A7F
100
AcDbEntity
  8
标注
 62
     0
100
AcDbTrace
 10
766.6637863773137
 20
163.8426268213293
 30
0.0
 11
770.6637863773137
 21
163.8426268213293
 31
0.0
 12
768.6637863773137
 22
151.8426268213293
 32
0.0
 13
768.6637863773137
 23
151.8426268213293
 33
0.0
  0
MTEXT
  5
AD7
330
A7F
100
AcDbEntity
  8
标注
 62
     0
100
AcDbMText
 10
768.6637863773137
 20
358.8426268213293
 30
0.0
 40
10.0
 41
0.0
 71
     5
 72
     1
  1
414mm [16 1/4"]
 11
0.0000000000000001
 21
1.0
 31
0.0
 73
     1
 44
1.0
  0
POINT
  5
AD8
330
A7F
100
AcDbEntity
  8
Defpoints
 62
     0
100
AcDbPoint
 10
582.3794478984926
 20
565.8426268213292
 30
0.0
  0
POINT
  5
AD9
330
A7F
100
AcDbEntity
  8
Defpoints
 62
     0
100
AcDbPoint
 10
582.3794478984926
 20
151.8426268213293
 30
0.0
  0
POINT
  5
ADA
330
A7F
100
AcDbEntity
  8
Defpoints
 62
     0
100
AcDbPoint
 10
768.6637863773137
 20
151.8426268213293
 30
0.0
  0
ENDBLK
  5
A8B
330
A7F
100
AcDbEntity
  8
0
100
AcDbBlockEnd
  0
BLOCK
  5
AE9
330
AE8
100
AcDbEntity
  8
0
100
AcDbBlockBegin
  2
*D100
 70
     1
 10
0.0
 20
0.0
 30
0.0
  3
*D100
  1

  0
LINE
  5
AEA
330
AE8
100
AcDbEntity
  8
标注
370
    -2
100
AcDbLine
 10
1424.46997363432
 20
168.140538553946
 30
0.0
 11
1424.46997363432
 21
38.92009609532397
 31
0.0
  0
LINE
  5
AEB
330
AE8
100
AcDbEntity
  8
标注
370
    -2
100
AcDbLine
 10
647.4699736343201
 20
168.140538553946
 30
0.0
 11
647.4699736343201
 21
38.92009609532397
 31
0.0
  0
LINE
  5
AEC
330
AE8
100
AcDbEntity
  8
标注
370
    -2
100
AcDbLine
 10
1412.46997363432
 20
43.92009609532396
 30
0.0
 11
1116.96997363432
 21
43.92009609532396
 31
0.0
  0
LINE
  5
AED
330
AE8
100
AcDbEntity
  8
标注
370
    -2
100
AcDbLine
 10
659.4699736343201
 20
43.92009609532396
 30
0.0
 11
954.9699736343198
 21
43.92009609532396
 31
0.0
  0
SOLID
  5
AEE
330
AE8
100
AcDbEntity
  8
标注
100
AcDbTrace
 10
1412.46997363432
 20
45.92009609532397
 30
0.0
 11
1412.46997363432
 21
41.92009609532397
 31
0.0
 12
1424.46997363432
 22
43.92009609532396
 32
0.0
 13
1424.46997363432
 23
43.92009609532396
 33
0.0
  0
SOLID
  5
AEF
330
AE8
100
AcDbEntity
  8
标注
100
AcDbTrace
 10
659.4699736343201
 20
45.92009609532397
 30
0.0
 11
659.4699736343201
 21
41.92009609532397
 31
0.0
 12
647.4699736343201
 22
43.92009609532396
 32
0.0
 13
647.4699736343201
 23
43.92009609532396
 33
0.0
  0
MTEXT
  5
AF0
330
AE8
100
AcDbEntity
  8
标注
100
AcDbMText
 10
1035.96997363432
 20
43.92009609532396
 30
0.0
 40
12.0
 41
0.0
 71
     5
 72
     1
  1
\A1;777mm [30 5/8"]
 73
     1
 44
1.0
  0
POINT
  5
AF1
330
AE8
100
AcDbEntity
  8
Defpoints
 62
     0
100
AcDbPoint
 10
1424.46997363432
 20
200.140538553946
 30
0.0
  0
POINT
  5
AF2
330
AE8
100
AcDbEntity
  8
Defpoints
 62
     0
100
AcDbPoint
 10
647.4699736343201
 20
200.140538553946
 30
0.0
  0
POINT
  5
AF3
330
AE8
100
AcDbEntity
  8
Defpoints
 62
     0
100
AcDbPoint
 10
647.4699736343201
 20
43.92009609532396
 30
0.0
  0
ENDBLK
  5
AF4
330
AE8
100
AcDbEntity
  8
0
100
AcDbBlockEnd
  0
BLOCK
  5
AF6
330
AF5
100
AcDbEntity
  8
0
100
AcDbBlockBegin
  2
*D101
 70
     1
 10
0.0
 20
0.0
 30
0.0
  3
*D101
  1

  0
LINE
  5
AF7
330
AF5
100
AcDbEntity
  8
标注
370
    -2
100
AcDbLine
 10
1370.469973634319
 20
550.140538553946
 30
0.0
 11
1503.867163736935
 21
550.140538553946
 31
0.0
  0
LINE
  5
AF8
330
AF5
100
AcDbEntity
  8
标注
370
    -2
100
AcDbLine
 10
1370.46997363432
 20
114.140538553946
 30
0.0
 11
1503.867163736935
 21
114.1405385539459
 31
0.0
  0
LINE
  5
AF9
330
AF5
100
AcDbEntity
  8
标注
370
    -2
100
AcDbLine
 10
1498.867163736935
 20
538.140538553946
 30
0.0
 11
1498.867163736935
 21
410.1405385539458
 31
0.0
  0
LINE
  5
AFA
330
AF5
100
AcDbEntity
  8
标注
370
    -2
100
AcDbLine
 10
1498.867163736935
 20
126.1405385539459
 30
0.0
 11
1498.867163736935
 21
254.140538553946
 31
0.0
  0
SOLID
  5
AFB
330
AF5
100
AcDbEntity
  8
标注
100
AcDbTrace
 10
1496.867163736935
 20
538.140538553946
 30
0.0
 11
1500.867163736935
 21
538.140538553946
 31
0.0
 12
1498.867163736935
 22
550.140538553946
 32
0.0
 13
1498.867163736935
 23
550.140538553946
 33
0.0
  0
SOLID
  5
AFC
330
AF5
100
AcDbEntity
  8
标注
100
AcDbTrace
 10
1496.867163736935
 20
126.1405385539459
 30
0.0
 11
1500.867163736935
 21
126.1405385539459
 31
0.0
 12
1498.867163736935
 22
114.1405385539459
 32
0.0
 13
1498.867163736935
 23
114.1405385539459
 33
0.0
  0
MTEXT
  5
AFD
330
AF5
100
AcDbEntity
  8
标注
100
AcDbMText
 10
1498.867163736935
 20
332.1405385539462
 30
0.0
 40
12.0
 41
0.0
 71
     5
 72
     1
  1
\A1;436mm [17 1/8"]
 11
0.0000000000000001
 21
1.0
 31
0.0
 73
     1
 44
1.0
  0
POINT
  5
AFE
330
AF5
100
AcDbEntity
  8
Defpoints
 62
     0
100
AcDbPoint
 10
1338.469973634319
 20
550.140538553946
 30
0.0
  0
POINT
  5
AFF
330
AF5
100
AcDbEntity
  8
Defpoints
 62
     0
100
AcDbPoint
 10
1338.46997363432
 20
114.140538553946
 30
0.0
  0
POINT
  5
B00
330
AF5
100
AcDbEntity
  8
Defpoints
 62
     0
100
AcDbPoint
 10
1498.867163736935
 20
114.1405385539459
 30
0.0
  0
ENDBLK
  5
B01
330
AF5
100
AcDbEntity
  8
0
100
AcDbBlockEnd
  0
BLOCK
  5
B03
330
B02
100
AcDbEntity
  8
0
100
AcDbBlockBegin
  2
*D102
 70
     1
 10
0.0
 20
0.0
 30
0.0
  3
*D102
  1

  0
LINE
  5
B04
330
B02
100
AcDbEntity
  8
标注
370
    -2
100
AcDbLine
 10
693.5976147240538
 20
511.6189019938428
 30
0.0
 11
685.8803839672282
 21
520.8082626596292
 31
0.0
  0
MTEXT
  5
B05
330
B02
100
AcDbEntity
  8
标注
100
AcDbMText
 10
746.3320248956957
 20
448.8249374443015
 30
0.0
 40
12.0
 41
0.0
 71
     5
 72
     1
  1
\A1;R86mm [R3 3/8"]
 11
0.6431025630688051
 21
-0.7657800554822082
 31
0.0
 73
     1
 44
1.0
  0
SOLID
  5
B06
330
B02
100
AcDbEntity
  8
标注
100
AcDbTrace
 10
687.4119440781924
 20
522.0944677857669
 30
0.0
 11
684.3488238562636
 21
519.5220575334916
 31
0.0
 12
678.1631532104025
 22
529.9976233254158
 32
0.0
 13
678.1631532104025
 23
529.9976233254158
 33
0.0
  0
POINT
  5
B07
330
B02
100
AcDbEntity
  8
Defpoints
 62
     0
100
AcDbPoint
 10
678.1631532104025
 20
529.9976233254158
 30
0.0
  0
POINT
  5
B08
330
B02
100
AcDbEntity
  8
Defpoints
 62
     0
100
AcDbPoint
 10
733.4699736343197
 20
464.1405385539458
 30
0.0
  0
ENDBLK
  5
B09
330
B02
100
AcDbEntity
  8
0
100
AcDbBlockEnd
  0
BLOCK
  5
B33
330
B28
100
AcDbEntity
  8
0
100
AcDbBlockBegin
  2
*D103
 70
     1
 10
0.0
 20
0.0
 30
0.0
  3
*D103
  1

  0
LINE
  5
B81
330
B28
100
AcDbEntity
  8
标注
 62
     0
370
    -2
100
AcDbLine
 10
959.7452724250153
 20
551.2202217498026
 30
0.0
 11
1101.392462527631
 21
551.2202217498026
 31
0.0
  0
LINE
  5
B82
330
B28
100
AcDbEntity
  8
标注
 62
     0
370
    -2
100
AcDbLine
 10
959.7452724250159
 20
115.2202217498029
 30
0.0
 11
1101.392462527631
 21
115.2202217498028
 31
0.0
  0
LINE
  5
B83
330
B28
100
AcDbEntity
  8
标注
 62
     0
370
    -2
100
AcDbLine
 10
1100.142462527631
 20
539.2202217498028
 30
0.0
 11
1100.142462527631
 21
403.2202217498029
 31
0.0
  0
LINE
  5
B84
330
B28
100
AcDbEntity
  8
标注
 62
     0
370
    -2
100
AcDbLine
 10
1100.142462527631
 20
127.2202217498028
 30
0.0
 11
1100.142462527631
 21
263.2202217498029
 31
0.0
  0
SOLID
  5
B85
330
B28
100
AcDbEntity
  8
标注
 62
     0
100
AcDbTrace
 10
1098.142462527631
 20
539.2202217498028
 30
0.0
 11
1102.142462527631
 21
539.2202217498028
 31
0.0
 12
1100.142462527631
 22
551.2202217498026
 32
0.0
 13
1100.142462527631
 23
551.2202217498026
 33
0.0
  0
SOLID
  5
B86
330
B28
100
AcDbEntity
  8
标注
 62
     0
100
AcDbTrace
 10
1098.142462527631
 20
127.2202217498028
 30
0.0
 11
1102.142462527631
 21
127.2202217498028
 31
0.0
 12
1100.142462527631
 22
115.2202217498028
 32
0.0
 13
1100.142462527631
 23
115.2202217498028
 33
0.0
  0
MTEXT
  5
B87
330
B28
100
AcDbEntity
  8
标注
 62
     0
100
AcDbMText
 10
1100.142462527631
 20
333.220221749803
 30
0.0
 40
10.0
 41
0.0
 71
     5
 72
     1
  1
436mm [17 1/8"]
 11
0.0000000000000001
 21
1.0
 31
0.0
 73
     1
 44
1.0
  0
POINT
  5
B88
330
B28
100
AcDbEntity
  8
Defpoints
 62
     0
100
AcDbPoint
 10
939.7452724250152
 20
551.2202217498026
 30
0.0
  0
POINT
  5
B89
330
B28
100
AcDbEntity
  8
Defpoints
 62
     0
100
AcDbPoint
 10
939.7452724250159
 20
115.2202217498029
 30
0.0
  0
POINT
  5
B8A
330
B28
100
AcDbEntity
  8
Defpoints
 62
     0
100
AcDbPoint
 10
1100.142462527631
 20
115.2202217498028
 30
0.0
  0
ENDBLK
  5
B34
330
B28
100
AcDbEntity
  8
0
100
AcDbBlockEnd
  0
BLOCK
  5
B40
330
B35
100
AcDbEntity
  8
0
100
AcDbBlockBegin
  2
*D104
 70
     1
 10
0.0
 20
0.0
 30
0.0
  3
*D104
  1

  0
LINE
  5
B8B
330
B35
100
AcDbEntity
  8
标注
 62
     0
370
    -2
100
AcDbLine
 10
1025.745272425016
 20
181.2202217498029
 30
0.0
 11
1025.745272425016
 21
43.74977929118085
 31
0.0
  0
LINE
  5
B8C
330
B35
100
AcDbEntity
  8
标注
 62
     0
370
    -2
100
AcDbLine
 10
248.7452724250162
 20
181.2202217498029
 30
0.0
 11
248.7452724250162
 21
43.74977929118085
 31
0.0
  0
LINE
  5
B8D
330
B35
100
AcDbEntity
  8
标注
 62
     0
370
    -2
100
AcDbLine
 10
1013.745272425016
 20
44.99977929118085
 30
0.0
 11
709.7452724250159
 21
44.99977929118085
 31
0.0
  0
LINE
  5
B8E
330
B35
100
AcDbEntity
  8
标注
 62
     0
370
    -2
100
AcDbLine
 10
260.7452724250162
 20
44.99977929118085
 30
0.0
 11
564.7452724250158
 21
44.99977929118085
 31
0.0
  0
SOLID
  5
B8F
330
B35
100
AcDbEntity
  8
标注
 62
     0
100
AcDbTrace
 10
1013.745272425016
 20
46.99977929118085
 30
0.0
 11
1013.745272425016
 21
42.99977929118083
 31
0.0
 12
1025.745272425016
 22
44.99977929118085
 32
0.0
 13
1025.745272425016
 23
44.99977929118085
 33
0.0
  0
SOLID
  5
B90
330
B35
100
AcDbEntity
  8
标注
 62
     0
100
AcDbTrace
 10
260.7452724250162
 20
46.99977929118085
 30
0.0
 11
260.7452724250162
 21
42.99977929118083
 31
0.0
 12
248.7452724250162
 22
44.99977929118085
 32
0.0
 13
248.7452724250162
 23
44.99977929118085
 33
0.0
  0
MTEXT
  5
B91
330
B35
100
AcDbEntity
  8
标注
 62
     0
100
AcDbMText
 10
637.2452724250161
 20
44.99977929118085
 30
0.0
 40
10.0
 41
0.0
 71
     5
 72
     1
  1
777mm [30 5/8"]
 73
     1
 44
1.0
  0
POINT
  5
B92
330
B35
100
AcDbEntity
  8
Defpoints
 62
     0
100
AcDbPoint
 10
1025.745272425016
 20
201.2202217498029
 30
0.0
  0
POINT
  5
B93
330
B35
100
AcDbEntity
  8
Defpoints
 62
     0
100
AcDbPoint
 10
248.7452724250162
 20
201.2202217498029
 30
0.0
  0
POINT
  5
B94
330
B35
100
AcDbEntity
  8
Defpoints
 62
     0
100
AcDbPoint
 10
248.7452724250162
 20
44.99977929118085
 30
0.0
  0
ENDBLK
  5
B41
330
B35
100
AcDbEntity
  8
0
100
AcDbBlockEnd
  0
BLOCK
  5
B48
330
B42
100
AcDbEntity
  8
0
100
AcDbBlockBegin
  2
*D105
 70
     1
 10
0.0
 20
0.0
 30
0.0
  3
*D105
  1

  0
LINE
  5
BAB
330
B42
100
AcDbEntity
  8
标注
 62
     0
370
    -2
100
AcDbLine
 10
300.4464690613465
 20
506.0618247088537
 30
0.0
 11
287.1556827579243
 21
521.8879458554862
 31
0.0
  0
MTEXT
  5
BAC
330
B42
100
AcDbEntity
  8
标注
 62
     0
100
AcDbMText
 10
347.6073236863921
 20
449.9046206401583
 30
0.0
 40
10.0
 41
0.0
 71
     5
 72
     1
  1
R86mm [R3 3/8"]
 11
0.6431025630688037
 21
-0.7657800554822093
 31
0.0
 73
     1
 44
1.0
  0
SOLID
  5
BAD
330
B42
100
AcDbEntity
  8
标注
 62
     0
100
AcDbTrace
 10
288.6872428688888
 20
523.1741509816238
 30
0.0
 11
285.6241226469599
 21
520.6017407293486
 31
0.0
 12
279.4384520010987
 22
531.0773065212726
 32
0.0
 13
279.4384520010987
 23
531.0773065212726
 33
0.0
  0
POINT
  5
BAE
330
B42
100
AcDbEntity
  8
Defpoints
 62
     0
100
AcDbPoint
 10
279.4384520010987
 20
531.0773065212726
 30
0.0
  0
POINT
  5
BAF
330
B42
100
AcDbEntity
  8
Defpoints
 62
     0
100
AcDbPoint
 10
334.745272425016
 20
465.2202217498024
 30
0.0
  0
ENDBLK
  5
B49
330
B42
100
AcDbEntity
  8
0
100
AcDbBlockEnd
  0
ENDSEC
  0
SECTION
  2
ENTITIES
  0
MTEXT
  5
257
330
21
100
AcDbEntity
  8
标注
100
AcDbMText
 10
407.1821489742545
 20
-20.79666087070927
 30
0.0
 40
20.0
 41
978.0172487045312
 71
     1
 72
     5
  1
{\fArial|b0|i0|c0|p34;876-9(Leonet Tribute) Reveal Cutout}
 73
     1
 44
1.0
  0
LINE
  5
B1F
330
21
100
AcDbEntity
  8
0
100
AcDbLine
 10
248.7452724250162
 20
200.2202217498029
 30
0.0
 11
248.745272425016
 21
466.2202217498026
 31
0.0
  0
LINE
  5
B21
330
21
100
AcDbEntity
  8
0
100
AcDbLine
 10
333.745272425016
 20
551.2202217498026
 30
0.0
 11
940.7452724250161
 21
551.2202217498026
 31
0.0
  0
LINE
  5
B23
330
21
100
AcDbEntity
  8
0
100
AcDbLine
 10
940.7452724250161
 20
115.2202217498029
 30
0.0
 11
333.7452724250162
 21
115.2202217498029
 31
0.0
  0
LINE
  5
B24
330
21
100
AcDbEntity
  8
0
100
AcDbLine
 10
1025.745272425016
 20
466.2202217498027
 30
0.0
 11
1025.745272425016
 21
200.2202217498029
 31
0.0
  0
DIMENSION
  5
B26
330
21
100
AcDbEntity
  8
标注
100
AcDbDimension
  2
*D103
 10
1100.142462527631
 20
115.2202217498028
 30
0.0
 11
1100.142462527631
 21
333.220221749803
 31
0.0
 70
    32
 71
     5
 42
436.0
  3
mav
100
AcDbAlignedDimension
 13
939.7452724250152
 23
551.2202217498026
 33
0.0
 14
939.7452724250159
 24
115.2202217498029
 34
0.0
 50
90.0
100
AcDbRotatedDimension
  0
DIMENSION
  5
B27
330
21
100
AcDbEntity
  8
标注
100
AcDbDimension
  2
*D104
 10
248.7452724250162
 20
44.99977929118085
 30
0.0
 11
637.2452724250161
 21
44.99977929118085
 31
0.0
 70
    32
 71
     5
 42
776.9999999999996
  3
mav
100
AcDbAlignedDimension
 13
1025.745272425016
 23
201.2202217498029
 33
0.0
 14
248.7452724250162
 24
201.2202217498029
 34
0.0
100
AcDbRotatedDimension
  0
ARC
  5
BB0
330
21
100
AcDbEntity
  8
0
100
AcDbCircle
 10
333.745272425016
 20
466.2202217498027
 30
0.0
 40
85.0
100
AcDbArc
 50
90.0
 51
180.0
  0
ARC
  5
BB1
330
21
100
AcDbEntity
  8
0
100
AcDbCircle
 10
940.7452724250161
 20
466.2202217498027
 30
0.0
 40
85.0
100
AcDbArc
 50
0.0
 51
90.0
  0
ARC
  5
BB2
330
21
100
AcDbEntity
  8
0
100
AcDbCircle
 10
940.7452724250161
 20
200.2202217498029
 30
0.0
 40
85.0
100
AcDbArc
 50
270.0
 51
0.0
  0
ARC
  5
BB3
330
21
100
AcDbEntity
  8
0
100
AcDbCircle
 10
333.7452724250162
 20
200.2202217498029
 30
0.0
 40
85.0
100
AcDbArc
 50
180.0
 51
270.0
  0
ENDSEC
  0
SECTION
  2
OBJECTS
  0
DICTIONARY
  5
C
330
0
100
AcDbDictionary
281
     1
  3
ACAD_COLOR
350
1C
  3
ACAD_GROUP
350
D
  3
ACAD_LAYOUT
350
1A
  3
ACAD_MATERIAL
350
1B
  3
ACAD_MLINESTYLE
350
17
  3
ACAD_PLOTSETTINGS
350
19
  3
ACAD_PLOTSTYLENAME
350
E
  0
DICTIONARY
  5
25E
330
2
100
AcDbDictionary
280
     1
281
     1
  3
ACAD_LAYERSTATES
360
25F
  0
DICTIONARY
  5
1C
102
{ACAD_REACTORS
330
C
102
}
330
C
100
AcDbDictionary
281
     1
  0
DICTIONARY
  5
D
102
{ACAD_REACTORS
330
C
102
}
330
C
100
AcDbDictionary
281
     1
  0
DICTIONARY
  5
1A
102
{ACAD_REACTORS
330
C
102
}
330
C
100
AcDbDictionary
281
     1
  3
Model
350
24
  3
布局1
350
20
  3
布局2
350
28
  0
DICTIONARY
  5
1B
102
{ACAD_REACTORS
330
C
102
}
330
C
100
AcDbDictionary
281
     1
  0
DICTIONARY
  5
17
102
{ACAD_REACTORS
330
C
102
}
330
C
100
AcDbDictionary
281
     1
  3
Standard
350
18
  0
DICTIONARY
  5
19
102
{ACAD_REACTORS
330
C
102
}
330
C
100
AcDbDictionary
281
     1
  0
ACDBDICTIONARYWDFLT
  5
E
102
{ACAD_REACTORS
330
C
102
}
330
C
100
AcDbDictionary
281
     1
  3
Normal
350
F
100
AcDbDictionaryWithDefault
340
F
  0
DICTIONARY
  5
25F
102
{ACAD_REACTORS
330
25E
102
}
330
25E
100
AcDbDictionary
281
     1
  0
LAYOUT
  5
24
102
{ACAD_REACTORS
330
1A
102
}
330
1A
100
AcDbPlotSettings
  1

  2
FX DocuPrint 255-AP
  4
A4
  6

 40
4.900083065032958
 41
4.900057315826416
 42
4.90008544921875
 43
4.90008544921875
 44
210.0156707763672
 45
297.0106506347656
 46
0.0
 47
0.0
 48
0.0
 49
0.0
140
0.0
141
0.0
142
1.0
143
1.0
 70
 11952
 72
     1
 73
     1
 74
     0
  7

 75
     0
147
1.0
 76
     0
 77
     2
 78
   300
148
-95.10250240444424
149
-69.85844212966799
100
AcDbLayout
  1
Model
 70
     1
 71
     0
 10
0.0
 20
0.0
 11
12.0
 21
9.0
 12
0.0
 22
0.0
 32
0.0
 14
0.0
 24
0.0
 34
0.0
 15
0.0
 25
0.0
 35
0.0
146
0.0
 13
0.0
 23
0.0
 33
0.0
 16
1.0
 26
0.0
 36
0.0
 17
0.0
 27
1.0
 37
0.0
 76
     0
330
21
  0
LAYOUT
  5
20
102
{ACAD_REACTORS
330
1A
102
}
330
1A
100
AcDbPlotSettings
  1

  2
FX DocuPrint 255-AP
  4

  6

 40
0.0
 41
0.0
 42
0.0
 43
0.0
 44
0.0
 45
0.0
 46
0.0
 47
0.0
 48
0.0
 49
0.0
140
0.0
141
0.0
142
1.0
143
1.0
 70
   688
 72
     0
 73
     0
 74
     5
  7

 75
    16
147
1.0
 76
     0
 77
     2
 78
   300
148
0.0
149
0.0
100
AcDbLayout
  1
布局1
 70
     1
 71
     1
 10
0.0
 20
0.0
 11
420.0
 21
297.0
 12
0.0
 22
0.0
 32
0.0
 14
1.000000000000000E+20
 24
1.000000000000000E+20
 34
1.000000000000000E+20
 15
-1.000000000000000E+20
 25
-1.000000000000000E+20
 35
-1.000000000000000E+20
146
0.0
 13
0.0
 23
0.0
 33
0.0
 16
1.0
 26
0.0
 36
0.0
 17
0.0
 27
1.0
 37
0.0
 76
     0
330
1D
  0
LAYOUT
  5
28
102
{ACAD_REACTORS
330
1A
102
}
330
1A
100
AcDbPlotSettings
  1

  2
FX DocuPrint 255-AP
  4

  6

 40
0.0
 41
0.0
 42
0.0
 43
0.0
 44
0.0
 45
0.0
 46
0.0
 47
0.0
 48
0.0
 49
0.0
140
0.0
141
0.0
142
1.0
143
1.0
 70
   688
 72
     0
 73
     0
 74
     5
  7

 75
    16
147
1.0
 76
     0
 77
     2
 78
   300
148
0.0
149
0.0
100
AcDbLayout
  1
布局2
 70
     1
 71
     2
 10
0.0
 20
0.0
 11
12.0
 21
9.0
 12
0.0
 22
0.0
 32
0.0
 14
0.0
 24
0.0
 34
0.0
 15
0.0
 25
0.0
 35
0.0
146
0.0
 13
0.0
 23
0.0
 33
0.0
 16
1.0
 26
0.0
 36
0.0
 17
0.0
 27
1.0
 37
0.0
 76
     0
330
25
  0
MLINESTYLE
  5
18
102
{ACAD_REACTORS
330
17
102
}
330
17
100
AcDbMlineStyle
  2
STANDARD
 70
     0
  3

 62
   256
 51
90.0
 52
90.0
 71
     2
 49
0.5
 62
   256
  6
BYLAYER
 49
-0.5
 62
   256
  6
BYLAYER
  0
ACDBPLACEHOLDER
  5
F
102
{ACAD_REACTORS
330
E
102
}
330
E
  0
ENDSEC
  0
EOF
