  0
SECTION
  2
HEADER
  9
$ACADVER
  1
AC1018
  9
$ACADMAINTVER
 70
     0
  9
$DWGCODEPAGE
  3
ANSI_936
  9
$INSBASE
 10
0.0
 20
0.0
 30
0.0
  9
$EXTMIN
 10
-198.2424149694229
 20
285.9417388240861
 30
-0.0015258207003583
  9
$EXTMAX
 10
690.2421061994541
 20
954.2748525948566
 30
0.0000000349246037
  9
$LIMMIN
 10
0.0
 20
0.0
  9
$LIMMAX
 10
420.0
 20
297.0
  9
$ORTHOMODE
 70
     1
  9
$REGENMODE
 70
     1
  9
$FILLMODE
 70
     1
  9
$QTEXTMODE
 70
     0
  9
$MIRRTEXT
 70
     0
  9
$LTSCALE
 40
1.0
  9
$ATTMODE
 70
     1
  9
$TEXTSIZE
 40
2.5
  9
$TRACEWID
 40
1.0
  9
$TEXTSTYLE
  7
Standard
  9
$CLAYER
  8
标注
  9
$CELTYPE
  6
ByLayer
  9
$CECOLOR
 62
   256
  9
$CELTSCALE
 40
1.0
  9
$DISPSILH
 70
     0
  9
$DIMSCALE
 40
1.0
  9
$DIMASZ
 40
12.0
  9
$DIMEXO
 40
20.0
  9
$DIMDLI
 40
3.75
  9
$DIMRND
 40
0.0
  9
$DIMDLE
 40
0.0
  9
$DIMEXE
 40
1.25
  9
$DIMTP
 40
0.0
  9
$DIMTM
 40
0.0
  9
$DIMTXT
 40
10.0
  9
$DIMCEN
 40
2.5
  9
$DIMTSZ
 40
0.0
  9
$DIMTOL
 70
     0
  9
$DIMLIM
 70
     0
  9
$DIMTIH
 70
     0
  9
$DIMTOH
 70
     0
  9
$DIMSE1
 70
     0
  9
$DIMSE2
 70
     0
  9
$DIMTAD
 70
     0
  9
$DIMZIN
 70
     8
  9
$DIMBLK
  1

  9
$DIMASO
 70
     1
  9
$DIMSHO
 70
     1
  9
$DIMPOST
  1
mm
  9
$DIMAPOST
  1
"
  9
$DIMALT
 70
     1
  9
$DIMALTD
 70
     3
  9
$DIMALTF
 40
0.03937007874016
  9
$DIMLFAC
 40
1.0
  9
$DIMTOFL
 70
     1
  9
$DIMTVP
 40
0.0
  9
$DIMTIX
 70
     0
  9
$DIMSOXD
 70
     0
  9
$DIMSAH
 70
     0
  9
$DIMBLK1
  1

  9
$DIMBLK2
  1

  9
$DIMSTYLE
  2
mav
  9
$DIMCLRD
 70
     0
  9
$DIMCLRE
 70
     0
  9
$DIMCLRT
 70
     0
  9
$DIMTFAC
 40
1.0
  9
$DIMGAP
 40
5.0
  9
$DIMJUST
 70
     0
  9
$DIMSD1
 70
     0
  9
$DIMSD2
 70
     0
  9
$DIMTOLJ
 70
     0
  9
$DIMTZIN
 70
     8
  9
$DIMALTZ
 70
     0
  9
$DIMALTTZ
 70
     0
  9
$DIMUPT
 70
     0
  9
$DIMDEC
 70
     1
  9
$DIMTDEC
 70
     1
  9
$DIMALTU
 70
     7
  9
$DIMALTTD
 70
     3
  9
$DIMTXSTY
  7
Standard
  9
$DIMAUNIT
 70
     0
  9
$DIMADEC
 70
     0
  9
$DIMALTRND
 40
0.0
  9
$DIMAZIN
 70
     0
  9
$DIMDSEP
 70
    44
  9
$DIMATFIT
 70
     3
  9
$DIMFRAC
 70
     0
  9
$DIMLDRBLK
  1

  9
$DIMLUNIT
 70
     2
  9
$DIMLWD
 70
    -2
  9
$DIMLWE
 70
    -2
  9
$DIMTMOVE
 70
     0
  9
$LUNITS
 70
     2
  9
$LUPREC
 70
     4
  9
$SKETCHINC
 40
1.0
  9
$FILLETRAD
 40
25.0
  9
$AUNITS
 70
     0
  9
$AUPREC
 70
     0
  9
$MENU
  1
.
  9
$ELEVATION
 40
0.0
  9
$PELEVATION
 40
0.0
  9
$THICKNESS
 40
0.0
  9
$LIMCHECK
 70
     0
  9
$CHAMFERA
 40
0.0
  9
$CHAMFERB
 40
0.0
  9
$CHAMFERC
 40
0.0
  9
$CHAMFERD
 40
0.0
  9
$SKPOLY
 70
     0
  9
$TDCREATE
 40
2455976.789748982
  9
$TDUCREATE
 40
2455976.456415648
  9
$TDUPDATE
 40
2456050.780164387
  9
$TDUUPDATE
 40
2456050.446831053
  9
$TDINDWG
 40
0.0249864236
  9
$TDUSRTIMER
 40
0.0249848032
  9
$USRTIMER
 70
     1
  9
$ANGBASE
 50
0.0
  9
$ANGDIR
 70
     0
  9
$PDMODE
 70
     0
  9
$PDSIZE
 40
0.0
  9
$PLINEWID
 40
0.0
  9
$SPLFRAME
 70
     0
  9
$SPLINETYPE
 70
     6
  9
$SPLINESEGS
 70
     8
  9
$HANDSEED
  5
457
  9
$SURFTAB1
 70
     6
  9
$SURFTAB2
 70
     6
  9
$SURFTYPE
 70
     6
  9
$SURFU
 70
     6
  9
$SURFV
 70
     6
  9
$UCSBASE
  2

  9
$UCSNAME
  2

  9
$UCSORG
 10
0.0
 20
0.0
 30
0.0
  9
$UCSXDIR
 10
1.0
 20
0.0
 30
0.0
  9
$UCSYDIR
 10
0.0
 20
1.0
 30
0.0
  9
$UCSORTHOREF
  2

  9
$UCSORTHOVIEW
 70
     0
  9
$UCSORGTOP
 10
0.0
 20
0.0
 30
0.0
  9
$UCSORGBOTTOM
 10
0.0
 20
0.0
 30
0.0
  9
$UCSORGLEFT
 10
0.0
 20
0.0
 30
0.0
  9
$UCSORGRIGHT
 10
0.0
 20
0.0
 30
0.0
  9
$UCSORGFRONT
 10
0.0
 20
0.0
 30
0.0
  9
$UCSORGBACK
 10
0.0
 20
0.0
 30
0.0
  9
$PUCSBASE
  2

  9
$PUCSNAME
  2

  9
$PUCSORG
 10
0.0
 20
0.0
 30
0.0
  9
$PUCSXDIR
 10
1.0
 20
0.0
 30
0.0
  9
$PUCSYDIR
 10
0.0
 20
1.0
 30
0.0
  9
$PUCSORTHOREF
  2

  9
$PUCSORTHOVIEW
 70
     0
  9
$PUCSORGTOP
 10
0.0
 20
0.0
 30
0.0
  9
$PUCSORGBOTTOM
 10
0.0
 20
0.0
 30
0.0
  9
$PUCSORGLEFT
 10
0.0
 20
0.0
 30
0.0
  9
$PUCSORGRIGHT
 10
0.0
 20
0.0
 30
0.0
  9
$PUCSORGFRONT
 10
0.0
 20
0.0
 30
0.0
  9
$PUCSORGBACK
 10
0.0
 20
0.0
 30
0.0
  9
$USERI1
 70
     0
  9
$USERI2
 70
     0
  9
$USERI3
 70
     0
  9
$USERI4
 70
     0
  9
$USERI5
 70
     0
  9
$USERR1
 40
0.0
  9
$USERR2
 40
0.0
  9
$USERR3
 40
0.0
  9
$USERR4
 40
0.0
  9
$USERR5
 40
0.0
  9
$WORLDVIEW
 70
     1
  9
$SHADEDGE
 70
     3
  9
$SHADEDIF
 70
    70
  9
$TILEMODE
 70
     1
  9
$MAXACTVP
 70
    64
  9
$PINSBASE
 10
0.0
 20
0.0
 30
0.0
  9
$PLIMCHECK
 70
     0
  9
$PEXTMIN
 10
1.000000000000000E+20
 20
1.000000000000000E+20
 30
1.000000000000000E+20
  9
$PEXTMAX
 10
-1.000000000000000E+20
 20
-1.000000000000000E+20
 30
-1.000000000000000E+20
  9
$PLIMMIN
 10
0.0
 20
0.0
  9
$PLIMMAX
 10
420.0
 20
297.0
  9
$UNITMODE
 70
     0
  9
$VISRETAIN
 70
     1
  9
$PLINEGEN
 70
     0
  9
$PSLTSCALE
 70
     1
  9
$TREEDEPTH
 70
  3020
  9
$CMLSTYLE
  2
Standard
  9
$CMLJUST
 70
     0
  9
$CMLSCALE
 40
20.0
  9
$PROXYGRAPHICS
 70
     1
  9
$MEASUREMENT
 70
     1
  9
$CELWEIGHT
370
    -1
  9
$ENDCAPS
280
     0
  9
$JOINSTYLE
280
     0
  9
$LWDISPLAY
290
     0
  9
$INSUNITS
 70
     4
  9
$HYPERLINKBASE
  1

  9
$STYLESHEET
  1
monochrome.ctb
  9
$XEDIT
290
     1
  9
$CEPSNTYPE
380
     0
  9
$PSTYLEMODE
290
     1
  9
$FINGERPRINTGUID
  2
{1E3F51EA-1AF3-4ACB-A358-1F7AE8D52B56}
  9
$VERSIONGUID
  2
{D4B6BDF7-6C4A-46BF-A6FB-1B1D62005FB5}
  9
$EXTNAMES
290
     1
  9
$PSVPSCALE
 40
0.0
  9
$OLESTARTUP
290
     0
  9
$SORTENTS
280
   127
  9
$INDEXCTL
280
     0
  9
$HIDETEXT
280
     1
  9
$XCLIPFRAME
290
     0
  9
$HALOGAP
280
     0
  9
$OBSCOLOR
 70
   257
  9
$OBSLTYPE
280
     0
  9
$INTERSECTIONDISPLAY
280
     0
  9
$INTERSECTIONCOLOR
 70
   257
  9
$DIMASSOC
280
     2
  9
$PROJECTNAME
  1

  0
ENDSEC
  0
SECTION
  2
CLASSES
  0
CLASS
  1
ACDBDICTIONARYWDFLT
  2
AcDbDictionaryWithDefault
  3
ObjectDBX Classes
 90
        0
 91
        1
280
     0
281
     0
  0
CLASS
  1
DIMASSOC
  2
AcDbDimAssoc
  3
"AcDbDimAssoc|Product Desc:     AcDim ARX App For Dimension|Company:          Autodesk, Inc.|WEB Address:      www.autodesk.com"
 90
        0
 91
        8
280
     0
281
     0
  0
CLASS
  1
SORTENTSTABLE
  2
AcDbSortentsTable
  3
ObjectDBX Classes
 90
        0
 91
        0
280
     0
281
     0
  0
ENDSEC
  0
SECTION
  2
TABLES
  0
TABLE
  2
VPORT
  5
8
330
0
100
AcDbSymbolTable
 70
     4
  0
VPORT
  5
456
330
8
100
AcDbSymbolTableRecord
100
AcDbViewportTableRecord
  2
*Active
 70
     0
 10
0.0
 20
0.0
 11
1.0
 21
1.0
 12
148.3909709959944
 22
753.6910956306317
 13
0.0
 23
0.0
 14
10.0
 24
10.0
 15
10.0
 25
10.0
 16
0.0
 26
0.0
 36
1.0
 17
0.0
 27
0.0
 37
0.0
 40
1559.139343124019
 41
1.510883482714468
 42
50.0
 43
0.0
 44
0.0
 50
0.0
 51
0.0
 71
     0
 72
  1000
 73
     1
 74
     3
 75
     0
 76
     0
 77
     0
 78
     0
281
     0
 65
     1
110
0.0
120
0.0
130
0.0
111
1.0
121
0.0
131
0.0
112
0.0
122
1.0
132
0.0
 79
     0
146
0.0
  0
ENDTAB
  0
TABLE
  2
LTYPE
  5
5
330
0
100
AcDbSymbolTable
 70
     2
  0
LTYPE
  5
14
330
5
100
AcDbSymbolTableRecord
100
AcDbLinetypeTableRecord
  2
ByBlock
 70
     0
  3

 72
    65
 73
     0
 40
0.0
  0
LTYPE
  5
15
330
5
100
AcDbSymbolTableRecord
100
AcDbLinetypeTableRecord
  2
ByLayer
 70
     0
  3

 72
    65
 73
     0
 40
0.0
  0
LTYPE
  5
16
330
5
100
AcDbSymbolTableRecord
100
AcDbLinetypeTableRecord
  2
Continuous
 70
     0
  3
Solid line
 72
    65
 73
     0
 40
0.0
  0
LTYPE
  5
83
330
5
100
AcDbSymbolTableRecord
100
AcDbLinetypeTableRecord
  2
HIDDENX2
 70
     0
  3
Hidden (2x) ____ ____ ____ ____ ____ ____ ____
 72
    65
 73
     2
 40
19.05
 49
12.7
 74
     0
 49
-6.349999999999997
 74
     0
  0
ENDTAB
  0
TABLE
  2
LAYER
  5
2
102
{ACAD_XDICTIONARY
360
25E
102
}
330
0
100
AcDbSymbolTable
 70
     4
  0
LAYER
  5
10
330
2
100
AcDbSymbolTableRecord
100
AcDbLayerTableRecord
  2
0
 70
     0
 62
     7
  6
Continuous
370
    -3
390
F
  0
LAYER
  5
84
330
2
100
AcDbSymbolTableRecord
100
AcDbLayerTableRecord
  2
标注
 70
     0
 62
    80
  6
Continuous
370
    -3
390
F
1001
AcAecLayerStandard
1000

1000

  0
LAYER
  5
85
330
2
100
AcDbSymbolTableRecord
100
AcDbLayerTableRecord
  2
Defpoints
 70
     0
 62
     7
  6
Continuous
290
     0
370
    -3
390
F
  0
LAYER
  5
86
330
2
100
AcDbSymbolTableRecord
100
AcDbLayerTableRecord
  2
虚线
 70
     0
 62
   130
  6
HIDDENX2
370
    35
390
F
1001
AcAecLayerStandard
1000

1000

  0
ENDTAB
  0
TABLE
  2
STYLE
  5
3
330
0
100
AcDbSymbolTable
 70
     1
  0
STYLE
  5
11
330
3
100
AcDbSymbolTableRecord
100
AcDbTextStyleTableRecord
  2
Standard
 70
     0
 40
0.0
 41
1.0
 50
0.0
 71
     0
 42
2.5
  3
txt
  4

  0
ENDTAB
  0
TABLE
  2
VIEW
  5
6
330
0
100
AcDbSymbolTable
 70
     0
  0
ENDTAB
  0
TABLE
  2
UCS
  5
7
330
0
100
AcDbSymbolTable
 70
     0
  0
ENDTAB
  0
TABLE
  2
APPID
  5
9
330
0
100
AcDbSymbolTable
 70
     7
  0
APPID
  5
12
330
9
100
AcDbSymbolTableRecord
100
AcDbRegAppTableRecord
  2
ACAD
 70
     0
  0
APPID
  5
88
330
9
100
AcDbSymbolTableRecord
100
AcDbRegAppTableRecord
  2
ACAD_PSEXT
 70
     0
  0
APPID
  5
89
330
9
100
AcDbSymbolTableRecord
100
AcDbRegAppTableRecord
  2
AcAecLayerStandard
 70
     0
  0
APPID
  5
8A
330
9
100
AcDbSymbolTableRecord
100
AcDbRegAppTableRecord
  2
ACAD_DSTYLE_DIMEXT_LENGTH
 70
     0
  0
APPID
  5
8B
330
9
100
AcDbSymbolTableRecord
100
AcDbRegAppTableRecord
  2
ACAD_DSTYLE_DIMEXT_ENABLED
 70
     0
  0
APPID
  5
8C
330
9
100
AcDbSymbolTableRecord
100
AcDbRegAppTableRecord
  2
ACAD_DSTYLE_DIMJOGGED_JOGANGLE_SYMBOL
 70
     0
  0
APPID
  5
8D
330
9
100
AcDbSymbolTableRecord
100
AcDbRegAppTableRecord
  2
ACAD_DSTYLE_DIMARC_LENGTH_SYMBOL
 70
     0
  0
ENDTAB
  0
TABLE
  2
DIMSTYLE
  5
A
330
0
100
AcDbSymbolTable
 70
     3
100
AcDbDimStyleTable
 71
     2
340
87
340
29
  0
DIMSTYLE
105
29
330
A
100
AcDbSymbolTableRecord
100
AcDbDimStyleTableRecord
  2
ISO-25
 70
     0
  3
"
  4
"
 41
2.5
 42
0.625
 43
3.75
 44
1.25
 73
     0
 74
     0
 77
     1
 78
     8
140
2.5
141
2.5
143
0.03937007874016
147
0.625
170
     1
171
     3
172
     1
271
     1
272
     1
273
     7
274
     3
283
     0
284
     8
340
11
  0
DIMSTYLE
105
87
102
{ACAD_REACTORS
330
346
330
38F
330
3A9
330
3CE
330
3DE
330
412
330
424
330
434
330
444
102
}
330
A
100
AcDbSymbolTableRecord
100
AcDbDimStyleTableRecord
  2
mav
 70
     0
  3
mm
  4
"
 41
12.0
 42
20.0
 43
3.75
 44
1.25
 73
     0
 74
     0
 78
     8
140
10.0
141
2.5
143
0.03937007874016
147
5.0
170
     1
171
     3
172
     1
271
     1
272
     1
273
     7
274
     3
278
    44
283
     0
284
     8
340
11
1001
ACAD_DSTYLE_DIMEXT_LENGTH
1070
   378
1040
1.25
1001
ACAD_DSTYLE_DIMEXT_ENABLED
1070
   383
1070
     0
1001
ACAD_DSTYLE_DIMARC_LENGTH_SYMBOL
1070
   379
1070
     0
1001
ACAD_DSTYLE_DIMJOGGED_JOGANGLE_SYMBOL
1070
   384
1040
1.570796326794896
  0
DIMSTYLE
105
25D
330
A
100
AcDbSymbolTableRecord
100
AcDbDimStyleTableRecord
  2
副本Standard
 70
     0
  4
"
 41
16.0
 42
22.0
 44
8.0
 73
     0
 74
     0
 78
     8
 79
     2
140
16.0
143
0.03937
147
5.0
171
     1
172
     1
176
   256
177
   256
178
   256
179
     1
271
     1
272
     1
274
     1
278
    44
340
11
  0
ENDTAB
  0
TABLE
  2
BLOCK_RECORD
  5
1
330
0
100
AcDbSymbolTable
 70
    36
  0
BLOCK_RECORD
  5
21
330
1
100
AcDbSymbolTableRecord
100
AcDbBlockTableRecord
  2
*Model_Space
340
24
  0
BLOCK_RECORD
  5
1D
330
1
100
AcDbSymbolTableRecord
100
AcDbBlockTableRecord
  2
*Paper_Space
340
20
  0
BLOCK_RECORD
  5
25
330
1
100
AcDbSymbolTableRecord
100
AcDbBlockTableRecord
  2
*Paper_Space0
340
28
  0
BLOCK_RECORD
  5
2D
330
1
100
AcDbSymbolTableRecord
100
AcDbBlockTableRecord
  2
*D1
340
0
  0
BLOCK_RECORD
  5
35
330
1
100
AcDbSymbolTableRecord
100
AcDbBlockTableRecord
  2
*D2
340
0
  0
BLOCK_RECORD
  5
41
330
1
100
AcDbSymbolTableRecord
100
AcDbBlockTableRecord
  2
*D3
340
0
  0
BLOCK_RECORD
  5
4D
330
1
100
AcDbSymbolTableRecord
100
AcDbBlockTableRecord
  2
*D4
340
0
  0
BLOCK_RECORD
  5
55
330
1
100
AcDbSymbolTableRecord
100
AcDbBlockTableRecord
  2
*D5
340
0
  0
BLOCK_RECORD
  5
5D
330
1
100
AcDbSymbolTableRecord
100
AcDbBlockTableRecord
  2
*D6
340
0
  0
BLOCK_RECORD
  5
6B
330
1
100
AcDbSymbolTableRecord
100
AcDbBlockTableRecord
  2
*D7
340
0
  0
BLOCK_RECORD
  5
77
330
1
100
AcDbSymbolTableRecord
100
AcDbBlockTableRecord
  2
*D8
340
0
  0
BLOCK_RECORD
  5
DC
330
1
100
AcDbSymbolTableRecord
100
AcDbBlockTableRecord
  2
*D9
340
0
  0
BLOCK_RECORD
  5
E8
330
1
100
AcDbSymbolTableRecord
100
AcDbBlockTableRecord
  2
*D10
340
0
  0
BLOCK_RECORD
  5
F6
330
1
100
AcDbSymbolTableRecord
100
AcDbBlockTableRecord
  2
*D11
340
0
  0
BLOCK_RECORD
  5
107
330
1
100
AcDbSymbolTableRecord
100
AcDbBlockTableRecord
  2
*D12
340
0
  0
BLOCK_RECORD
  5
113
330
1
100
AcDbSymbolTableRecord
100
AcDbBlockTableRecord
  2
*D13
340
0
  0
BLOCK_RECORD
  5
11B
330
1
100
AcDbSymbolTableRecord
100
AcDbBlockTableRecord
  2
*D14
340
0
  0
BLOCK_RECORD
  5
12E
330
1
100
AcDbSymbolTableRecord
100
AcDbBlockTableRecord
  2
*D15
340
0
  0
BLOCK_RECORD
  5
13A
330
1
100
AcDbSymbolTableRecord
100
AcDbBlockTableRecord
  2
*D16
340
0
  0
BLOCK_RECORD
  5
1EF
330
1
100
AcDbSymbolTableRecord
100
AcDbBlockTableRecord
  2
*D17
340
0
  0
BLOCK_RECORD
  5
218
330
1
100
AcDbSymbolTableRecord
100
AcDbBlockTableRecord
  2
*D18
340
0
  0
BLOCK_RECORD
  5
228
330
1
100
AcDbSymbolTableRecord
100
AcDbBlockTableRecord
  2
*D19
340
0
  0
BLOCK_RECORD
  5
238
330
1
100
AcDbSymbolTableRecord
100
AcDbBlockTableRecord
  2
*D20
340
0
  0
BLOCK_RECORD
  5
28F
330
1
100
AcDbSymbolTableRecord
100
AcDbBlockTableRecord
  2
*D21
340
0
  0
BLOCK_RECORD
  5
2A9
330
1
100
AcDbSymbolTableRecord
100
AcDbBlockTableRecord
  2
*D22
340
0
  0
BLOCK_RECORD
  5
2C3
330
1
100
AcDbSymbolTableRecord
100
AcDbBlockTableRecord
  2
*D23
340
0
  0
BLOCK_RECORD
  5
2EB
330
1
100
AcDbSymbolTableRecord
100
AcDbBlockTableRecord
  2
*D24
340
0
  0
BLOCK_RECORD
  5
2FB
330
1
100
AcDbSymbolTableRecord
100
AcDbBlockTableRecord
  2
*D25
340
0
  0
BLOCK_RECORD
  5
30B
330
1
100
AcDbSymbolTableRecord
100
AcDbBlockTableRecord
  2
*D26
340
0
  0
BLOCK_RECORD
  5
347
330
1
100
AcDbSymbolTableRecord
100
AcDbBlockTableRecord
  2
*D27
340
0
  0
BLOCK_RECORD
  5
390
330
1
100
AcDbSymbolTableRecord
100
AcDbBlockTableRecord
  2
*D28
340
0
  0
BLOCK_RECORD
  5
3AA
330
1
100
AcDbSymbolTableRecord
100
AcDbBlockTableRecord
  2
*D29
340
0
  0
BLOCK_RECORD
  5
3CF
330
1
100
AcDbSymbolTableRecord
100
AcDbBlockTableRecord
  2
*D30
340
0
  0
BLOCK_RECORD
  5
3DF
330
1
100
AcDbSymbolTableRecord
100
AcDbBlockTableRecord
  2
*D31
340
0
  0
BLOCK_RECORD
  5
413
330
1
100
AcDbSymbolTableRecord
100
AcDbBlockTableRecord
  2
*D32
340
0
  0
BLOCK_RECORD
  5
425
330
1
100
AcDbSymbolTableRecord
100
AcDbBlockTableRecord
  2
*D33
340
0
  0
BLOCK_RECORD
  5
435
330
1
100
AcDbSymbolTableRecord
100
AcDbBlockTableRecord
  2
*D34
340
0
  0
BLOCK_RECORD
  5
445
330
1
100
AcDbSymbolTableRecord
100
AcDbBlockTableRecord
  2
*D35
340
0
  0
ENDTAB
  0
ENDSEC
  0
SECTION
  2
BLOCKS
  0
BLOCK
  5
22
330
21
100
AcDbEntity
  8
0
100
AcDbBlockBegin
  2
*Model_Space
 70
     0
 10
0.0
 20
0.0
 30
0.0
  3
*Model_Space
  1

  0
ENDBLK
  5
23
330
21
100
AcDbEntity
  8
0
100
AcDbBlockEnd
  0
BLOCK
  5
1E
330
1D
100
AcDbEntity
 67
     1
  8
0
100
AcDbBlockBegin
  2
*Paper_Space
 70
     0
 10
0.0
 20
0.0
 30
0.0
  3
*Paper_Space
  1

  0
ENDBLK
  5
1F
330
1D
100
AcDbEntity
 67
     1
  8
0
100
AcDbBlockEnd
  0
BLOCK
  5
26
330
25
100
AcDbEntity
  8
0
100
AcDbBlockBegin
  2
*Paper_Space0
 70
     0
 10
0.0
 20
0.0
 30
0.0
  3
*Paper_Space0
  1

  0
ENDBLK
  5
27
330
25
100
AcDbEntity
  8
0
100
AcDbBlockEnd
  0
BLOCK
  5
2E
330
2D
100
AcDbEntity
  8
0
100
AcDbBlockBegin
  2
*D1
 70
     1
 10
0.0
 20
0.0
 30
0.0
  3
*D1
  1

  0
LINE
  5
2F
330
2D
100
AcDbEntity
  8
标注
 62
     0
370
    -2
100
AcDbLine
 10
1767.096055369673
 20
445.9058458477811
 30
0.0
 11
1854.639884338829
 21
498.2516003023603
 31
0.0
  0
MTEXT
  5
30
330
2D
100
AcDbEntity
  8
标注
 62
     0
100
AcDbMText
 10
1799.303411967024
 20
479.7279714612176
 30
0.0
 40
15.0
 41
0.0
 71
     5
 72
     1
  1
2-R165
 11
0.8582728330309457
 21
0.5131936711233239
 31
0.0
 73
     1
 44
1.0
  0
SOLID
  5
31
330
2D
100
AcDbEntity
  8
标注
 62
     0
100
AcDbTrace
 10
1853.613496996583
 20
499.9681459684223
 30
0.0
 11
1855.666271681076
 21
496.5350546362985
 31
0.0
 12
1864.939158335201
 22
504.4099243558402
 32
0.0
 13
1864.939158335201
 23
504.4099243558402
 33
0.0
  0
POINT
  5
32
330
2D
100
AcDbEntity
  8
Defpoints
 62
     0
100
AcDbPoint
 10
1864.939158335201
 20
504.4099243558402
 30
0.0
  0
POINT
  5
33
330
2D
100
AcDbEntity
  8
Defpoints
 62
     0
100
AcDbPoint
 10
1723.324140885114
 20
419.7329686205033
 30
0.0
  0
ENDBLK
  5
34
330
2D
100
AcDbEntity
  8
0
100
AcDbBlockEnd
  0
BLOCK
  5
36
330
35
100
AcDbEntity
  8
0
100
AcDbBlockBegin
  2
*D2
 70
     1
 10
0.0
 20
0.0
 30
0.0
  3
*D2
  1

  0
LINE
  5
37
330
35
100
AcDbEntity
  8
标注
 62
     0
370
    -2
100
AcDbLine
 10
1662.188124199838
 20
591.6137249719261
 30
0.0
 11
1955.312206437451
 21
591.613724971926
 31
0.0
  0
LINE
  5
38
330
35
100
AcDbEntity
  8
标注
 62
     0
370
    -2
100
AcDbLine
 10
1790.324140885113
 20
111.6240772959479
 30
0.0
 11
1955.312206437451
 21
111.6240772959478
 31
0.0
  0
LINE
  5
39
330
35
100
AcDbEntity
  8
标注
 62
     0
370
    -2
100
AcDbLine
 10
1954.062206437451
 20
579.613724971926
 30
0.0
 11
1954.062206437451
 21
123.6240772959478
 31
0.0
  0
SOLID
  5
3A
330
35
100
AcDbEntity
  8
标注
 62
     0
100
AcDbTrace
 10
1952.062206437451
 20
579.613724971926
 30
0.0
 11
1956.062206437451
 21
579.613724971926
 31
0.0
 12
1954.062206437451
 22
591.613724971926
 32
0.0
 13
1954.062206437451
 23
591.613724971926
 33
0.0
  0
SOLID
  5
3B
330
35
100
AcDbEntity
  8
标注
 62
     0
100
AcDbTrace
 10
1952.062206437451
 20
123.6240772959478
 30
0.0
 11
1956.062206437451
 21
123.6240772959478
 31
0.0
 12
1954.062206437451
 22
111.6240772959478
 32
0.0
 13
1954.062206437451
 23
111.6240772959478
 33
0.0
  0
MTEXT
  5
3C
330
35
100
AcDbEntity
  8
标注
 62
     0
100
AcDbMText
 10
1941.562206437451
 20
351.6189011339372
 30
0.0
 40
15.0
 41
0.0
 71
     5
 72
     1
  1
480
 11
0.0000000000000001
 21
1.0
 31
0.0
 73
     1
 44
1.0
  0
POINT
  5
3D
330
35
100
AcDbEntity
  8
Defpoints
 62
     0
100
AcDbPoint
 10
1655.188124199838
 20
591.6137249719261
 30
0.0
  0
POINT
  5
3E
330
35
100
AcDbEntity
  8
Defpoints
 62
     0
100
AcDbPoint
 10
1783.324140885113
 20
111.6240772959479
 30
0.0
  0
POINT
  5
3F
330
35
100
AcDbEntity
  8
Defpoints
 62
     0
100
AcDbPoint
 10
1954.062206437451
 20
111.6240772959478
 30
0.0
  0
ENDBLK
  5
40
330
35
100
AcDbEntity
  8
0
100
AcDbBlockEnd
  0
BLOCK
  5
42
330
41
100
AcDbEntity
  8
0
100
AcDbBlockBegin
  2
*D3
 70
     1
 10
0.0
 20
0.0
 30
0.0
  3
*D3
  1

  0
LINE
  5
43
330
41
100
AcDbEntity
  8
标注
 62
     0
370
    -2
100
AcDbLine
 10
1428.324140885113
 20
209.6240772959482
 30
0.0
 11
1428.324140885113
 21
46.99956590887086
 31
0.0
  0
LINE
  5
44
330
41
100
AcDbEntity
  8
标注
 62
     0
370
    -2
100
AcDbLine
 10
1888.324140885114
 20
209.6240772959482
 30
0.0
 11
1888.324140885114
 21
46.99956590887086
 31
0.0
  0
LINE
  5
45
330
41
100
AcDbEntity
  8
标注
 62
     0
370
    -2
100
AcDbLine
 10
1440.324140885113
 20
48.24956590887087
 30
0.0
 11
1876.324140885113
 21
48.24956590887087
 31
0.0
  0
SOLID
  5
46
330
41
100
AcDbEntity
  8
标注
 62
     0
100
AcDbTrace
 10
1440.324140885113
 20
50.24956590887086
 30
0.0
 11
1440.324140885113
 21
46.24956590887085
 31
0.0
 12
1428.324140885113
 22
48.24956590887087
 32
0.0
 13
1428.324140885113
 23
48.24956590887087
 33
0.0
  0
SOLID
  5
47
330
41
100
AcDbEntity
  8
标注
 62
     0
100
AcDbTrace
 10
1876.324140885113
 20
50.24956590887086
 30
0.0
 11
1876.324140885113
 21
46.24956590887085
 31
0.0
 12
1888.324140885114
 22
48.24956590887087
 32
0.0
 13
1888.324140885114
 23
48.24956590887087
 33
0.0
  0
MTEXT
  5
48
330
41
100
AcDbEntity
  8
标注
 62
     0
100
AcDbMText
 10
1658.324140885113
 20
60.74956590887087
 30
0.0
 40
15.0
 41
0.0
 71
     5
 72
     1
  1
460
 73
     1
 44
1.0
  0
POINT
  5
49
330
41
100
AcDbEntity
  8
Defpoints
 62
     0
100
AcDbPoint
 10
1428.324140885113
 20
216.6240772959481
 30
0.0
  0
POINT
  5
4A
330
41
100
AcDbEntity
  8
Defpoints
 62
     0
100
AcDbPoint
 10
1888.324140885114
 20
216.6240772959481
 30
0.0
  0
POINT
  5
4B
330
41
100
AcDbEntity
  8
Defpoints
 62
     0
100
AcDbPoint
 10
1888.324140885114
 20
48.24956590887087
 30
0.0
  0
ENDBLK
  5
4C
330
41
100
AcDbEntity
  8
0
100
AcDbBlockEnd
  0
BLOCK
  5
4E
330
4D
100
AcDbEntity
  8
0
100
AcDbBlockBegin
  2
*D4
 70
     1
 10
0.0
 20
0.0
 30
0.0
  3
*D4
  1

  0
LINE
  5
4F
330
4D
100
AcDbEntity
  8
标注
 62
     0
370
    -2
100
AcDbLine
 10
1779.154845446391
 20
221.6107571076672
 30
0.0
 11
1842.977137162262
 21
145.2761969128613
 31
0.0
  0
MTEXT
  5
50
330
4D
100
AcDbEntity
  8
标注
 62
     0
100
AcDbMText
 10
1816.807179768044
 20
196.0644419109397
 30
0.0
 40
15.0
 41
0.0
 71
     5
 72
     1
  1
2-R105
 11
0.6414300674961809
 21
-0.7671815094955332
 31
0.0
 73
     1
 44
1.0
  0
SOLID
  5
51
330
4D
100
AcDbEntity
  8
标注
 62
     0
100
AcDbTrace
 10
1844.511500181252
 20
146.5590570478537
 30
0.0
 11
1841.442774143271
 21
143.993336777869
 31
0.0
 12
1850.674297972216
 22
136.0700187989149
 32
0.0
 13
1850.674297972216
 23
136.0700187989149
 33
0.0
  0
POINT
  5
52
330
4D
100
AcDbEntity
  8
Defpoints
 62
     0
100
AcDbPoint
 10
1850.674297972216
 20
136.0700187989149
 30
0.0
  0
POINT
  5
53
330
4D
100
AcDbEntity
  8
Defpoints
 62
     0
100
AcDbPoint
 10
1783.324140885114
 20
216.6240772959485
 30
0.0
  0
ENDBLK
  5
54
330
4D
100
AcDbEntity
  8
0
100
AcDbBlockEnd
  0
BLOCK
  5
56
330
55
100
AcDbEntity
  8
0
100
AcDbBlockBegin
  2
*D5
 70
     1
 10
0.0
 20
0.0
 30
0.0
  3
*D5
  1

  0
LINE
  5
57
330
55
100
AcDbEntity
  8
标注
 62
     0
370
    -2
100
AcDbLine
 10
1713.619271438607
 20
498.6429885255691
 30
0.0
 11
1724.649647222594
 21
574.8488335117907
 31
0.0
  0
MTEXT
  5
58
330
55
100
AcDbEntity
  8
标注
 62
     0
100
AcDbMText
 10
1705.903870797721
 20
532.5984386470238
 30
0.0
 40
15.0
 41
0.0
 71
     5
 72
     1
  1
R475
 11
0.1432516335582736
 21
0.9896862985223581
 31
0.0
 73
     1
 44
1.0
  0
SOLID
  5
59
330
55
100
AcDbEntity
  8
标注
 62
     0
100
AcDbTrace
 10
1722.670274625549
 20
575.1353367789072
 30
0.0
 11
1726.629019819639
 21
574.5623302446744
 31
0.0
 12
1726.368666825293
 22
586.7250690940591
 32
0.0
 13
1726.368666825293
 23
586.7250690940591
 33
0.0
  0
POINT
  5
5A
330
55
100
AcDbEntity
  8
Defpoints
 62
     0
100
AcDbPoint
 10
1726.368666825293
 20
586.7250690940591
 30
0.0
  0
POINT
  5
5B
330
55
100
AcDbEntity
  8
Defpoints
 62
     0
100
AcDbPoint
 10
1658.324140885115
 20
116.6240772959481
 30
0.0
  0
ENDBLK
  5
5C
330
55
100
AcDbEntity
  8
0
100
AcDbBlockEnd
  0
BLOCK
  5
5E
330
5D
100
AcDbEntity
  8
0
100
AcDbBlockBegin
  2
*D6
 70
     1
 10
0.0
 20
0.0
 30
0.0
  3
*D6
  1

  0
LINE
  5
5F
330
5D
100
AcDbEntity
  8
标注
 62
     0
370
    -2
100
AcDbLine
 10
1648.188124199838
 20
104.6240772959481
 30
0.0
 11
1630.094752879406
 21
104.6240772959481
 31
0.0
  0
LINE
  5
60
330
5D
100
AcDbEntity
  8
标注
 62
     0
370
    -2
100
AcDbLine
 10
1648.188124199838
 20
111.624077295948
 30
0.0
 11
1630.094752879406
 21
111.624077295948
 31
0.0
  0
LINE
  5
61
330
5D
100
AcDbEntity
  8
标注
 62
     0
370
    -2
100
AcDbLine
 10
1631.344752879406
 20
92.62407729594809
 30
0.0
 11
1631.344752879406
 21
80.62407729594809
 31
0.0
  0
LINE
  5
62
330
5D
100
AcDbEntity
  8
标注
 62
     0
370
    -2
100
AcDbLine
 10
1631.344752879406
 20
123.624077295948
 30
0.0
 11
1631.344752879406
 21
155.624077295948
 31
0.0
  0
LINE
  5
63
330
5D
100
AcDbEntity
  8
标注
 62
     0
370
    -2
100
AcDbLine
 10
1631.344752879406
 20
104.6240772959481
 30
0.0
 11
1631.344752879406
 21
111.624077295948
 31
0.0
  0
SOLID
  5
64
330
5D
100
AcDbEntity
  8
标注
 62
     0
100
AcDbTrace
 10
1629.344752879406
 20
92.62407729594809
 30
0.0
 11
1633.344752879406
 21
92.62407729594809
 31
0.0
 12
1631.344752879406
 22
104.6240772959481
 32
0.0
 13
1631.344752879406
 23
104.6240772959481
 33
0.0
  0
SOLID
  5
65
330
5D
100
AcDbEntity
  8
标注
 62
     0
100
AcDbTrace
 10
1629.344752879406
 20
123.624077295948
 30
0.0
 11
1633.344752879406
 21
123.624077295948
 31
0.0
 12
1631.344752879406
 22
111.624077295948
 32
0.0
 13
1631.344752879406
 23
111.624077295948
 33
0.0
  0
MTEXT
  5
66
330
5D
100
AcDbEntity
  8
标注
 62
     0
100
AcDbMText
 10
1618.844752879406
 20
145.6240772959483
 30
0.0
 40
15.0
 41
0.0
 71
     5
 72
     1
  1
7
 11
0.0000000000000001
 21
1.0
 31
0.0
 73
     1
 44
1.0
  0
POINT
  5
67
330
5D
100
AcDbEntity
  8
Defpoints
 62
     0
100
AcDbPoint
 10
1655.188124199838
 20
104.6240772959481
 30
0.0
  0
POINT
  5
68
330
5D
100
AcDbEntity
  8
Defpoints
 62
     0
100
AcDbPoint
 10
1655.188124199838
 20
111.624077295948
 30
0.0
  0
POINT
  5
69
330
5D
100
AcDbEntity
  8
Defpoints
 62
     0
100
AcDbPoint
 10
1631.344752879406
 20
111.624077295948
 30
0.0
  0
ENDBLK
  5
6A
330
5D
100
AcDbEntity
  8
0
100
AcDbBlockEnd
  0
BLOCK
  5
6C
330
6B
100
AcDbEntity
  8
0
100
AcDbBlockBegin
  2
*D7
 70
     1
 10
0.0
 20
0.0
 30
0.0
  3
*D7
  1

  0
LINE
  5
6D
330
6B
100
AcDbEntity
  8
标注
 62
     0
370
    -2
100
AcDbLine
 10
1790.324140885114
 20
104.6240772959481
 30
0.0
 11
2001.847179963326
 21
104.6240772959481
 31
0.0
  0
LINE
  5
6E
330
6B
100
AcDbEntity
  8
标注
 62
     0
370
    -2
100
AcDbLine
 10
1662.188124199838
 20
598.6138753200862
 30
0.0
 11
2001.847179963327
 21
598.6138753200862
 31
0.0
  0
LINE
  5
6F
330
6B
100
AcDbEntity
  8
标注
 62
     0
370
    -2
100
AcDbLine
 10
2000.597179963326
 20
116.6240772959481
 30
0.0
 11
2000.597179963326
 21
586.6138753200861
 31
0.0
  0
SOLID
  5
70
330
6B
100
AcDbEntity
  8
标注
 62
     0
100
AcDbTrace
 10
1998.597179963326
 20
116.6240772959481
 30
0.0
 11
2002.597179963326
 21
116.6240772959481
 31
0.0
 12
2000.597179963326
 22
104.6240772959481
 32
0.0
 13
2000.597179963326
 23
104.6240772959481
 33
0.0
  0
SOLID
  5
71
330
6B
100
AcDbEntity
  8
标注
 62
     0
100
AcDbTrace
 10
1998.597179963326
 20
586.6138753200861
 30
0.0
 11
2002.597179963327
 21
586.6138753200861
 31
0.0
 12
2000.597179963326
 22
598.6138753200862
 32
0.0
 13
2000.597179963326
 23
598.6138753200862
 33
0.0
  0
MTEXT
  5
72
330
6B
100
AcDbEntity
  8
标注
 62
     0
100
AcDbMText
 10
1988.097179963326
 20
351.6189763080175
 30
0.0
 40
15.0
 41
0.0
 71
     5
 72
     1
  1
494
 11
0.0000000000000001
 21
1.0
 31
0.0
 73
     1
 44
1.0
  0
POINT
  5
73
330
6B
100
AcDbEntity
  8
Defpoints
 62
     0
100
AcDbPoint
 10
1783.324140885113
 20
104.6240772959481
 30
0.0
  0
POINT
  5
74
330
6B
100
AcDbEntity
  8
Defpoints
 62
     0
100
AcDbPoint
 10
1655.188124199838
 20
598.6138753200862
 30
0.0
  0
POINT
  5
75
330
6B
100
AcDbEntity
  8
Defpoints
 62
     0
100
AcDbPoint
 10
2000.597179963326
 20
598.6138753200862
 30
0.0
  0
ENDBLK
  5
76
330
6B
100
AcDbEntity
  8
0
100
AcDbBlockEnd
  0
BLOCK
  5
78
330
77
100
AcDbEntity
  8
0
100
AcDbBlockBegin
  2
*D8
 70
     1
 10
0.0
 20
0.0
 30
0.0
  3
*D8
  1

  0
LINE
  5
79
330
77
100
AcDbEntity
  8
标注
 62
     0
370
    -2
100
AcDbLine
 10
1421.324140885113
 20
209.6240772959482
 30
0.0
 11
1421.324140885113
 21
14.27779737384117
 31
0.0
  0
LINE
  5
7A
330
77
100
AcDbEntity
  8
标注
 62
     0
370
    -2
100
AcDbLine
 10
1895.324140885113
 20
209.6240772959482
 30
0.0
 11
1895.324140885113
 21
14.27779737384117
 31
0.0
  0
LINE
  5
7B
330
77
100
AcDbEntity
  8
标注
 62
     0
370
    -2
100
AcDbLine
 10
1433.324140885114
 20
15.52779737384117
 30
0.0
 11
1883.324140885114
 21
15.52779737384117
 31
0.0
  0
SOLID
  5
7C
330
77
100
AcDbEntity
  8
标注
 62
     0
100
AcDbTrace
 10
1433.324140885114
 20
17.52779737384116
 30
0.0
 11
1433.324140885114
 21
13.52779737384117
 31
0.0
 12
1421.324140885113
 22
15.52779737384117
 32
0.0
 13
1421.324140885113
 23
15.52779737384117
 33
0.0
  0
SOLID
  5
7D
330
77
100
AcDbEntity
  8
标注
 62
     0
100
AcDbTrace
 10
1883.324140885114
 20
17.52779737384116
 30
0.0
 11
1883.324140885114
 21
13.52779737384117
 31
0.0
 12
1895.324140885113
 22
15.52779737384117
 32
0.0
 13
1895.324140885113
 23
15.52779737384117
 33
0.0
  0
MTEXT
  5
7E
330
77
100
AcDbEntity
  8
标注
 62
     0
100
AcDbMText
 10
1658.324140885113
 20
28.02779737384117
 30
0.0
 40
15.0
 41
0.0
 71
     5
 72
     1
  1
474
 73
     1
 44
1.0
  0
POINT
  5
7F
330
77
100
AcDbEntity
  8
Defpoints
 62
     0
100
AcDbPoint
 10
1421.324140885113
 20
216.6240772959481
 30
0.0
  0
POINT
  5
80
330
77
100
AcDbEntity
  8
Defpoints
 62
     0
100
AcDbPoint
 10
1895.324140885113
 20
216.6240772959481
 30
0.0
  0
POINT
  5
81
330
77
100
AcDbEntity
  8
Defpoints
 62
     0
100
AcDbPoint
 10
1895.324140885113
 20
15.52779737384117
 30
0.0
  0
ENDBLK
  5
82
330
77
100
AcDbEntity
  8
0
100
AcDbBlockEnd
  0
BLOCK
  5
E6
330
DC
100
AcDbEntity
  8
0
100
AcDbBlockBegin
  2
*D9
 70
     1
 10
0.0
 20
0.0
 30
0.0
  3
*D9
  1

  0
LINE
  5
1C1
330
DC
100
AcDbEntity
  8
标注
 62
     0
370
    -2
100
AcDbLine
 10
402.0499509234626
 20
662.5935315758002
 30
0.0
 11
682.1740331610757
 21
662.5935315758002
 31
0.0
  0
LINE
  5
1C2
330
DC
100
AcDbEntity
  8
标注
 62
     0
370
    -2
100
AcDbLine
 10
530.1859676087376
 20
182.603883899822
 30
0.0
 11
682.1740331610754
 21
182.6038838998219
 31
0.0
  0
LINE
  5
1C3
330
DC
100
AcDbEntity
  8
标注
 62
     0
370
    -2
100
AcDbLine
 10
680.9240331610757
 20
650.5935315758001
 30
0.0
 11
680.9240331610757
 21
440.0987077378109
 31
0.0
  0
LINE
  5
1C4
330
DC
100
AcDbEntity
  8
标注
 62
     0
370
    -2
100
AcDbLine
 10
680.9240331610756
 20
194.6038838998219
 30
0.0
 11
680.9240331610757
 21
405.0987077378109
 31
0.0
  0
SOLID
  5
1C5
330
DC
100
AcDbEntity
  8
标注
 62
     0
100
AcDbTrace
 10
678.9240331610757
 20
650.5935315758001
 30
0.0
 11
682.9240331610757
 21
650.5935315758001
 31
0.0
 12
680.9240331610757
 22
662.5935315758002
 32
0.0
 13
680.9240331610757
 23
662.5935315758002
 33
0.0
  0
SOLID
  5
1C6
330
DC
100
AcDbEntity
  8
标注
 62
     0
100
AcDbTrace
 10
678.9240331610756
 20
194.6038838998219
 30
0.0
 11
682.9240331610756
 21
194.6038838998219
 31
0.0
 12
680.9240331610756
 22
182.6038838998219
 32
0.0
 13
680.9240331610756
 23
182.6038838998219
 33
0.0
  0
MTEXT
  5
1C7
330
DC
100
AcDbEntity
  8
标注
 62
     0
100
AcDbMText
 10
680.9240331610756
 20
422.5987077378111
 30
0.0
 40
10.0
 41
0.0
 71
     5
 72
     1
  1
480
 11
0.0000000000000001
 21
1.0
 31
0.0
 73
     1
 44
1.0
  0
POINT
  5
1C8
330
DC
100
AcDbEntity
  8
Defpoints
 62
     0
100
AcDbPoint
 10
382.0499509234628
 20
662.5935315758002
 30
0.0
  0
POINT
  5
1C9
330
DC
100
AcDbEntity
  8
Defpoints
 62
     0
100
AcDbPoint
 10
510.1859676087376
 20
182.603883899822
 30
0.0
  0
POINT
  5
1CA
330
DC
100
AcDbEntity
  8
Defpoints
 62
     0
100
AcDbPoint
 10
680.9240331610756
 20
182.6038838998219
 30
0.0
  0
ENDBLK
  5
E7
330
DC
100
AcDbEntity
  8
0
100
AcDbBlockEnd
  0
BLOCK
  5
F4
330
E8
100
AcDbEntity
  8
0
100
AcDbBlockBegin
  2
*D10
 70
     1
 10
0.0
 20
0.0
 30
0.0
  3
*D10
  1

  0
LINE
  5
123
330
E8
100
AcDbEntity
  8
标注
 62
     0
370
    -2
100
AcDbLine
 10
375.0499509234628
 20
175.6038838998222
 30
0.0
 11
356.9565796030308
 21
175.6038838998222
 31
0.0
  0
LINE
  5
124
330
E8
100
AcDbEntity
  8
标注
 62
     0
370
    -2
100
AcDbLine
 10
375.0499509234628
 20
182.603883899822
 30
0.0
 11
356.9565796030308
 21
182.603883899822
 31
0.0
  0
LINE
  5
125
330
E8
100
AcDbEntity
  8
标注
 62
     0
370
    -2
100
AcDbLine
 10
358.2065796030308
 20
163.6038838998221
 30
0.0
 11
358.2065796030308
 21
151.6038838998222
 31
0.0
  0
LINE
  5
126
330
E8
100
AcDbEntity
  8
标注
 62
     0
370
    -2
100
AcDbLine
 10
358.2065796030308
 20
194.6038838998221
 30
0.0
 11
358.2065796030308
 21
226.6038838998221
 31
0.0
  0
LINE
  5
127
330
E8
100
AcDbEntity
  8
标注
 62
     0
370
    -2
100
AcDbLine
 10
358.2065796030308
 20
175.6038838998222
 30
0.0
 11
358.2065796030308
 21
182.603883899822
 31
0.0
  0
SOLID
  5
128
330
E8
100
AcDbEntity
  8
标注
 62
     0
100
AcDbTrace
 10
356.2065796030308
 20
163.6038838998221
 30
0.0
 11
360.2065796030308
 21
163.6038838998221
 31
0.0
 12
358.2065796030308
 22
175.6038838998222
 32
0.0
 13
358.2065796030308
 23
175.6038838998222
 33
0.0
  0
SOLID
  5
129
330
E8
100
AcDbEntity
  8
标注
 62
     0
100
AcDbTrace
 10
356.2065796030308
 20
194.6038838998221
 30
0.0
 11
360.2065796030308
 21
194.6038838998221
 31
0.0
 12
358.2065796030308
 22
182.603883899822
 32
0.0
 13
358.2065796030308
 23
182.603883899822
 33
0.0
  0
MTEXT
  5
12A
330
E8
100
AcDbEntity
  8
标注
 62
     0
100
AcDbMText
 10
345.7065796030308
 20
216.6038838998221
 30
0.0
 40
15.0
 41
0.0
 71
     5
 72
     1
  1
7
 11
0.0000000000000001
 21
1.0
 31
0.0
 73
     1
 44
1.0
  0
POINT
  5
12B
330
E8
100
AcDbEntity
  8
Defpoints
 62
     0
100
AcDbPoint
 10
382.0499509234628
 20
175.6038838998222
 30
0.0
  0
POINT
  5
12C
330
E8
100
AcDbEntity
  8
Defpoints
 62
     0
100
AcDbPoint
 10
382.0499509234628
 20
182.603883899822
 30
0.0
  0
POINT
  5
12D
330
E8
100
AcDbEntity
  8
Defpoints
 62
     0
100
AcDbPoint
 10
358.2065796030308
 20
182.603883899822
 30
0.0
  0
ENDBLK
  5
F5
330
E8
100
AcDbEntity
  8
0
100
AcDbBlockEnd
  0
BLOCK
  5
FC
330
F6
100
AcDbEntity
  8
0
100
AcDbBlockBegin
  2
*D11
 70
     1
 10
0.0
 20
0.0
 30
0.0
  3
*D11
  1

  0
LINE
  5
1DF
330
F6
100
AcDbEntity
  8
标注
 62
     0
370
    -2
100
AcDbLine
 10
541.1628879099987
 20
545.1113043634378
 30
0.0
 11
581.5017110624531
 21
569.2314069062341
 31
0.0
  0
MTEXT
  5
1E0
330
F6
100
AcDbEntity
  8
标注
 62
     0
100
AcDbMText
 10
476.7924254326777
 20
506.6217790291886
 30
0.0
 40
10.0
 41
0.0
 71
     5
 72
     1
  1
R165mm [R6 1/2"]
 11
0.8582728330309457
 21
0.5131936711233239
 31
0.0
 73
     1
 44
1.0
  0
SOLID
  5
1E1
330
F6
100
AcDbEntity
  8
标注
 62
     0
100
AcDbTrace
 10
580.4753237202065
 20
570.9479525722961
 30
0.0
 11
582.5280984047
 21
567.5148612401723
 31
0.0
 12
591.8009850588246
 22
575.389730959714
 32
0.0
 13
591.8009850588246
 23
575.389730959714
 33
0.0
  0
POINT
  5
1E2
330
F6
100
AcDbEntity
  8
Defpoints
 62
     0
100
AcDbPoint
 10
591.8009850588246
 20
575.389730959714
 30
0.0
  0
POINT
  5
1E3
330
F6
100
AcDbEntity
  8
Defpoints
 62
     0
100
AcDbPoint
 10
450.1859676087376
 20
490.7127752243771
 30
0.0
  0
ENDBLK
  5
FD
330
F6
100
AcDbEntity
  8
0
100
AcDbBlockEnd
  0
BLOCK
  5
111
330
107
100
AcDbEntity
  8
0
100
AcDbBlockBegin
  2
*D12
 70
     1
 10
0.0
 20
0.0
 30
0.0
  3
*D12
  1

  0
LINE
  5
1CB
330
107
100
AcDbEntity
  8
标注
 62
     0
370
    -2
100
AcDbLine
 10
155.1859676087376
 20
267.6038838998222
 30
0.0
 11
155.1859676087376
 21
117.9793725127449
 31
0.0
  0
LINE
  5
1CC
330
107
100
AcDbEntity
  8
标注
 62
     0
370
    -2
100
AcDbLine
 10
615.1859676087387
 20
267.6038838998222
 30
0.0
 11
615.1859676087387
 21
117.9793725127449
 31
0.0
  0
LINE
  5
1CD
330
107
100
AcDbEntity
  8
标注
 62
     0
370
    -2
100
AcDbLine
 10
167.1859676087376
 20
119.2293725127449
 30
0.0
 11
316.019300942071
 21
119.2293725127449
 31
0.0
  0
LINE
  5
1CE
330
107
100
AcDbEntity
  8
标注
 62
     0
370
    -2
100
AcDbLine
 10
603.1859676087387
 20
119.2293725127449
 30
0.0
 11
454.3526342754041
 21
119.2293725127449
 31
0.0
  0
SOLID
  5
1CF
330
107
100
AcDbEntity
  8
标注
 62
     0
100
AcDbTrace
 10
167.1859676087376
 20
121.2293725127449
 30
0.0
 11
167.1859676087376
 21
117.2293725127449
 31
0.0
 12
155.1859676087376
 22
119.2293725127449
 32
0.0
 13
155.1859676087376
 23
119.2293725127449
 33
0.0
  0
SOLID
  5
1D0
330
107
100
AcDbEntity
  8
标注
 62
     0
100
AcDbTrace
 10
603.1859676087387
 20
121.2293725127449
 30
0.0
 11
603.1859676087387
 21
117.2293725127449
 31
0.0
 12
615.1859676087387
 22
119.2293725127449
 32
0.0
 13
615.1859676087387
 23
119.2293725127449
 33
0.0
  0
MTEXT
  5
1D1
330
107
100
AcDbEntity
  8
标注
 62
     0
100
AcDbMText
 10
385.1859676087376
 20
119.2293725127449
 30
0.0
 40
10.0
 41
0.0
 71
     5
 72
     1
  1
460mm [18 1/8"]
 73
     1
 44
1.0
  0
POINT
  5
1D2
330
107
100
AcDbEntity
  8
Defpoints
 62
     0
100
AcDbPoint
 10
155.1859676087376
 20
287.6038838998222
 30
0.0
  0
POINT
  5
1D3
330
107
100
AcDbEntity
  8
Defpoints
 62
     0
100
AcDbPoint
 10
615.1859676087387
 20
287.6038838998222
 30
0.0
  0
POINT
  5
1D4
330
107
100
AcDbEntity
  8
Defpoints
 62
     0
100
AcDbPoint
 10
615.1859676087387
 20
119.2293725127449
 30
0.0
  0
ENDBLK
  5
112
330
107
100
AcDbEntity
  8
0
100
AcDbBlockEnd
  0
BLOCK
  5
119
330
113
100
AcDbEntity
  8
0
100
AcDbBlockBegin
  2
*D13
 70
     1
 10
0.0
 20
0.0
 30
0.0
  3
*D13
  1

  0
LINE
  5
1E4
330
113
100
AcDbEntity
  8
标注
 62
     0
370
    -2
100
AcDbLine
 10
539.9590132416874
 20
251.9938755007346
 30
0.0
 11
569.8389638858846
 21
216.2560035167346
 31
0.0
  0
MTEXT
  5
1E5
330
113
100
AcDbEntity
  8
标注
 62
     0
100
AcDbMText
 10
492.3862832357204
 20
308.8931707883198
 30
0.0
 40
10.0
 41
0.0
 71
     5
 72
     1
  1
R105mm [R4 1/8"]
 11
0.6414300674961849
 21
-0.7671815094955298
 31
0.0
 73
     1
 44
1.0
  0
SOLID
  5
1E6
330
113
100
AcDbEntity
  8
标注
 62
     0
100
AcDbTrace
 10
571.3733269048756
 20
217.5388636517269
 30
0.0
 11
568.3046008668932
 21
214.9731433817422
 31
0.0
 12
577.5361246958388
 22
207.0498254027882
 32
0.0
 13
577.5361246958388
 23
207.0498254027882
 33
0.0
  0
POINT
  5
1E7
330
113
100
AcDbEntity
  8
Defpoints
 62
     0
100
AcDbPoint
 10
577.5361246958388
 20
207.0498254027882
 30
0.0
  0
POINT
  5
1E8
330
113
100
AcDbEntity
  8
Defpoints
 62
     0
100
AcDbPoint
 10
510.185967608737
 20
287.6038838998218
 30
0.0
  0
ENDBLK
  5
11A
330
113
100
AcDbEntity
  8
0
100
AcDbBlockEnd
  0
BLOCK
  5
121
330
11B
100
AcDbEntity
  8
0
100
AcDbBlockBegin
  2
*D14
 70
     1
 10
0.0
 20
0.0
 30
0.0
  3
*D14
  1

  0
LINE
  5
1E9
330
11B
100
AcDbEntity
  8
标注
 62
     0
370
    -2
100
AcDbLine
 10
303.5695609460507
 20
588.6842610168939
 30
0.0
 11
292.8615800210713
 21
641.3055562094519
 31
0.0
  0
MTEXT
  5
1EA
330
11B
100
AcDbEntity
  8
标注
 62
     0
100
AcDbMText
 10
319.8542801389799
 20
508.6576881473034
 30
0.0
 40
10.0
 41
0.0
 71
     5
 72
     1
  1
R475mm [R18 3/4"]
 11
0.1994047248113789
 21
-0.9799172188113127
 31
0.0
 73
     1
 44
1.0
  0
SOLID
  5
1EB
330
11B
100
AcDbEntity
  8
标注
 62
     0
100
AcDbTrace
 10
294.821414458694
 20
641.7043656590748
 30
0.0
 11
290.9017455834487
 21
640.9067467598291
 31
0.0
 12
290.4687233233348
 22
653.0645628351877
 32
0.0
 13
290.4687233233348
 23
653.0645628351877
 33
0.0
  0
POINT
  5
1EC
330
11B
100
AcDbEntity
  8
Defpoints
 62
     0
100
AcDbPoint
 10
290.4687233233348
 20
653.0645628351877
 30
0.0
  0
POINT
  5
1ED
330
11B
100
AcDbEntity
  8
Defpoints
 62
     0
100
AcDbPoint
 10
385.185967608738
 20
187.6038838998223
 30
0.0
  0
ENDBLK
  5
122
330
11B
100
AcDbEntity
  8
0
100
AcDbBlockEnd
  0
BLOCK
  5
138
330
12E
100
AcDbEntity
  8
0
100
AcDbBlockBegin
  2
*D15
 70
     1
 10
0.0
 20
0.0
 30
0.0
  3
*D15
  1

  0
LINE
  5
12F
330
12E
100
AcDbEntity
  8
标注
 62
     0
370
    -2
100
AcDbLine
 10
517.1859676087376
 20
175.6038838998222
 30
0.0
 11
728.7090066869507
 21
175.6038838998221
 31
0.0
  0
LINE
  5
130
330
12E
100
AcDbEntity
  8
标注
 62
     0
370
    -2
100
AcDbLine
 10
389.0499509234628
 20
669.5936819239602
 30
0.0
 11
728.7090066869507
 21
669.5936819239602
 31
0.0
  0
LINE
  5
131
330
12E
100
AcDbEntity
  8
标注
 62
     0
370
    -2
100
AcDbLine
 10
727.4590066869507
 20
187.6038838998221
 30
0.0
 11
727.4590066869507
 21
657.5936819239602
 31
0.0
  0
SOLID
  5
132
330
12E
100
AcDbEntity
  8
标注
 62
     0
100
AcDbTrace
 10
725.4590066869507
 20
187.6038838998221
 30
0.0
 11
729.4590066869507
 21
187.6038838998221
 31
0.0
 12
727.4590066869507
 22
175.6038838998221
 32
0.0
 13
727.4590066869507
 23
175.6038838998221
 33
0.0
  0
SOLID
  5
133
330
12E
100
AcDbEntity
  8
标注
 62
     0
100
AcDbTrace
 10
725.4590066869507
 20
657.5936819239602
 30
0.0
 11
729.4590066869507
 21
657.5936819239602
 31
0.0
 12
727.4590066869507
 22
669.5936819239602
 32
0.0
 13
727.4590066869507
 23
669.5936819239602
 33
0.0
  0
MTEXT
  5
134
330
12E
100
AcDbEntity
  8
标注
 62
     0
100
AcDbMText
 10
714.9590066869507
 20
422.5987829118913
 30
0.0
 40
15.0
 41
0.0
 71
     5
 72
     1
  1
494
 11
0.0000000000000001
 21
1.0
 31
0.0
 73
     1
 44
1.0
  0
POINT
  5
135
330
12E
100
AcDbEntity
  8
Defpoints
 62
     0
100
AcDbPoint
 10
510.1859676087376
 20
175.6038838998222
 30
0.0
  0
POINT
  5
136
330
12E
100
AcDbEntity
  8
Defpoints
 62
     0
100
AcDbPoint
 10
382.0499509234628
 20
669.5936819239602
 30
0.0
  0
POINT
  5
137
330
12E
100
AcDbEntity
  8
Defpoints
 62
     0
100
AcDbPoint
 10
727.4590066869507
 20
669.5936819239602
 30
0.0
  0
ENDBLK
  5
139
330
12E
100
AcDbEntity
  8
0
100
AcDbBlockEnd
  0
BLOCK
  5
144
330
13A
100
AcDbEntity
  8
0
100
AcDbBlockBegin
  2
*D16
 70
     1
 10
0.0
 20
0.0
 30
0.0
  3
*D16
  1

  0
LINE
  5
13B
330
13A
100
AcDbEntity
  8
标注
 62
     0
370
    -2
100
AcDbLine
 10
148.1859676087376
 20
280.6038838998222
 30
0.0
 11
148.1859676087376
 21
85.25760397771524
 31
0.0
  0
LINE
  5
13C
330
13A
100
AcDbEntity
  8
标注
 62
     0
370
    -2
100
AcDbLine
 10
622.1859676087376
 20
280.6038838998222
 30
0.0
 11
622.1859676087376
 21
85.25760397771524
 31
0.0
  0
LINE
  5
13D
330
13A
100
AcDbEntity
  8
标注
 62
     0
370
    -2
100
AcDbLine
 10
160.1859676087376
 20
86.50760397771522
 30
0.0
 11
610.1859676087376
 21
86.50760397771522
 31
0.0
  0
SOLID
  5
13E
330
13A
100
AcDbEntity
  8
标注
 62
     0
100
AcDbTrace
 10
160.1859676087376
 20
88.50760397771521
 30
0.0
 11
160.1859676087376
 21
84.50760397771523
 31
0.0
 12
148.1859676087376
 22
86.50760397771522
 32
0.0
 13
148.1859676087376
 23
86.50760397771522
 33
0.0
  0
SOLID
  5
13F
330
13A
100
AcDbEntity
  8
标注
 62
     0
100
AcDbTrace
 10
610.1859676087376
 20
88.50760397771521
 30
0.0
 11
610.1859676087376
 21
84.50760397771523
 31
0.0
 12
622.1859676087376
 22
86.50760397771522
 32
0.0
 13
622.1859676087376
 23
86.50760397771522
 33
0.0
  0
MTEXT
  5
140
330
13A
100
AcDbEntity
  8
标注
 62
     0
100
AcDbMText
 10
385.1859676087376
 20
99.00760397771522
 30
0.0
 40
15.0
 41
0.0
 71
     5
 72
     1
  1
474
 73
     1
 44
1.0
  0
POINT
  5
141
330
13A
100
AcDbEntity
  8
Defpoints
 62
     0
100
AcDbPoint
 10
148.1859676087376
 20
287.6038838998222
 30
0.0
  0
POINT
  5
142
330
13A
100
AcDbEntity
  8
Defpoints
 62
     0
100
AcDbPoint
 10
622.1859676087376
 20
287.6038838998222
 30
0.0
  0
POINT
  5
143
330
13A
100
AcDbEntity
  8
Defpoints
 62
     0
100
AcDbPoint
 10
622.1859676087376
 20
86.50760397771522
 30
0.0
  0
ENDBLK
  5
145
330
13A
100
AcDbEntity
  8
0
100
AcDbBlockEnd
  0
BLOCK
  5
1FA
330
1EF
100
AcDbEntity
  8
0
100
AcDbBlockBegin
  2
*D17
 70
     1
 10
0.0
 20
0.0
 30
0.0
  3
*D17
  1

  0
LINE
  5
206
330
1EF
100
AcDbEntity
  8
标注
 62
     0
370
    -2
100
AcDbLine
 10
402.0499509234626
 20
662.5935315758002
 30
0.0
 11
682.9965224126407
 21
662.5935315758002
 31
0.0
  0
LINE
  5
207
330
1EF
100
AcDbEntity
  8
标注
 62
     0
370
    -2
100
AcDbLine
 10
530.1859676087376
 20
182.603883899822
 30
0.0
 11
682.9965224126405
 21
182.6038838998219
 31
0.0
  0
LINE
  5
208
330
1EF
100
AcDbEntity
  8
标注
 62
     0
370
    -2
100
AcDbLine
 10
681.7465224126407
 20
650.5935315758001
 30
0.0
 11
681.7465224126407
 21
493.4320410711443
 31
0.0
  0
LINE
  5
209
330
1EF
100
AcDbEntity
  8
标注
 62
     0
370
    -2
100
AcDbLine
 10
681.7465224126406
 20
194.6038838998219
 30
0.0
 11
681.7465224126407
 21
351.7653744044777
 31
0.0
  0
SOLID
  5
20A
330
1EF
100
AcDbEntity
  8
标注
 62
     0
100
AcDbTrace
 10
679.7465224126407
 20
650.5935315758001
 30
0.0
 11
683.7465224126407
 21
650.5935315758001
 31
0.0
 12
681.7465224126407
 22
662.5935315758002
 32
0.0
 13
681.7465224126407
 23
662.5935315758002
 33
0.0
  0
SOLID
  5
20B
330
1EF
100
AcDbEntity
  8
标注
 62
     0
100
AcDbTrace
 10
679.7465224126406
 20
194.6038838998219
 30
0.0
 11
683.7465224126406
 21
194.6038838998219
 31
0.0
 12
681.7465224126406
 22
182.6038838998219
 32
0.0
 13
681.7465224126406
 23
182.6038838998219
 33
0.0
  0
MTEXT
  5
20C
330
1EF
100
AcDbEntity
  8
标注
 62
     0
100
AcDbMText
 10
681.7465224126406
 20
422.5987077378111
 30
0.0
 40
10.0
 41
0.0
 71
     5
 72
     1
  1
480mm [18 7/8"]
 11
0.0000000000000001
 21
1.0
 31
0.0
 73
     1
 44
1.0
  0
POINT
  5
20D
330
1EF
100
AcDbEntity
  8
Defpoints
 62
     0
100
AcDbPoint
 10
382.0499509234628
 20
662.5935315758002
 30
0.0
  0
POINT
  5
20E
330
1EF
100
AcDbEntity
  8
Defpoints
 62
     0
100
AcDbPoint
 10
510.1859676087376
 20
182.603883899822
 30
0.0
  0
POINT
  5
20F
330
1EF
100
AcDbEntity
  8
Defpoints
 62
     0
100
AcDbPoint
 10
681.7465224126406
 20
182.6038838998219
 30
0.0
  0
ENDBLK
  5
1FB
330
1EF
100
AcDbEntity
  8
0
100
AcDbBlockEnd
  0
BLOCK
  5
21E
330
218
100
AcDbEntity
  8
0
100
AcDbBlockBegin
  2
*D18
 70
     1
 10
0.0
 20
0.0
 30
0.0
  3
*D18
  1

  0
LINE
  5
24C
330
218
100
AcDbEntity
  8
标注
 62
     0
370
    -2
100
AcDbLine
 10
547.5091385408139
 20
592.7382641951527
 30
0.0
 11
555.7919615988628
 21
601.4212845330911
 31
0.0
  0
MTEXT
  5
24D
330
218
100
AcDbEntity
  8
标注
 62
     0
100
AcDbMText
 10
495.7414944280072
 20
538.4693870830381
 30
0.0
 40
10.0
 41
0.0
 71
     5
 72
     1
  1
R165mm [R6 1/2"]
 11
0.6902352548374208
 21
0.7235850281615292
 31
0.0
 73
     1
 44
1.0
  0
SOLID
  5
24E
330
218
100
AcDbEntity
  8
标注
 62
     0
100
AcDbTrace
 10
554.3447915425398
 20
602.801755042766
 30
0.0
 11
557.239131655186
 21
600.0408140234164
 31
0.0
 12
564.0747846569118
 22
610.1043048710295
 32
0.0
 13
564.0747846569118
 23
610.1043048710295
 33
0.0
  0
POINT
  5
24F
330
218
100
AcDbEntity
  8
Defpoints
 62
     0
100
AcDbPoint
 10
564.0747846569118
 20
610.1043048710295
 30
0.0
  0
POINT
  5
250
330
218
100
AcDbEntity
  8
Defpoints
 62
     0
100
AcDbPoint
 10
450.1859676087376
 20
490.7127752243773
 30
0.0
  0
ENDBLK
  5
21F
330
218
100
AcDbEntity
  8
0
100
AcDbBlockEnd
  0
BLOCK
  5
22E
330
228
100
AcDbEntity
  8
0
100
AcDbBlockBegin
  2
*D19
 70
     1
 10
0.0
 20
0.0
 30
0.0
  3
*D19
  1

  0
LINE
  5
251
330
228
100
AcDbEntity
  8
标注
 62
     0
370
    -2
100
AcDbLine
 10
574.0912957957069
 20
237.8333200159787
 30
0.0
 11
583.5587518234056
 21
230.4599031442982
 31
0.0
  0
MTEXT
  5
252
330
228
100
AcDbEntity
  8
标注
 62
     0
100
AcDbMText
 10
515.5771578467329
 20
283.4051326256708
 30
0.0
 40
10.0
 41
0.0
 71
     5
 72
     1
  1
R105mm [R4 1/8"]
 11
0.7889546689749303
 21
-0.6144514059733757
 31
0.0
 73
     1
 44
1.0
  0
SOLID
  5
253
330
228
100
AcDbEntity
  8
标注
 62
     0
100
AcDbTrace
 10
584.7876546353527
 20
232.0378124822481
 30
0.0
 11
582.3298490114592
 21
228.8819938063484
 31
0.0
 12
593.0262078511052
 22
223.0864862726177
 32
0.0
 13
593.0262078511052
 23
223.0864862726177
 33
0.0
  0
POINT
  5
254
330
228
100
AcDbEntity
  8
Defpoints
 62
     0
100
AcDbPoint
 10
593.0262078511052
 20
223.0864862726177
 30
0.0
  0
POINT
  5
255
330
228
100
AcDbEntity
  8
Defpoints
 62
     0
100
AcDbPoint
 10
510.1859676087374
 20
287.6038838998223
 30
0.0
  0
ENDBLK
  5
22F
330
228
100
AcDbEntity
  8
0
100
AcDbBlockEnd
  0
BLOCK
  5
23E
330
238
100
AcDbEntity
  8
0
100
AcDbBlockBegin
  2
*D20
 70
     1
 10
0.0
 20
0.0
 30
0.0
  3
*D20
  1

  0
LINE
  5
247
330
238
100
AcDbEntity
  8
标注
 62
     0
370
    -2
100
AcDbLine
 10
243.258059871084
 20
608.8783243963197
 30
0.0
 11
236.7110038934112
 21
618.9349668790383
 31
0.0
  0
MTEXT
  5
248
330
238
100
AcDbEntity
  8
标注
 62
     0
100
AcDbMText
 10
284.1771597315385
 20
546.0243088793288
 30
0.0
 40
10.0
 41
0.0
 71
     5
 72
     1
  1
R165mm [R6 1/2"]
 11
0.5455879981393938
 21
-0.8380535402265472
 31
0.0
 73
     1
 44
1.0
  0
SOLID
  5
249
330
238
100
AcDbEntity
  8
标注
 62
     0
100
AcDbTrace
 10
238.3871109738644
 20
620.0261428753171
 30
0.0
 11
235.0348968129581
 21
617.8437908827596
 31
0.0
 12
230.1639479157385
 22
628.9916093617571
 32
0.0
 13
230.1639479157385
 23
628.9916093617571
 33
0.0
  0
POINT
  5
24A
330
238
100
AcDbEntity
  8
Defpoints
 62
     0
100
AcDbPoint
 10
230.1639479157385
 20
628.9916093617571
 30
0.0
  0
POINT
  5
24B
330
238
100
AcDbEntity
  8
Defpoints
 62
     0
100
AcDbPoint
 10
320.1859676087384
 20
490.7127752243765
 30
0.0
  0
ENDBLK
  5
23F
330
238
100
AcDbEntity
  8
0
100
AcDbBlockEnd
  0
BLOCK
  5
29A
330
28F
100
AcDbEntity
  8
0
100
AcDbBlockBegin
  2
*D21
 70
     1
 10
0.0
 20
0.0
 30
0.0
  3
*D21
  1

  0
LINE
  5
2DC
330
28F
100
AcDbEntity
  8
标注
 62
     0
370
    -2
100
AcDbLine
 10
980.9172644298481
 20
637.2976071052228
 30
0.0
 11
731.9960273171377
 21
637.2976071052228
 31
0.0
  0
LINE
  5
2DD
330
28F
100
AcDbEntity
  8
标注
 62
     0
370
    -2
100
AcDbLine
 10
980.9172644298458
 20
153.2976071052228
 30
0.0
 11
731.9960273171377
 21
153.2976071052229
 31
0.0
  0
LINE
  5
2DE
330
28F
100
AcDbEntity
  8
标注
 62
     0
370
    -2
100
AcDbLine
 10
733.2460273171379
 20
625.2976071052228
 30
0.0
 11
733.2460273171379
 21
446.9642737718896
 31
0.0
  0
LINE
  5
2DF
330
28F
100
AcDbEntity
  8
标注
 62
     0
370
    -2
100
AcDbLine
 10
733.2460273171378
 20
165.2976071052229
 30
0.0
 11
733.2460273171379
 21
343.6309404385562
 31
0.0
  0
SOLID
  5
2E0
330
28F
100
AcDbEntity
  8
标注
 62
     0
100
AcDbTrace
 10
731.2460273171377
 20
625.2976071052228
 30
0.0
 11
735.2460273171377
 21
625.2976071052228
 31
0.0
 12
733.2460273171379
 22
637.2976071052228
 32
0.0
 13
733.2460273171379
 23
637.2976071052228
 33
0.0
  0
SOLID
  5
2E1
330
28F
100
AcDbEntity
  8
标注
 62
     0
100
AcDbTrace
 10
731.2460273171377
 20
165.2976071052229
 30
0.0
 11
735.2460273171377
 21
165.2976071052229
 31
0.0
 12
733.2460273171378
 22
153.2976071052229
 32
0.0
 13
733.2460273171378
 23
153.2976071052229
 33
0.0
  0
MTEXT
  5
2E2
330
28F
100
AcDbEntity
  8
标注
 62
     0
100
AcDbMText
 10
733.2460273171378
 20
395.297607105223
 30
0.0
 40
10.0
 41
0.0
 71
     5
 72
     1
  1
484mm [19"]
 11
0.0000000000000001
 21
1.0
 31
0.0
 73
     1
 44
1.0
  0
POINT
  5
2E3
330
28F
100
AcDbEntity
  8
Defpoints
 62
     0
100
AcDbPoint
 10
1000.917264429848
 20
637.2976071052228
 30
0.0
  0
POINT
  5
2E4
330
28F
100
AcDbEntity
  8
Defpoints
 62
     0
100
AcDbPoint
 10
1000.917264429846
 20
153.2976071052228
 30
0.0
  0
POINT
  5
2E5
330
28F
100
AcDbEntity
  8
Defpoints
 62
     0
100
AcDbPoint
 10
733.2460273171378
 20
153.2976071052229
 30
0.0
  0
ENDBLK
  5
29B
330
28F
100
AcDbEntity
  8
0
100
AcDbBlockEnd
  0
BLOCK
  5
2B4
330
2A9
100
AcDbEntity
  8
0
100
AcDbBlockBegin
  2
*D22
 70
     1
 10
0.0
 20
0.0
 30
0.0
  3
*D22
  1

  0
LINE
  5
2B7
330
2A9
100
AcDbEntity
  8
标注
 62
     0
370
    -2
100
AcDbLine
 10
1457.240628276275
 20
580.3353852052327
 30
0.0
 11
1645.251352526545
 21
580.3353852052327
 31
0.0
  0
LINE
  5
2B8
330
2A9
100
AcDbEntity
  8
标注
 62
     0
370
    -2
100
AcDbLine
 10
1417.917264429845
 20
153.2976071052226
 30
0.0
 11
1645.251352526545
 21
153.2976071052225
 31
0.0
  0
LINE
  5
2B9
330
2A9
100
AcDbEntity
  8
标注
 62
     0
370
    -2
100
AcDbLine
 10
1644.001352526546
 20
568.3353852052327
 30
0.0
 11
1644.001352526545
 21
438.4831628218943
 31
0.0
  0
LINE
  5
2BA
330
2A9
100
AcDbEntity
  8
标注
 62
     0
370
    -2
100
AcDbLine
 10
1644.001352526545
 20
165.2976071052225
 30
0.0
 11
1644.001352526545
 21
295.1498294885611
 31
0.0
  0
SOLID
  5
2BB
330
2A9
100
AcDbEntity
  8
标注
 62
     0
100
AcDbTrace
 10
1642.001352526546
 20
568.3353852052327
 30
0.0
 11
1646.001352526545
 21
568.3353852052327
 31
0.0
 12
1644.001352526546
 22
580.3353852052327
 32
0.0
 13
1644.001352526546
 23
580.3353852052327
 33
0.0
  0
SOLID
  5
2BC
330
2A9
100
AcDbEntity
  8
标注
 62
     0
100
AcDbTrace
 10
1642.001352526545
 20
165.2976071052225
 30
0.0
 11
1646.001352526545
 21
165.2976071052225
 31
0.0
 12
1644.001352526545
 22
153.2976071052225
 32
0.0
 13
1644.001352526545
 23
153.2976071052225
 33
0.0
  0
MTEXT
  5
2BD
330
2A9
100
AcDbEntity
  8
标注
 62
     0
100
AcDbMText
 10
1644.001352526545
 20
366.816496155228
 30
0.0
 40
10.0
 41
0.0
 71
     5
 72
     1
  1
427mm [16 7/8"]
 11
0.0000000000000001
 21
1.0
 31
0.0
 73
     1
 44
1.0
  0
POINT
  5
2BE
330
2A9
100
AcDbEntity
  8
Defpoints
 62
     0
100
AcDbPoint
 10
1437.240628276275
 20
580.3353852052327
 30
0.0
  0
POINT
  5
2BF
330
2A9
100
AcDbEntity
  8
Defpoints
 62
     0
100
AcDbPoint
 10
1397.917264429845
 20
153.2976071052226
 30
0.0
  0
POINT
  5
2C0
330
2A9
100
AcDbEntity
  8
Defpoints
 62
     0
100
AcDbPoint
 10
1644.001352526545
 20
153.2976071052225
 30
0.0
  0
ENDBLK
  5
2B5
330
2A9
100
AcDbEntity
  8
0
100
AcDbBlockEnd
  0
BLOCK
  5
2CE
330
2C3
100
AcDbEntity
  8
0
100
AcDbBlockBegin
  2
*D23
 70
     1
 10
0.0
 20
0.0
 30
0.0
  3
*D23
  1

  0
LINE
  5
2D1
330
2C3
100
AcDbEntity
  8
标注
 62
     0
370
    -2
100
AcDbLine
 10
1566.917264429846
 20
347.2976071052226
 30
0.0
 11
1566.917264429846
 21
85.7031337169808
 31
0.0
  0
LINE
  5
2D2
330
2C3
100
AcDbEntity
  8
标注
 62
     0
370
    -2
100
AcDbLine
 10
796.9172644298451
 20
375.2976071052227
 30
0.0
 11
796.9172644298451
 21
85.7031337169808
 31
0.0
  0
LINE
  5
2D3
330
2C3
100
AcDbEntity
  8
标注
 62
     0
370
    -2
100
AcDbLine
 10
1554.917264429846
 20
86.9531337169808
 30
0.0
 11
1253.583931096512
 21
86.9531337169808
 31
0.0
  0
LINE
  5
2D4
330
2C3
100
AcDbEntity
  8
标注
 62
     0
370
    -2
100
AcDbLine
 10
808.917264429845
 20
86.9531337169808
 30
0.0
 11
1110.250597763179
 21
86.9531337169808
 31
0.0
  0
SOLID
  5
2D5
330
2C3
100
AcDbEntity
  8
标注
 62
     0
100
AcDbTrace
 10
1554.917264429846
 20
88.9531337169808
 30
0.0
 11
1554.917264429846
 21
84.95313371698079
 31
0.0
 12
1566.917264429846
 22
86.9531337169808
 32
0.0
 13
1566.917264429846
 23
86.9531337169808
 33
0.0
  0
SOLID
  5
2D6
330
2C3
100
AcDbEntity
  8
标注
 62
     0
100
AcDbTrace
 10
808.917264429845
 20
88.9531337169808
 30
0.0
 11
808.917264429845
 21
84.95313371698079
 31
0.0
 12
796.9172644298451
 22
86.9531337169808
 32
0.0
 13
796.9172644298451
 23
86.9531337169808
 33
0.0
  0
MTEXT
  5
2D7
330
2C3
100
AcDbEntity
  8
标注
 62
     0
100
AcDbMText
 10
1181.917264429845
 20
86.9531337169808
 30
0.0
 40
10.0
 41
0.0
 71
     5
 72
     1
  1
770mm [30 3/8"]
 73
     1
 44
1.0
  0
POINT
  5
2D8
330
2C3
100
AcDbEntity
  8
Defpoints
 62
     0
100
AcDbPoint
 10
1566.917264429846
 20
367.2976071052227
 30
0.0
  0
POINT
  5
2D9
330
2C3
100
AcDbEntity
  8
Defpoints
 62
     0
100
AcDbPoint
 10
796.9172644298451
 20
395.2976071052228
 30
0.0
  0
POINT
  5
2DA
330
2C3
100
AcDbEntity
  8
Defpoints
 62
     0
100
AcDbPoint
 10
796.9172644298451
 20
86.9531337169808
 30
0.0
  0
ENDBLK
  5
2CF
330
2C3
100
AcDbEntity
  8
0
100
AcDbBlockEnd
  0
BLOCK
  5
2F1
330
2EB
100
AcDbEntity
  8
0
100
AcDbBlockBegin
  2
*D24
 70
     1
 10
0.0
 20
0.0
 30
0.0
  3
*D24
  1

  0
LINE
  5
2F4
330
2EB
100
AcDbEntity
  8
标注
 62
     0
370
    -2
100
AcDbLine
 10
1519.656166814102
 20
530.3480370431773
 30
0.0
 11
1528.633934151666
 21
538.3104294997548
 31
0.0
  0
MTEXT
  5
2F5
330
2EB
100
AcDbEntity
  8
标注
 62
     0
100
AcDbMText
 10
1464.792033084541
 20
481.6889720307596
 30
0.0
 40
10.0
 41
0.0
 71
     5
 72
     1
  1
R94mm [R3 3/4"]
 11
0.7481472781303691
 21
0.6635327047147867
 31
0.0
 73
     1
 44
1.0
  0
SOLID
  5
2F6
330
2EB
100
AcDbEntity
  8
标注
 62
     0
100
AcDbTrace
 10
1527.306868742237
 20
539.8067240560155
 30
0.0
 11
1529.960999561096
 21
536.8141349434941
 31
0.0
 12
1537.611701489231
 22
546.2728219563322
 32
0.0
 13
1537.611701489231
 23
546.2728219563322
 33
0.0
  0
POINT
  5
2F7
330
2EB
100
AcDbEntity
  8
Defpoints
 62
     0
100
AcDbPoint
 10
1537.611701489231
 20
546.2728219563322
 30
0.0
  0
POINT
  5
2F8
330
2EB
100
AcDbEntity
  8
Defpoints
 62
     0
100
AcDbPoint
 10
1467.285857344976
 20
483.9007477131426
 30
0.0
  0
ENDBLK
  5
2F2
330
2EB
100
AcDbEntity
  8
0
100
AcDbBlockEnd
  0
BLOCK
  5
301
330
2FB
100
AcDbEntity
  8
0
100
AcDbBlockBegin
  2
*D25
 70
     1
 10
0.0
 20
0.0
 30
0.0
  3
*D25
  1

  0
LINE
  5
304
330
2FB
100
AcDbEntity
  8
标注
 62
     0
370
    -2
100
AcDbLine
 10
854.0621325672644
 20
590.2090843048815
 30
0.0
 11
846.2373862065554
 21
599.3070700374808
 31
0.0
  0
MTEXT
  5
305
330
2FB
100
AcDbEntity
  8
标注
 62
     0
100
AcDbMText
 10
902.4234121577562
 20
533.9784780409021
 30
0.0
 40
10.0
 41
0.0
 71
     5
 72
     1
  1
R104mm [R4 1/8"]
 11
0.6520621967257341
 21
-0.7581654777165802
 31
0.0
 73
     1
 44
1.0
  0
SOLID
  5
306
330
2FB
100
AcDbEntity
  8
标注
 62
     0
100
AcDbTrace
 10
847.7537171619886
 20
600.6111944309322
 30
0.0
 11
844.7210552511219
 21
598.0029456440294
 31
0.0
 12
838.4126398458466
 22
608.4050557700797
 32
0.0
 13
838.4126398458466
 23
608.4050557700797
 33
0.0
  0
POINT
  5
307
330
2FB
100
AcDbEntity
  8
Defpoints
 62
     0
100
AcDbPoint
 10
838.4126398458466
 20
608.4050557700797
 30
0.0
  0
POINT
  5
308
330
2FB
100
AcDbEntity
  8
Defpoints
 62
     0
100
AcDbPoint
 10
906.227108305323
 20
529.5558460875554
 30
0.0
  0
ENDBLK
  5
302
330
2FB
100
AcDbEntity
  8
0
100
AcDbBlockEnd
  0
BLOCK
  5
311
330
30B
100
AcDbEntity
  8
0
100
AcDbBlockBegin
  2
*D26
 70
     1
 10
0.0
 20
0.0
 30
0.0
  3
*D26
  1

  0
LINE
  5
314
330
30B
100
AcDbEntity
  8
标注
 62
     0
370
    -2
100
AcDbLine
 10
844.7553071968869
 20
580.7536748353149
 30
0.0
 11
835.5345370306212
 21
588.4333491474786
 31
0.0
  0
MTEXT
  5
315
330
30B
100
AcDbEntity
  8
标注
 62
     0
100
AcDbMText
 10
901.7447894744991
 20
533.2890211004126
 30
0.0
 40
10.0
 41
0.0
 71
     5
 72
     1
  1
R104mm [R4 1/8"]
 11
0.7683975138554496
 21
-0.6399728593469916
 31
0.0
 73
     1
 44
1.0
  0
SOLID
  5
316
330
30B
100
AcDbEntity
  8
标注
 62
     0
100
AcDbTrace
 10
836.8144827493152
 20
589.9701441751897
 30
0.0
 11
834.2545913119275
 21
586.8965541197677
 31
0.0
 12
826.3137668643558
 22
596.1130234596422
 32
0.0
 13
826.3137668643558
 23
596.1130234596422
 33
0.0
  0
POINT
  5
317
330
30B
100
AcDbEntity
  8
Defpoints
 62
     0
100
AcDbPoint
 10
826.3137668643558
 20
596.1130234596422
 30
0.0
  0
POINT
  5
318
330
30B
100
AcDbEntity
  8
Defpoints
 62
     0
100
AcDbPoint
 10
906.2271083053227
 20
529.5558460875554
 30
0.0
  0
ENDBLK
  5
312
330
30B
100
AcDbEntity
  8
0
100
AcDbBlockEnd
  0
BLOCK
  5
352
330
347
100
AcDbEntity
  8
0
100
AcDbBlockBegin
  2
*D27
 70
     1
 10
0.0
 20
0.0
 30
0.0
  3
*D27
  1

  0
LINE
  5
3EF
330
347
100
AcDbEntity
  8
标注
 62
     0
370
    -2
100
AcDbLine
 10
41.66772381909413
 20
943.4375272860291
 30
0.0
 11
-194.465304296972
 21
943.4375272860291
 31
0.0
  0
LINE
  5
3F0
330
347
100
AcDbEntity
  8
标注
 62
     0
370
    -2
100
AcDbLine
 10
41.66772381909405
 20
459.4375272860288
 30
0.0
 11
-194.4653042969721
 21
459.4375272860289
 31
0.0
  0
LINE
  5
3F1
330
347
100
AcDbEntity
  8
标注
 62
     0
370
    -2
100
AcDbLine
 10
-193.215304296972
 20
931.437527286029
 30
0.0
 11
-193.2153042969721
 21
753.1041939526954
 31
0.0
  0
LINE
  5
3F2
330
347
100
AcDbEntity
  8
标注
 62
     0
370
    -2
100
AcDbLine
 10
-193.2153042969721
 20
471.4375272860289
 30
0.0
 11
-193.2153042969721
 21
649.7708606193622
 31
0.0
  0
SOLID
  5
3F3
330
347
100
AcDbEntity
  8
标注
 62
     0
100
AcDbTrace
 10
-195.215304296972
 20
931.437527286029
 30
0.0
 11
-191.215304296972
 21
931.437527286029
 31
0.0
 12
-193.215304296972
 22
943.4375272860291
 32
0.0
 13
-193.215304296972
 23
943.4375272860291
 33
0.0
  0
SOLID
  5
3F4
330
347
100
AcDbEntity
  8
标注
 62
     0
100
AcDbTrace
 10
-195.2153042969721
 20
471.4375272860289
 30
0.0
 11
-191.2153042969721
 21
471.4375272860289
 31
0.0
 12
-193.2153042969721
 22
459.4375272860289
 32
0.0
 13
-193.2153042969721
 23
459.4375272860289
 33
0.0
  0
MTEXT
  5
3F5
330
347
100
AcDbEntity
  8
标注
 62
     0
100
AcDbMText
 10
-193.2153042969722
 20
701.4375272860291
 30
0.0
 40
10.0
 41
0.0
 71
     5
 72
     1
  1
484mm [19"]
 11
0.0000000000000001
 21
1.0
 31
0.0
 73
     1
 44
1.0
  0
POINT
  5
3F6
330
347
100
AcDbEntity
  8
Defpoints
 62
     0
100
AcDbPoint
 10
61.66772381909414
 20
943.4375272860291
 30
0.0
  0
POINT
  5
3F7
330
347
100
AcDbEntity
  8
Defpoints
 62
     0
100
AcDbPoint
 10
61.66772381909405
 20
459.4375272860288
 30
0.0
  0
POINT
  5
3F8
330
347
100
AcDbEntity
  8
Defpoints
 62
     0
100
AcDbPoint
 10
-193.2153042969721
 20
459.4375272860289
 30
0.0
  0
ENDBLK
  5
353
330
347
100
AcDbEntity
  8
0
100
AcDbBlockEnd
  0
BLOCK
  5
39B
330
390
100
AcDbEntity
  8
0
100
AcDbBlockBegin
  2
*D28
 70
     1
 10
0.0
 20
0.0
 30
0.0
  3
*D28
  1

  0
LINE
  5
408
330
390
100
AcDbEntity
  8
标注
 62
     0
370
    -2
100
AcDbLine
 10
478.8677238190907
 20
887.4375272860289
 30
0.0
 11
686.4649913899277
 21
887.4375272860289
 31
0.0
  0
LINE
  5
409
330
390
100
AcDbEntity
  8
标注
 62
     0
370
    -2
100
AcDbLine
 10
478.8677238190912
 20
459.4375272860288
 30
0.0
 11
686.4649913899276
 21
459.4375272860287
 31
0.0
  0
LINE
  5
40A
330
390
100
AcDbEntity
  8
标注
 62
     0
370
    -2
100
AcDbLine
 10
685.2149913899276
 20
875.4375272860288
 30
0.0
 11
685.2149913899276
 21
745.1041939526954
 31
0.0
  0
LINE
  5
40B
330
390
100
AcDbEntity
  8
标注
 62
     0
370
    -2
100
AcDbLine
 10
685.2149913899276
 20
471.4375272860287
 30
0.0
 11
685.2149913899276
 21
601.7708606193622
 31
0.0
  0
SOLID
  5
40C
330
390
100
AcDbEntity
  8
标注
 62
     0
100
AcDbTrace
 10
683.2149913899277
 20
875.4375272860288
 30
0.0
 11
687.2149913899277
 21
875.4375272860288
 31
0.0
 12
685.2149913899276
 22
887.4375272860289
 32
0.0
 13
685.2149913899276
 23
887.4375272860289
 33
0.0
  0
SOLID
  5
40D
330
390
100
AcDbEntity
  8
标注
 62
     0
100
AcDbTrace
 10
683.2149913899276
 20
471.4375272860287
 30
0.0
 11
687.2149913899276
 21
471.4375272860287
 31
0.0
 12
685.2149913899276
 22
459.4375272860287
 32
0.0
 13
685.2149913899276
 23
459.4375272860287
 33
0.0
  0
MTEXT
  5
40E
330
390
100
AcDbEntity
  8
标注
 62
     0
100
AcDbMText
 10
685.2149913899275
 20
673.4375272860289
 30
0.0
 40
10.0
 41
0.0
 71
     5
 72
     1
  1
428mm [16 7/8"]
 11
0.0000000000000001
 21
1.0
 31
0.0
 73
     1
 44
1.0
  0
POINT
  5
40F
330
390
100
AcDbEntity
  8
Defpoints
 62
     0
100
AcDbPoint
 10
458.8677238190907
 20
887.4375272860289
 30
0.0
  0
POINT
  5
410
330
390
100
AcDbEntity
  8
Defpoints
 62
     0
100
AcDbPoint
 10
458.8677238190911
 20
459.4375272860288
 30
0.0
  0
POINT
  5
411
330
390
100
AcDbEntity
  8
Defpoints
 62
     0
100
AcDbPoint
 10
685.2149913899276
 20
459.4375272860287
 30
0.0
  0
ENDBLK
  5
39C
330
390
100
AcDbEntity
  8
0
100
AcDbBlockEnd
  0
BLOCK
  5
3B5
330
3AA
100
AcDbEntity
  8
0
100
AcDbBlockBegin
  2
*D29
 70
     1
 10
0.0
 20
0.0
 30
0.0
  3
*D29
  1

  0
LINE
  5
3C3
330
3AA
100
AcDbEntity
  8
标注
 62
     0
370
    -2
100
AcDbLine
 10
627.8677238190911
 20
653.4375272860287
 30
0.0
 11
627.8677238190911
 21
400.6839734784843
 31
0.0
  0
LINE
  5
3C4
330
3AA
100
AcDbEntity
  8
标注
 62
     0
370
    -2
100
AcDbLine
 10
-142.3322761809058
 20
681.4375272860289
 30
0.0
 11
-142.3322761809059
 21
400.6839734784843
 31
0.0
  0
LINE
  5
3C5
330
3AA
100
AcDbEntity
  8
标注
 62
     0
370
    -2
100
AcDbLine
 10
615.8677238190911
 20
401.9339734784843
 30
0.0
 11
314.4343904857592
 21
401.9339734784843
 31
0.0
  0
LINE
  5
3C6
330
3AA
100
AcDbEntity
  8
标注
 62
     0
370
    -2
100
AcDbLine
 10
-130.3322761809059
 20
401.9339734784843
 30
0.0
 11
171.101057152426
 21
401.9339734784843
 31
0.0
  0
SOLID
  5
3C7
330
3AA
100
AcDbEntity
  8
标注
 62
     0
100
AcDbTrace
 10
615.8677238190911
 20
403.9339734784843
 30
0.0
 11
615.8677238190911
 21
399.9339734784843
 31
0.0
 12
627.8677238190911
 22
401.9339734784843
 32
0.0
 13
627.8677238190911
 23
401.9339734784843
 33
0.0
  0
SOLID
  5
3C8
330
3AA
100
AcDbEntity
  8
标注
 62
     0
100
AcDbTrace
 10
-130.3322761809059
 20
403.9339734784843
 30
0.0
 11
-130.3322761809059
 21
399.9339734784843
 31
0.0
 12
-142.3322761809059
 22
401.9339734784843
 32
0.0
 13
-142.3322761809059
 23
401.9339734784843
 33
0.0
  0
MTEXT
  5
3C9
330
3AA
100
AcDbEntity
  8
标注
 62
     0
100
AcDbMText
 10
242.7677238190926
 20
401.9339734784843
 30
0.0
 40
10.0
 41
0.0
 71
     5
 72
     1
  1
770mm [30 3/8"]
 73
     1
 44
1.0
  0
POINT
  5
3CA
330
3AA
100
AcDbEntity
  8
Defpoints
 62
     0
100
AcDbPoint
 10
627.8677238190911
 20
673.4375272860289
 30
0.0
  0
POINT
  5
3CB
330
3AA
100
AcDbEntity
  8
Defpoints
 62
     0
100
AcDbPoint
 10
-142.3322761809058
 20
701.4375272860291
 30
0.0
  0
POINT
  5
3CC
330
3AA
100
AcDbEntity
  8
Defpoints
 62
     0
100
AcDbPoint
 10
-142.3322761809059
 20
401.9339734784843
 30
0.0
  0
ENDBLK
  5
3B6
330
3AA
100
AcDbEntity
  8
0
100
AcDbBlockEnd
  0
BLOCK
  5
3D5
330
3CF
100
AcDbEntity
  8
0
100
AcDbBlockBegin
  2
*D30
 70
     1
 10
0.0
 20
0.0
 30
0.0
  3
*D30
  1

  0
LINE
  5
3D8
330
3CF
100
AcDbEntity
  8
标注
 62
     0
370
    -2
100
AcDbLine
 10
-94.71764436350037
 20
891.3547864088553
 30
0.0
 11
-103.7038024957177
 21
899.3077080118125
 31
0.0
  0
MTEXT
  5
3D9
330
3CF
100
AcDbEntity
  8
标注
 62
     0
100
AcDbMText
 10
-39.80223355550533
 20
842.7535988352277
 30
0.0
 40
10.0
 41
0.0
 71
     5
 72
     1
  1
R94mm [R3 3/4"]
 11
0.748846511018114
 21
-0.6627434669131019
 31
0.0
 73
     1
 44
1.0
  0
SOLID
  5
3DA
330
3CF
100
AcDbEntity
  8
标注
 62
     0
100
AcDbTrace
 10
-102.3783155618915
 20
900.8054010338486
 30
0.0
 11
-105.0292894295439
 21
897.8100149897761
 31
0.0
 12
-112.6899606279351
 22
907.2606296147696
 32
0.0
 13
-112.6899606279351
 23
907.2606296147696
 33
0.0
  0
POINT
  5
3DB
330
3CF
100
AcDbEntity
  8
Defpoints
 62
     0
100
AcDbPoint
 10
-112.6899606279351
 20
907.2606296147696
 30
0.0
  0
POINT
  5
3DC
330
3CF
100
AcDbEntity
  8
Defpoints
 62
     0
100
AcDbPoint
 10
-42.2983885922323
 20
844.9627437249381
 30
0.0
  0
ENDBLK
  5
3D6
330
3CF
100
AcDbEntity
  8
0
100
AcDbBlockEnd
  0
BLOCK
  5
3E5
330
3DF
100
AcDbEntity
  8
0
100
AcDbBlockBegin
  2
*D31
 70
     1
 10
0.0
 20
0.0
 30
0.0
  3
*D31
  1

  0
LINE
  5
3E8
330
3DF
100
AcDbEntity
  8
标注
 62
     0
370
    -2
100
AcDbLine
 10
575.6793008680545
 20
841.5106907856891
 30
0.0
 11
583.8123838624255
 21
850.3341232814175
 31
0.0
  0
MTEXT
  5
3E9
330
3DF
100
AcDbEntity
  8
标注
 62
     0
100
AcDbMText
 10
525.9771270135645
 20
787.5897144229062
 30
0.0
 40
10.0
 41
0.0
 71
     5
 72
     1
  1
R94mm [R3 3/4"]
 11
0.6777569161975896
 21
0.7352860413106818
 31
0.0
 73
     1
 44
1.0
  0
SOLID
  5
3EA
330
3DF
100
AcDbEntity
  8
标注
 62
     0
100
AcDbTrace
 10
582.3418117798041
 20
851.6896371138127
 30
0.0
 11
585.2829559450468
 21
848.9786094490224
 31
0.0
 12
591.9454668567966
 22
859.1575557771458
 32
0.0
 13
591.9454668567966
 23
859.1575557771458
 33
0.0
  0
POINT
  5
3EB
330
3DF
100
AcDbEntity
  8
Defpoints
 62
     0
100
AcDbPoint
 10
591.9454668567966
 20
859.1575557771458
 30
0.0
  0
POINT
  5
3EC
330
3DF
100
AcDbEntity
  8
Defpoints
 62
     0
100
AcDbPoint
 10
528.2363167342233
 20
790.0406678939417
 30
0.0
  0
ENDBLK
  5
3E6
330
3DF
100
AcDbEntity
  8
0
100
AcDbBlockEnd
  0
BLOCK
  5
41A
330
413
100
AcDbEntity
  8
0
100
AcDbBlockBegin
  2
*D32
 70
     1
 10
0.0
 20
0.0
 30
0.0
  3
*D32
  1

  0
LINE
  5
41D
330
413
100
AcDbEntity
  8
标注
 62
     0
370
    -2
100
AcDbLine
 10
241.0954560562024
 20
868.9396443735759
 30
0.0
 11
246.6202486199744
 21
879.592187127646
 31
0.0
  0
MTEXT
  5
41E
330
413
100
AcDbEntity
  8
标注
 62
     0
100
AcDbMText
 10
217.3081547399618
 20
823.0745297379968
 30
0.0
 40
10.0
 41
0.0
 71
     5
 72
     1
  1
R25mm [R1"]
 11
0.460399380314334
 21
0.887711896172501
 31
0.0
 73
     1
 44
1.0
  0
LINE
  5
41F
330
413
100
AcDbEntity
  8
标注
 62
     0
370
    -2
100
AcDbLine
 10
263.6550256916049
 20
912.4375272860289
 30
0.0
 11
252.1450411837463
 21
890.2447298817161
 31
0.0
  0
SOLID
  5
420
330
413
100
AcDbEntity
  8
标注
 62
     0
100
AcDbTrace
 10
244.8448248276293
 20
880.5129858882748
 30
0.0
 11
248.3956724123193
 21
878.6713883670174
 31
0.0
 12
252.1450411837463
 22
890.2447298817161
 32
0.0
 13
252.1450411837463
 23
890.2447298817161
 33
0.0
  0
POINT
  5
421
330
413
100
AcDbEntity
  8
Defpoints
 62
     0
100
AcDbPoint
 10
252.1450411837463
 20
890.2447298817161
 30
0.0
  0
POINT
  5
422
330
413
100
AcDbEntity
  8
Defpoints
 62
     0
100
AcDbPoint
 10
263.6550256916049
 20
912.4375272860289
 30
0.0
  0
ENDBLK
  5
41B
330
413
100
AcDbEntity
  8
0
100
AcDbBlockEnd
  0
BLOCK
  5
42B
330
425
100
AcDbEntity
  8
0
100
AcDbBlockBegin
  2
*D33
 70
     1
 10
0.0
 20
0.0
 30
0.0
  3
*D33
  1

  0
LINE
  5
42E
330
425
100
AcDbEntity
  8
标注
 62
     0
370
    -2
100
AcDbLine
 10
-88.19449941065986
 20
505.0582948053592
 30
0.0
 11
-96.0624041223903
 21
495.9976063410575
 31
0.0
  0
MTEXT
  5
42F
330
425
100
AcDbEntity
  8
标注
 62
     0
100
AcDbMText
 10
-40.11285950564053
 20
560.4291687538696
 30
0.0
 40
10.0
 41
0.0
 71
     5
 72
     1
  1
R94mm [R3 3/4"]
 11
0.6556587259775361
 21
0.7550573720251423
 31
0.0
 73
     1
 44
1.0
  0
SOLID
  5
430
330
425
100
AcDbEntity
  8
标注
 62
     0
100
AcDbTrace
 10
-97.57251886644063
 20
497.3089237930126
 30
0.0
 11
-94.55228937834002
 21
494.6862888891025
 31
0.0
 12
-103.9303088341207
 22
486.9369178767558
 32
0.0
 13
-103.9303088341207
 23
486.9369178767558
 33
0.0
  0
POINT
  5
431
330
425
100
AcDbEntity
  8
Defpoints
 62
     0
100
AcDbPoint
 10
-103.9303088341207
 20
486.9369178767558
 30
0.0
  0
POINT
  5
432
330
425
100
AcDbEntity
  8
Defpoints
 62
     0
100
AcDbPoint
 10
-42.2983885922323
 20
557.9123108471192
 30
0.0
  0
ENDBLK
  5
42C
330
425
100
AcDbEntity
  8
0
100
AcDbBlockEnd
  0
BLOCK
  5
43B
330
435
100
AcDbEntity
  8
0
100
AcDbBlockBegin
  2
*D34
 70
     1
 10
0.0
 20
0.0
 30
0.0
  3
*D34
  1

  0
LINE
  5
43E
330
435
100
AcDbEntity
  8
标注
 62
     0
370
    -2
100
AcDbLine
 10
573.5607398814436
 20
503.4893150559715
 30
0.0
 11
581.3306409923955
 21
494.3444456350325
 31
0.0
  0
MTEXT
  5
43F
330
435
100
AcDbEntity
  8
标注
 62
     0
100
AcDbMText
 10
526.0780108700702
 20
559.3746281839326
 30
0.0
 40
10.0
 41
0.0
 71
     5
 72
     1
  1
R94mm [R3 3/4"]
 11
0.6474917592460008
 21
-0.7620724517449237
 31
0.0
 73
     1
 44
1.0
  0
SOLID
  5
440
330
435
100
AcDbEntity
  8
标注
 62
     0
100
AcDbTrace
 10
582.8547858958854
 20
495.6394291535245
 30
0.0
 11
579.8064960889057
 21
493.0494621165404
 31
0.0
 12
589.1005421033476
 22
485.1995762140933
 32
0.0
 13
589.1005421033476
 23
485.1995762140933
 33
0.0
  0
POINT
  5
441
330
435
100
AcDbEntity
  8
Defpoints
 62
     0
100
AcDbPoint
 10
589.1005421033476
 20
485.1995762140933
 30
0.0
  0
POINT
  5
442
330
435
100
AcDbEntity
  8
Defpoints
 62
     0
100
AcDbPoint
 10
528.2363167342236
 20
556.8343866781161
 30
0.0
  0
ENDBLK
  5
43C
330
435
100
AcDbEntity
  8
0
100
AcDbBlockEnd
  0
BLOCK
  5
44B
330
445
100
AcDbEntity
  8
0
100
AcDbBlockBegin
  2
*D35
 70
     1
 10
0.0
 20
0.0
 30
0.0
  3
*D35
  1

  0
LINE
  5
44E
330
445
100
AcDbEntity
  8
标注
 62
     0
370
    -2
100
AcDbLine
 10
199.4833305712784
 20
906.2343662990848
 30
0.0
 11
205.2861010297101
 21
916.7380730260816
 31
0.0
  0
MTEXT
  5
44F
330
445
100
AcDbEntity
  8
标注
 62
     0
100
AcDbMText
 10
164.0219555475299
 20
842.0450474118833
 30
0.0
 40
10.0
 41
0.0
 71
     5
 72
     1
  1
R94mm [R3 3/4"]
 11
0.4835642048692978
 21
0.8753088939163843
 31
0.0
 73
     1
 44
1.0
  0
SOLID
  5
450
330
445
100
AcDbEntity
  8
标注
 62
     0
100
AcDbTrace
 10
203.5354832418774
 20
917.7052014358203
 30
0.0
 11
207.0367188175429
 21
915.770944616343
 31
0.0
 12
211.0888714881417
 22
927.2417797530783
 32
0.0
 13
211.0888714881417
 23
927.2417797530783
 33
0.0
  0
POINT
  5
451
330
445
100
AcDbEntity
  8
Defpoints
 62
     0
100
AcDbPoint
 10
211.0888714881417
 20
927.2417797530783
 30
0.0
  0
POINT
  5
452
330
445
100
AcDbEntity
  8
Defpoints
 62
     0
100
AcDbPoint
 10
165.6338362304273
 20
844.9627437249377
 30
0.0
  0
ENDBLK
  5
44C
330
445
100
AcDbEntity
  8
0
100
AcDbBlockEnd
  0
ENDSEC
  0
SECTION
  2
ENTITIES
  0
MTEXT
  5
257
330
21
100
AcDbEntity
  8
标注
100
AcDbMText
 10
4.141358296585622
 20
312.2070028246551
 30
0.0
 40
20.0
 41
724.570271212845
 71
     1
 72
     5
  1
{\fArial|b0|i0|c0|p34;801L-9(Leonet Brenner LE-205B) Reveal Cutout}
 73
     1
 44
1.0
  0
DIMENSION
  5
346
330
21
100
AcDbEntity
  8
标注
100
AcDbDimension
  2
*D27
 10
-193.2153042969721
 20
459.4375272860289
 30
0.0
 11
-193.2153042969722
 21
701.4375272860291
 31
0.0
 70
    32
 71
     5
 42
484.0000000000001
  3
mav
100
AcDbAlignedDimension
 13
61.66772381909414
 23
943.4375272860291
 33
0.0
 14
61.66772381909405
 24
459.4375272860288
 34
0.0
 50
90.0
100
AcDbRotatedDimension
  0
ARC
  5
360
330
21
100
AcDbEntity
  8
0
100
AcDbCircle
 10
61.66772381909405
 20
-360.5624727139709
 30
0.0
 40
1304.0
100
AcDbArc
 50
85.07093104136542
 51
90.0
  0
ARC
  5
361
102
{ACAD_REACTORS
330
453
102
}
330
21
100
AcDbEntity
  8
0
100
AcDbCircle
 10
165.6338362304276
 20
844.9627437249381
 30
0.0
 40
94.0
100
AcDbArc
 50
34.54233298702802
 51
85.07093104136542
  0
LINE
  5
362
102
{ACAD_REACTORS
330
3A8
102
}
330
21
100
AcDbEntity
  8
0
100
AcDbLine
 10
458.8677238190911
 20
887.4375272860289
 30
0.0
 11
263.6550256916046
 21
887.4375272860287
 31
0.0
  0
ARC
  5
363
102
{ACAD_REACTORS
330
3A8
102
}
330
21
100
AcDbEntity
  8
0
100
AcDbCircle
 10
458.8677238190911
 20
83.43752728602884
 30
0.0
 40
804.0
100
AcDbArc
 50
84.39312927361878
 51
90.0
  0
ARC
  5
364
102
{ACAD_REACTORS
330
3ED
102
}
330
21
100
AcDbEntity
  8
0
100
AcDbCircle
 10
528.2363167342236
 20
790.0406678939416
 30
0.0
 40
94.0
100
AcDbArc
 50
5.529959954253196
 51
84.39312927361878
  0
ARC
  5
365
330
21
100
AcDbEntity
  8
0
100
AcDbCircle
 10
-676.1322761809089
 20
673.4375272860289
 30
0.0
 40
1304.0
100
AcDbArc
 50
0.0
 51
5.529959954253196
  0
ARC
  5
366
102
{ACAD_REACTORS
330
3C2
102
}
330
21
100
AcDbEntity
  8
0
100
AcDbCircle
 10
-676.1322761809089
 20
673.4375272860289
 30
0.0
 40
1304.0
100
AcDbArc
 50
354.4700400457468
 51
0.0
  0
ARC
  5
367
102
{ACAD_REACTORS
330
443
102
}
330
21
100
AcDbEntity
  8
0
100
AcDbCircle
 10
528.2363167342236
 20
556.8343866781161
 30
0.0
 40
94.0
100
AcDbArc
 50
275.6068707263813
 51
354.4700400457468
  0
ARC
  5
368
330
21
100
AcDbEntity
  8
0
100
AcDbCircle
 10
458.8677238190911
 20
1263.437527286029
 30
0.0
 40
804.0
100
AcDbArc
 50
270.0
 51
275.6068707263813
  0
LINE
  5
369
102
{ACAD_REACTORS
330
3A8
102
}
330
21
100
AcDbEntity
  8
0
100
AcDbLine
 10
61.66772381909405
 20
459.4375272860288
 30
0.0
 11
458.8677238190911
 21
459.4375272860288
 31
0.0
  0
ARC
  5
36A
330
21
100
AcDbEntity
  8
0
100
AcDbCircle
 10
61.66772381909405
 20
1763.437527286029
 30
0.0
 40
1304.0
100
AcDbArc
 50
265.0709310413654
 51
270.0
  0
ARC
  5
36B
102
{ACAD_REACTORS
330
433
102
}
330
21
100
AcDbEntity
  8
0
100
AcDbCircle
 10
-42.29838859223231
 20
557.9123108471192
 30
0.0
 40
94.0
100
AcDbArc
 50
184.8146638301926
 51
265.0709310413654
  0
ARC
  5
36C
330
21
100
AcDbEntity
  8
0
100
AcDbCircle
 10
1661.667723819094
 20
701.4375272860287
 30
0.0
 40
1804.0
100
AcDbArc
 50
180.0
 51
184.8146638301926
  0
ARC
  5
36D
102
{ACAD_REACTORS
330
3C2
102
}
330
21
100
AcDbEntity
  8
0
100
AcDbCircle
 10
1661.667723819094
 20
701.4375272860287
 30
0.0
 40
1804.0
100
AcDbArc
 50
175.1853361698073
 51
180.0
  0
ARC
  5
36E
102
{ACAD_REACTORS
330
3DD
102
}
330
21
100
AcDbEntity
  8
0
100
AcDbCircle
 10
-42.29838859223231
 20
844.9627437249381
 30
0.0
 40
94.0
100
AcDbArc
 50
94.92906895863457
 51
175.1853361698073
  0
ARC
  5
36F
330
21
100
AcDbEntity
  8
0
100
AcDbCircle
 10
61.66772381909405
 20
-360.5624727139709
 30
0.0
 40
1304.0
100
AcDbArc
 50
90.0
 51
94.92906895863457
  0
DIMENSION
  5
38F
102
{ACAD_XDICTIONARY
360
39D
102
}
102
{ACAD_REACTORS
330
3A8
102
}
330
21
100
AcDbEntity
  8
标注
100
AcDbDimension
  2
*D28
 10
685.2149913899276
 20
459.4375272860287
 30
0.0
 11
685.2149913899275
 21
673.4375272860289
 31
0.0
 70
    32
 71
     5
 42
428.0
  3
mav
100
AcDbAlignedDimension
 13
458.8677238190907
 23
887.4375272860289
 33
0.0
 14
458.8677238190911
 24
459.4375272860288
 34
0.0
 50
90.0
100
AcDbRotatedDimension
  0
DIMENSION
  5
3A9
102
{ACAD_XDICTIONARY
360
3B7
102
}
102
{ACAD_REACTORS
330
3C2
102
}
330
21
100
AcDbEntity
  8
标注
100
AcDbDimension
  2
*D29
 10
-142.3322761809059
 20
401.9339734784843
 30
0.0
 11
242.7677238190926
 21
401.9339734784843
 31
0.0
 70
    32
 71
     5
 42
770.1999999999969
  3
mav
100
AcDbAlignedDimension
 13
627.8677238190911
 23
673.4375272860289
 33
0.0
 14
-142.3322761809058
 24
701.4375272860291
 34
0.0
100
AcDbRotatedDimension
1001
ACAD
1000
DSTYLE
1002
{
1070
   271
1070
     0
1002
}
  0
DIMENSION
  5
3CE
102
{ACAD_XDICTIONARY
360
3D7
102
}
102
{ACAD_REACTORS
330
3DD
102
}
330
21
100
AcDbEntity
  8
标注
100
AcDbDimension
  2
*D30
 10
-42.2983885922323
 20
844.9627437249381
 30
0.0
 11
-39.80223355550533
 21
842.7535988352277
 31
0.0
 70
   164
 71
     5
 42
94.0
  3
mav
100
AcDbRadialDimension
 15
-112.6899606279351
 25
907.2606296147696
 35
0.0
 40
0.0
1001
ACAD
1000
DSTYLE
1002
{
1070
   288
1070
     1
1002
}
  0
DIMENSION
  5
3DE
102
{ACAD_XDICTIONARY
360
3E7
102
}
102
{ACAD_REACTORS
330
3ED
102
}
330
21
100
AcDbEntity
  8
标注
100
AcDbDimension
  2
*D31
 10
528.2363167342233
 20
790.0406678939417
 30
0.0
 11
525.9771270135645
 21
787.5897144229062
 31
0.0
 70
   164
 71
     5
 42
93.99999999999977
  3
mav
100
AcDbRadialDimension
 15
591.9454668567966
 25
859.1575557771458
 35
0.0
 40
0.0
1001
ACAD
1000
DSTYLE
1002
{
1070
   288
1070
     1
1002
}
  0
ARC
  5
407
102
{ACAD_REACTORS
330
423
102
}
330
21
100
AcDbEntity
  8
0
100
AcDbCircle
 10
263.6550256916046
 20
912.4375272860287
 30
0.0
 40
25.0
100
AcDbArc
 50
214.542332987028
 51
269.9999999999999
  0
DIMENSION
  5
412
102
{ACAD_XDICTIONARY
360
41C
102
}
102
{ACAD_REACTORS
330
423
102
}
330
21
100
AcDbEntity
  8
标注
100
AcDbDimension
  2
*D32
 10
263.6550256916049
 20
912.4375272860289
 30
0.0
 11
217.3081547399618
 21
823.0745297379968
 31
0.0
 70
    36
 71
     5
 42
25.00000000000046
  3
mav
100
AcDbRadialDimension
 15
252.1450411837463
 25
890.2447298817161
 35
0.0
 40
0.0
1001
ACAD
1000
DSTYLE
1002
{
1070
   288
1070
     1
1002
}
  0
DIMENSION
  5
424
102
{ACAD_XDICTIONARY
360
42D
102
}
102
{ACAD_REACTORS
330
433
102
}
330
21
100
AcDbEntity
  8
标注
100
AcDbDimension
  2
*D33
 10
-42.2983885922323
 20
557.9123108471192
 30
0.0
 11
-40.11285950564053
 21
560.4291687538696
 31
0.0
 70
   164
 71
     5
 42
94.00000000000005
  3
mav
100
AcDbRadialDimension
 15
-103.9303088341207
 25
486.9369178767558
 35
0.0
 40
0.0
1001
ACAD
1000
DSTYLE
1002
{
1070
   288
1070
     1
1002
}
  0
DIMENSION
  5
434
102
{ACAD_XDICTIONARY
360
43D
102
}
102
{ACAD_REACTORS
330
443
102
}
330
21
100
AcDbEntity
  8
标注
100
AcDbDimension
  2
*D34
 10
528.2363167342236
 20
556.8343866781161
 30
0.0
 11
526.0780108700702
 21
559.3746281839326
 31
0.0
 70
   164
 71
     5
 42
93.99999999999989
  3
mav
100
AcDbRadialDimension
 15
589.1005421033476
 25
485.1995762140933
 35
0.0
 40
0.0
1001
ACAD
1000
DSTYLE
1002
{
1070
   288
1070
     1
1002
}
  0
DIMENSION
  5
444
102
{ACAD_XDICTIONARY
360
44D
102
}
102
{ACAD_REACTORS
330
453
102
}
330
21
100
AcDbEntity
  8
标注
100
AcDbDimension
  2
*D35
 10
165.6338362304273
 20
844.9627437249377
 30
0.0
 11
164.0219555475299
 21
842.0450474118833
 31
0.0
 70
   164
 71
     5
 42
94.00000000000057
  3
mav
100
AcDbRadialDimension
 15
211.0888714881417
 25
927.2417797530783
 35
0.0
 40
0.0
1001
ACAD
1000
DSTYLE
1002
{
1070
   288
1070
     1
1002
}
  0
ENDSEC
  0
SECTION
  2
OBJECTS
  0
DICTIONARY
  5
C
330
0
100
AcDbDictionary
281
     1
  3
ACAD_COLOR
350
1C
  3
ACAD_GROUP
350
D
  3
ACAD_LAYOUT
350
1A
  3
ACAD_MATERIAL
350
1B
  3
ACAD_MLINESTYLE
350
17
  3
ACAD_PLOTSETTINGS
350
19
  3
ACAD_PLOTSTYLENAME
350
E
  0
DICTIONARY
  5
25E
330
2
100
AcDbDictionary
280
     1
281
     1
  3
ACAD_LAYERSTATES
360
25F
  0
DICTIONARY
  5
39D
330
38F
100
AcDbDictionary
280
     1
281
     1
  3
ACAD_DIMASSOC
360
3A8
  0
DICTIONARY
  5
3B7
330
3A9
100
AcDbDictionary
280
     1
281
     1
  3
ACAD_DIMASSOC
360
3C2
  0
DICTIONARY
  5
3D7
330
3CE
100
AcDbDictionary
280
     1
281
     1
  3
ACAD_DIMASSOC
360
3DD
  0
DICTIONARY
  5
3E7
330
3DE
100
AcDbDictionary
280
     1
281
     1
  3
ACAD_DIMASSOC
360
3ED
  0
DICTIONARY
  5
41C
330
412
100
AcDbDictionary
280
     1
281
     1
  3
ACAD_DIMASSOC
360
423
  0
DICTIONARY
  5
42D
330
424
100
AcDbDictionary
280
     1
281
     1
  3
ACAD_DIMASSOC
360
433
  0
DICTIONARY
  5
43D
330
434
100
AcDbDictionary
280
     1
281
     1
  3
ACAD_DIMASSOC
360
443
  0
DICTIONARY
  5
44D
330
444
100
AcDbDictionary
280
     1
281
     1
  3
ACAD_DIMASSOC
360
453
  0
DICTIONARY
  5
1C
102
{ACAD_REACTORS
330
C
102
}
330
C
100
AcDbDictionary
281
     1
  0
DICTIONARY
  5
D
102
{ACAD_REACTORS
330
C
102
}
330
C
100
AcDbDictionary
281
     1
  0
DICTIONARY
  5
1A
102
{ACAD_REACTORS
330
C
102
}
330
C
100
AcDbDictionary
281
     1
  3
Model
350
24
  3
布局1
350
20
  3
布局2
350
28
  0
DICTIONARY
  5
1B
102
{ACAD_REACTORS
330
C
102
}
330
C
100
AcDbDictionary
281
     1
  0
DICTIONARY
  5
17
102
{ACAD_REACTORS
330
C
102
}
330
C
100
AcDbDictionary
281
     1
  3
Standard
350
18
  0
DICTIONARY
  5
19
102
{ACAD_REACTORS
330
C
102
}
330
C
100
AcDbDictionary
281
     1
  0
ACDBDICTIONARYWDFLT
  5
E
102
{ACAD_REACTORS
330
C
102
}
330
C
100
AcDbDictionary
281
     1
  3
Normal
350
F
100
AcDbDictionaryWithDefault
340
F
  0
DICTIONARY
  5
25F
102
{ACAD_REACTORS
330
25E
102
}
330
25E
100
AcDbDictionary
281
     1
  0
DIMASSOC
  5
3A8
102
{ACAD_REACTORS
330
39D
102
}
330
39D
100
AcDbDimAssoc
330
38F
 90
        3
 70
     0
 71
     0
  1
AcDbOsnapPointRef
 72
    11
331
362
 73
     2
 91
        0
 40
0.0000000000000024
 10
0.0
 20
0.0
 30
0.0
332
363
 74
     2
 92
        0
 75
     0
  1
AcDbOsnapPointRef
 72
     1
331
369
 73
     2
 91
        0
 40
1.0
 10
0.0
 20
0.0
 30
2.000000000000000E+50
 75
     0
  0
DIMASSOC
  5
3C2
102
{ACAD_REACTORS
330
3B7
102
}
330
3B7
100
AcDbDimAssoc
330
3A9
 90
        3
 70
     0
 71
     0
  1
AcDbOsnapPointRef
 72
     1
331
366
 73
     2
 91
        0
 40
6.283185307179584
 10
0.0
 20
0.0
 30
2.000000000000000E+50
 75
     0
  1
AcDbOsnapPointRef
 72
     1
331
36D
 73
     2
 91
        0
 40
3.141592653589792
 10
0.0
 20
0.0
 30
2.000000000000000E+50
 75
     0
  0
DIMASSOC
  5
3DD
102
{ACAD_REACTORS
330
3D7
102
}
330
3D7
100
AcDbDimAssoc
330
3CE
 90
        2
 70
     0
 71
     0
  1
AcDbOsnapPointRef
 72
     3
331
36E
 73
     2
 91
        0
 40
0.0
 10
0.0
 20
0.0
 30
0.0
 75
     0
  0
DIMASSOC
  5
3ED
102
{ACAD_REACTORS
330
3E7
102
}
330
3E7
100
AcDbDimAssoc
330
3DE
 90
        2
 70
     0
 71
     0
  1
AcDbOsnapPointRef
 72
     3
331
364
 73
     2
 91
        0
 40
0.0
 10
0.0
 20
0.0
 30
0.0
 75
     0
  0
DIMASSOC
  5
423
102
{ACAD_REACTORS
330
41C
102
}
330
41C
100
AcDbDimAssoc
330
412
 90
        2
 70
     0
 71
     0
  1
AcDbOsnapPointRef
 72
     3
331
407
 73
     2
 91
        0
 40
0.0
 10
0.0
 20
0.0
 30
0.0
 75
     0
  0
DIMASSOC
  5
433
102
{ACAD_REACTORS
330
42D
102
}
330
42D
100
AcDbDimAssoc
330
424
 90
        2
 70
     0
 71
     0
  1
AcDbOsnapPointRef
 72
     3
331
36B
 73
     2
 91
        0
 40
0.0
 10
0.0
 20
0.0
 30
0.0
 75
     0
  0
DIMASSOC
  5
443
102
{ACAD_REACTORS
330
43D
102
}
330
43D
100
AcDbDimAssoc
330
434
 90
        2
 70
     0
 71
     0
  1
AcDbOsnapPointRef
 72
     3
331
367
 73
     2
 91
        0
 40
0.0
 10
0.0
 20
0.0
 30
0.0
 75
     0
  0
DIMASSOC
  5
453
102
{ACAD_REACTORS
330
44D
102
}
330
44D
100
AcDbDimAssoc
330
444
 90
        2
 70
     0
 71
     0
  1
AcDbOsnapPointRef
 72
     3
331
361
 73
     2
 91
        0
 40
0.0
 10
0.0
 20
0.0
 30
0.0
 75
     0
  0
LAYOUT
  5
24
102
{ACAD_REACTORS
330
1A
102
}
330
1A
100
AcDbPlotSettings
  1

  2
FX DocuPrint 255-AP
  4
A4
  6

 40
4.900083065032958
 41
4.900057315826416
 42
4.90008544921875
 43
4.90008544921875
 44
210.0156707763672
 45
297.0106506347656
 46
0.0
 47
0.0
 48
0.0
 49
0.0
140
0.0
141
0.0
142
1.0
143
1.0
 70
 11952
 72
     1
 73
     1
 74
     0
  7

 75
     0
147
1.0
 76
     0
 77
     2
 78
   300
148
-95.10250240444424
149
-69.85844212966799
100
AcDbLayout
  1
Model
 70
     1
 71
     0
 10
0.0
 20
0.0
 11
12.0
 21
9.0
 12
0.0
 22
0.0
 32
0.0
 14
0.0
 24
0.0
 34
0.0
 15
0.0
 25
0.0
 35
0.0
146
0.0
 13
0.0
 23
0.0
 33
0.0
 16
1.0
 26
0.0
 36
0.0
 17
0.0
 27
1.0
 37
0.0
 76
     0
330
21
  0
LAYOUT
  5
20
102
{ACAD_REACTORS
330
1A
102
}
330
1A
100
AcDbPlotSettings
  1

  2
FX DocuPrint 255-AP
  4

  6

 40
0.0
 41
0.0
 42
0.0
 43
0.0
 44
0.0
 45
0.0
 46
0.0
 47
0.0
 48
0.0
 49
0.0
140
0.0
141
0.0
142
1.0
143
1.0
 70
   688
 72
     0
 73
     0
 74
     5
  7

 75
    16
147
1.0
 76
     0
 77
     2
 78
   300
148
0.0
149
0.0
100
AcDbLayout
  1
布局1
 70
     1
 71
     1
 10
0.0
 20
0.0
 11
420.0
 21
297.0
 12
0.0
 22
0.0
 32
0.0
 14
1.000000000000000E+20
 24
1.000000000000000E+20
 34
1.000000000000000E+20
 15
-1.000000000000000E+20
 25
-1.000000000000000E+20
 35
-1.000000000000000E+20
146
0.0
 13
0.0
 23
0.0
 33
0.0
 16
1.0
 26
0.0
 36
0.0
 17
0.0
 27
1.0
 37
0.0
 76
     0
330
1D
  0
LAYOUT
  5
28
102
{ACAD_REACTORS
330
1A
102
}
330
1A
100
AcDbPlotSettings
  1

  2
FX DocuPrint 255-AP
  4

  6

 40
0.0
 41
0.0
 42
0.0
 43
0.0
 44
0.0
 45
0.0
 46
0.0
 47
0.0
 48
0.0
 49
0.0
140
0.0
141
0.0
142
1.0
143
1.0
 70
   688
 72
     0
 73
     0
 74
     5
  7

 75
    16
147
1.0
 76
     0
 77
     2
 78
   300
148
0.0
149
0.0
100
AcDbLayout
  1
布局2
 70
     1
 71
     2
 10
0.0
 20
0.0
 11
12.0
 21
9.0
 12
0.0
 22
0.0
 32
0.0
 14
0.0
 24
0.0
 34
0.0
 15
0.0
 25
0.0
 35
0.0
146
0.0
 13
0.0
 23
0.0
 33
0.0
 16
1.0
 26
0.0
 36
0.0
 17
0.0
 27
1.0
 37
0.0
 76
     0
330
25
  0
MLINESTYLE
  5
18
102
{ACAD_REACTORS
330
17
102
}
330
17
100
AcDbMlineStyle
  2
STANDARD
 70
     0
  3

 62
   256
 51
90.0
 52
90.0
 71
     2
 49
0.5
 62
   256
  6
BYLAYER
 49
-0.5
 62
   256
  6
BYLAYER
  0
ACDBPLACEHOLDER
  5
F
102
{ACAD_REACTORS
330
E
102
}
330
E
  0
ENDSEC
  0
EOF
