  0
SECTION
  2
HEADER
  9
$ACADVER
  1
AC1015
  9
$ACADMAINTVER
 70
     6
  9
$DWGCODEPAGE
  3
ANSI_1252
  9
$INSBASE
 10
0.0
 20
0.0
 30
0.0
  9
$EXTMIN
 10
0.0
 20
0.0
 30
0.0
  9
$EXTMAX
 10
40.0
 20
30.0
 30
0.0
  9
$LIMMIN
 10
0.0
 20
0.0
  9
$LIMMAX
 10
40.0
 20
30.0
  9
$ORTHOMODE
 70
     0
  9
$REGENMODE
 70
     1
  9
$FILLMODE
 70
     1
  9
$QTEXTMODE
 70
     0
  9
$MIRRTEXT
 70
     1
  9
$LTSCALE
 40
1.0
  9
$ATTMODE
 70
     1
  9
$TEXTSIZE
 40
0.4814814815
  9
$TRACEWID
 40
0.05
  9
$TEXTSTYLE
  7
Standard
  9
$CLAYER
  8
0
  9
$CELTYPE
  6
ByLayer
  9
$CECOLOR
 62
   256
  9
$CELTSCALE
 40
1.0
  9
$DISPSILH
 70
     0
  9
$DIMSCALE
 40
1.0
  9
$DIMASZ
 40
0.375
  9
$DIMEXO
 40
0.05
  9
$DIMDLI
 40
0.38
  9
$DIMRND
 40
0.0
  9
$DIMDLE
 40
0.0
  9
$DIMEXE
 40
0.125
  9
$DIMTP
 40
0.0
  9
$DIMTM
 40
0.0
  9
$DIMTXT
 40
0.5
  9
$DIMCEN
 40
0.09
  9
$DIMTSZ
 40
0.0
  9
$DIMTOL
 70
     0
  9
$DIMLIM
 70
     0
  9
$DIMTIH
 70
     1
  9
$DIMTOH
 70
     1
  9
$DIMSE1
 70
     0
  9
$DIMSE2
 70
     0
  9
$DIMTAD
 70
     0
  9
$DIMZIN
 70
     0
  9
$DIMBLK
  1

  9
$DIMASO
 70
     1
  9
$DIMSHO
 70
     1
  9
$DIMPOST
  1

  9
$DIMAPOST
  1

  9
$DIMALT
 70
     0
  9
$DIMALTD
 70
     2
  9
$DIMALTF
 40
25.4
  9
$DIMLFAC
 40
1.0
  9
$DIMTOFL
 70
     0
  9
$DIMTVP
 40
0.0
  9
$DIMTIX
 70
     0
  9
$DIMSOXD
 70
     0
  9
$DIMSAH
 70
     0
  9
$DIMBLK1
  1

  9
$DIMBLK2
  1

  9
$DIMSTYLE
  2
Standard
  9
$DIMCLRD
 70
     0
  9
$DIMCLRE
 70
     0
  9
$DIMCLRT
 70
     0
  9
$DIMTFAC
 40
1.0
  9
$DIMGAP
 40
0.06
  9
$DIMJUST
 70
     0
  9
$DIMSD1
 70
     0
  9
$DIMSD2
 70
     0
  9
$DIMTOLJ
 70
     1
  9
$DIMTZIN
 70
     0
  9
$DIMALTZ
 70
     0
  9
$DIMALTTZ
 70
     0
  9
$DIMUPT
 70
     0
  9
$DIMDEC
 70
     2
  9
$DIMTDEC
 70
     2
  9
$DIMALTU
 70
     2
  9
$DIMALTTD
 70
     2
  9
$DIMTXSTY
  7
Standard
  9
$DIMAUNIT
 70
     0
  9
$DIMADEC
 70
     2
  9
$DIMALTRND
 40
0.0
  9
$DIMAZIN
 70
     0
  9
$DIMDSEP
 70
    46
  9
$DIMATFIT
 70
     3
  9
$DIMFRAC
 70
     0
  9
$DIMLDRBLK
  1

  9
$DIMLUNIT
 70
     2
  9
$DIMLWD
 70
    -2
  9
$DIMLWE
 70
    -2
  9
$DIMTMOVE
 70
     0
  9
$LUNITS
 70
     2
  9
$LUPREC
 70
     3
  9
$SKETCHINC
 40
0.1
  9
$FILLETRAD
 40
0.5
  9
$AUNITS
 70
     0
  9
$AUPREC
 70
     2
  9
$MENU
  1
.
  9
$ELEVATION
 40
0.0
  9
$PELEVATION
 40
0.0
  9
$THICKNESS
 40
0.0
  9
$LIMCHECK
 70
     0
  9
$CHAMFERA
 40
0.5
  9
$CHAMFERB
 40
0.5
  9
$CHAMFERC
 40
1.0
  9
$CHAMFERD
 40
0.0
  9
$SKPOLY
 70
     0
  9
$TDCREATE
 40
2456408.583459444
  9
$TDUCREATE
 40
2456408.791792778
  9
$TDUPDATE
 40
2456408.583460162
  9
$TDUUPDATE
 40
2456408.791793495
  9
$TDINDWG
 40
0.0000000116
  9
$TDUSRTIMER
 40
0.0000000116
  9
$USRTIMER
 70
     1
  9
$ANGBASE
 50
0.0
  9
$ANGDIR
 70
     0
  9
$PDMODE
 70
     0
  9
$PDSIZE
 40
-1.0
  9
$PLINEWID
 40
0.0
  9
$SPLFRAME
 70
     0
  9
$SPLINETYPE
 70
     6
  9
$SPLINESEGS
 70
     8
  9
$HANDSEED
  5
205
  9
$SURFTAB1
 70
     6
  9
$SURFTAB2
 70
     6
  9
$SURFTYPE
 70
     6
  9
$SURFU
 70
     6
  9
$SURFV
 70
     6
  9
$UCSBASE
  2

  9
$UCSNAME
  2

  9
$UCSORG
 10
0.0
 20
0.0
 30
0.0
  9
$UCSXDIR
 10
1.0
 20
0.0
 30
0.0
  9
$UCSYDIR
 10
0.0
 20
1.0
 30
0.0
  9
$UCSORTHOREF
  2

  9
$UCSORTHOVIEW
 70
     0
  9
$UCSORGTOP
 10
0.0
 20
0.0
 30
0.0
  9
$UCSORGBOTTOM
 10
0.0
 20
0.0
 30
0.0
  9
$UCSORGLEFT
 10
0.0
 20
0.0
 30
0.0
  9
$UCSORGRIGHT
 10
0.0
 20
0.0
 30
0.0
  9
$UCSORGFRONT
 10
0.0
 20
0.0
 30
0.0
  9
$UCSORGBACK
 10
0.0
 20
0.0
 30
0.0
  9
$PUCSBASE
  2

  9
$PUCSNAME
  2

  9
$PUCSORG
 10
0.0
 20
0.0
 30
0.0
  9
$PUCSXDIR
 10
1.0
 20
0.0
 30
0.0
  9
$PUCSYDIR
 10
0.0
 20
1.0
 30
0.0
  9
$PUCSORTHOREF
  2

  9
$PUCSORTHOVIEW
 70
     0
  9
$PUCSORGTOP
 10
0.0
 20
0.0
 30
0.0
  9
$PUCSORGBOTTOM
 10
0.0
 20
0.0
 30
0.0
  9
$PUCSORGLEFT
 10
0.0
 20
0.0
 30
0.0
  9
$PUCSORGRIGHT
 10
0.0
 20
0.0
 30
0.0
  9
$PUCSORGFRONT
 10
0.0
 20
0.0
 30
0.0
  9
$PUCSORGBACK
 10
0.0
 20
0.0
 30
0.0
  9
$USERI1
 70
     0
  9
$USERI2
 70
     0
  9
$USERI3
 70
     0
  9
$USERI4
 70
     0
  9
$USERI5
 70
     0
  9
$USERR1
 40
0.0
  9
$USERR2
 40
0.0
  9
$USERR3
 40
0.0
  9
$USERR4
 40
0.0
  9
$USERR5
 40
0.0
  9
$WORLDVIEW
 70
     1
  9
$SHADEDGE
 70
     3
  9
$SHADEDIF
 70
    70
  9
$TILEMODE
 70
     1
  9
$MAXACTVP
 70
    64
  9
$PINSBASE
 10
0.0
 20
0.0
 30
0.0
  9
$PLIMCHECK
 70
     0
  9
$PEXTMIN
 10
1.0000000000E+20
 20
1.0000000000E+20
 30
1.0000000000E+20
  9
$PEXTMAX
 10
-1.0000000000E+20
 20
-1.0000000000E+20
 30
-1.0000000000E+20
  9
$PLIMMIN
 10
0.0
 20
0.0
  9
$PLIMMAX
 10
12.0
 20
9.0
  9
$UNITMODE
 70
     0
  9
$VISRETAIN
 70
     1
  9
$PLINEGEN
 70
     0
  9
$PSLTSCALE
 70
     1
  9
$TREEDEPTH
 70
  3020
  9
$CMLSTYLE
  2
Standard
  9
$CMLJUST
 70
     0
  9
$CMLSCALE
 40
1.0
  9
$PROXYGRAPHICS
 70
     1
  9
$MEASUREMENT
 70
     0
  9
$CELWEIGHT
370
    -1
  9
$ENDCAPS
280
     0
  9
$JOINSTYLE
280
     0
  9
$LWDISPLAY
290
     1
  9
$INSUNITS
 70
     1
  9
$HYPERLINKBASE
  1

  9
$STYLESHEET
  1

  9
$XEDIT
290
     1
  9
$CEPSNTYPE
380
     0
  9
$PSTYLEMODE
290
     1
  9
$FINGERPRINTGUID
  2
{34C742C8-FD6A-4361-812E-132E8308D326}
  9
$VERSIONGUID
  2
{FAEB1C32-E019-11D5-929B-00C0DF256EC4}
  9
$EXTNAMES
290
     1
  9
$PSVPSCALE
 40
0.0
  9
$OLESTARTUP
290
     0
  0
ENDSEC
  0
SECTION
  2
CLASSES
  0
CLASS
  1
ACDBDICTIONARYWDFLT
  2
AcDbDictionaryWithDefault
  3
ObjectDBX Classes
 90
        0
280
     0
281
     0
  0
CLASS
  1
VISUALSTYLE
  2
AcDbVisualStyle
  3
ObjectDBX Classes
 90
     4095
280
     0
281
     0
  0
CLASS
  1
MATERIAL
  2
AcDbMaterial
  3
ObjectDBX Classes
 90
     1153
280
     0
281
     0
  0
CLASS
  1
ACDBPLACEHOLDER
  2
AcDbPlaceHolder
  3
ObjectDBX Classes
 90
        0
280
     0
281
     0
  0
CLASS
  1
LAYOUT
  2
AcDbLayout
  3
ObjectDBX Classes
 90
        0
280
     0
281
     0
  0
ENDSEC
  0
SECTION
  2
TABLES
  0
TABLE
  2
VPORT
  5
8
330
0
100
AcDbSymbolTable
 70
     1
  0
VPORT
  5
29
330
8
100
AcDbSymbolTableRecord
100
AcDbViewportTableRecord
  2
*Active
 70
     0
 10
0.0
 20
0.0
 11
1.0
 21
1.0
 12
20.0
 22
15.0
 13
0.0
 23
0.0
 14
0.5
 24
0.5
 15
0.5
 25
0.5
 16
0.0
 26
0.0
 36
1.0
 17
0.0
 27
0.0
 37
0.0
 40
30.0
 41
1.3333333333
 42
50.0
 43
0.0
 44
0.0
 50
0.0
 51
0.0
 71
     0
 72
  2000
 73
     1
 74
     3
 75
     0
 76
     0
 77
     0
 78
     0
281
     0
 65
     1
110
0.0
120
0.0
130
0.0
111
1.0
121
0.0
131
0.0
112
0.0
122
1.0
132
0.0
 79
     0
146
0.0
  0
ENDTAB
  0
TABLE
  2
LTYPE
  5
5
330
0
100
AcDbSymbolTable
 70
     6
  0
LTYPE
  5
14
330
5
100
AcDbSymbolTableRecord
100
AcDbLinetypeTableRecord
  2
ByBlock
 70
     0
  3

 72
    65
 73
     0
 40
0.0
  0
LTYPE
  5
15
330
5
100
AcDbSymbolTableRecord
100
AcDbLinetypeTableRecord
  2
ByLayer
 70
     0
  3

 72
    65
 73
     0
 40
0.0
  0
LTYPE
  5
16
330
5
100
AcDbSymbolTableRecord
100
AcDbLinetypeTableRecord
  2
Continuous
 70
     0
  3
Solid line
 72
    65
 73
     0
 40
0.0
  0
LTYPE
  5
3F
330
5
100
AcDbSymbolTableRecord
100
AcDbLinetypeTableRecord
  2
HIDDEN
 70
     0
  3
Hidden __ __ __ __ __ __ __ __ __ __ __ __ __ __
 72
    65
 73
     2
 40
0.075
 49
0.05
 74
     0
 49
-0.025
 74
     0
  0
LTYPE
  5
40
330
5
100
AcDbSymbolTableRecord
100
AcDbLinetypeTableRecord
  2
PHANTOM
 70
     0
  3
Phantom ______  __  __  ______  __  __  ______
 72
    65
 73
     6
 40
0.5
 49
0.25
 74
     0
 49
-0.05
 74
     0
 49
0.05
 74
     0
 49
-0.05
 74
     0
 49
0.05
 74
     0
 49
-0.05
 74
     0
  0
LTYPE
  5
41
330
5
100
AcDbSymbolTableRecord
100
AcDbLinetypeTableRecord
  2
CENTER
 70
     0
  3
Center ____ _ ____ _ ____ _ ____ _ ____ _ ____
 72
    65
 73
     4
 40
0.4
 49
0.25
 74
     0
 49
-0.05
 74
     0
 49
0.05
 74
     0
 49
-0.05
 74
     0
  0
LTYPE
  5
42
330
5
100
AcDbSymbolTableRecord
100
AcDbLinetypeTableRecord
  2
CENTERX2
 70
     0
  3
Center (2x) ________  __  ________  __  _____
 72
    65
 73
     4
 40
0.8
 49
0.5
 74
     0
 49
-0.1
 74
     0
 49
0.1
 74
     0
 49
-0.1
 74
     0
  0
LTYPE
  5
43
330
5
100
AcDbSymbolTableRecord
100
AcDbLinetypeTableRecord
  2
DOT2
 70
     0
  3
Dot (.5x) ........................................
 72
    65
 73
     2
 40
0.025
 49
0.0
 74
     0
 49
-0.025
 74
     0
  0
ENDTAB
  0
TABLE
  2
LAYER
  5
2
330
0
100
AcDbSymbolTable
 70
   183
  0
LAYER
  5
10
330
2
100
AcDbSymbolTableRecord
100
AcDbLayerTableRecord
  2
0
 70
     0
 62
     7
  6
Continuous
370
    -3
390
F
  0
LAYER
  5
44
330
2
100
AcDbSymbolTableRecord
100
AcDbLayerTableRecord
  2
SLD-0
 70
     0
 62
   179
  6
Continuous
370
    -3
390
F
  0
LAYER
  5
45
330
2
100
AcDbSymbolTableRecord
100
AcDbLayerTableRecord
  2
1
 70
     0
 62
   179
  6
Continuous
370
    -3
390
F
  0
LAYER
  5
46
330
2
100
AcDbSymbolTableRecord
100
AcDbLayerTableRecord
  2
2
 70
     0
 62
   179
  6
Continuous
370
    -3
390
F
  0
LAYER
  5
47
330
2
100
AcDbSymbolTableRecord
100
AcDbLayerTableRecord
  2
3
 70
     0
 62
   179
  6
Continuous
370
    -3
390
F
  0
LAYER
  5
48
330
2
100
AcDbSymbolTableRecord
100
AcDbLayerTableRecord
  2
4
 70
     0
 62
   179
  6
Continuous
370
    -3
390
F
  0
LAYER
  5
49
330
2
100
AcDbSymbolTableRecord
100
AcDbLayerTableRecord
  2
5
 70
     0
 62
   179
  6
Continuous
370
    -3
390
F
  0
LAYER
  5
4A
330
2
100
AcDbSymbolTableRecord
100
AcDbLayerTableRecord
  2
6
 70
     0
 62
   179
  6
Continuous
370
    -3
390
F
  0
LAYER
  5
4B
330
2
100
AcDbSymbolTableRecord
100
AcDbLayerTableRecord
  2
7
 70
     0
 62
   179
  6
Continuous
370
    -3
390
F
  0
LAYER
  5
4C
330
2
100
AcDbSymbolTableRecord
100
AcDbLayerTableRecord
  2
8
 70
     0
 62
   179
  6
Continuous
370
    -3
390
F
  0
LAYER
  5
4D
330
2
100
AcDbSymbolTableRecord
100
AcDbLayerTableRecord
  2
9
 70
     0
 62
   179
  6
Continuous
370
    -3
390
F
  0
LAYER
  5
4E
330
2
100
AcDbSymbolTableRecord
100
AcDbLayerTableRecord
  2
10
 70
     0
 62
   179
  6
Continuous
370
    -3
390
F
  0
LAYER
  5
4F
330
2
100
AcDbSymbolTableRecord
100
AcDbLayerTableRecord
  2
11
 70
     0
 62
   179
  6
Continuous
370
    -3
390
F
  0
LAYER
  5
50
330
2
100
AcDbSymbolTableRecord
100
AcDbLayerTableRecord
  2
12
 70
     0
 62
   179
  6
Continuous
370
    -3
390
F
  0
LAYER
  5
51
330
2
100
AcDbSymbolTableRecord
100
AcDbLayerTableRecord
  2
13
 70
     0
 62
   179
  6
Continuous
370
    -3
390
F
  0
LAYER
  5
52
330
2
100
AcDbSymbolTableRecord
100
AcDbLayerTableRecord
  2
14
 70
     0
 62
   179
  6
Continuous
370
    -3
390
F
  0
LAYER
  5
53
330
2
100
AcDbSymbolTableRecord
100
AcDbLayerTableRecord
  2
15
 70
     0
 62
   179
  6
Continuous
370
    -3
390
F
  0
LAYER
  5
54
330
2
100
AcDbSymbolTableRecord
100
AcDbLayerTableRecord
  2
16
 70
     0
 62
   179
  6
Continuous
370
    -3
390
F
  0
LAYER
  5
55
330
2
100
AcDbSymbolTableRecord
100
AcDbLayerTableRecord
  2
17
 70
     0
 62
   179
  6
Continuous
370
    -3
390
F
  0
LAYER
  5
56
330
2
100
AcDbSymbolTableRecord
100
AcDbLayerTableRecord
  2
18
 70
     0
 62
   179
  6
Continuous
370
    -3
390
F
  0
LAYER
  5
57
330
2
100
AcDbSymbolTableRecord
100
AcDbLayerTableRecord
  2
19
 70
     0
 62
   179
  6
Continuous
370
    -3
390
F
  0
LAYER
  5
58
330
2
100
AcDbSymbolTableRecord
100
AcDbLayerTableRecord
  2
20
 70
     0
 62
   179
  6
Continuous
370
    -3
390
F
  0
LAYER
  5
59
330
2
100
AcDbSymbolTableRecord
100
AcDbLayerTableRecord
  2
21
 70
     0
 62
   179
  6
Continuous
370
    -3
390
F
  0
LAYER
  5
5A
330
2
100
AcDbSymbolTableRecord
100
AcDbLayerTableRecord
  2
22
 70
     0
 62
   179
  6
Continuous
370
    -3
390
F
  0
LAYER
  5
5B
330
2
100
AcDbSymbolTableRecord
100
AcDbLayerTableRecord
  2
23
 70
     0
 62
   179
  6
Continuous
370
    -3
390
F
  0
LAYER
  5
5C
330
2
100
AcDbSymbolTableRecord
100
AcDbLayerTableRecord
  2
24
 70
     0
 62
   179
  6
Continuous
370
    -3
390
F
  0
LAYER
  5
5D
330
2
100
AcDbSymbolTableRecord
100
AcDbLayerTableRecord
  2
25
 70
     0
 62
   179
  6
Continuous
370
    -3
390
F
  0
LAYER
  5
5E
330
2
100
AcDbSymbolTableRecord
100
AcDbLayerTableRecord
  2
26
 70
     0
 62
   179
  6
Continuous
370
    -3
390
F
  0
LAYER
  5
5F
330
2
100
AcDbSymbolTableRecord
100
AcDbLayerTableRecord
  2
27
 70
     0
 62
   179
  6
Continuous
370
    -3
390
F
  0
LAYER
  5
60
330
2
100
AcDbSymbolTableRecord
100
AcDbLayerTableRecord
  2
28
 70
     0
 62
   179
  6
Continuous
370
    -3
390
F
  0
LAYER
  5
61
330
2
100
AcDbSymbolTableRecord
100
AcDbLayerTableRecord
  2
29
 70
     0
 62
   179
  6
Continuous
370
    -3
390
F
  0
LAYER
  5
62
330
2
100
AcDbSymbolTableRecord
100
AcDbLayerTableRecord
  2
30
 70
     0
 62
   179
  6
Continuous
370
    -3
390
F
  0
LAYER
  5
63
330
2
100
AcDbSymbolTableRecord
100
AcDbLayerTableRecord
  2
31
 70
     0
 62
   179
  6
Continuous
370
    -3
390
F
  0
LAYER
  5
64
330
2
100
AcDbSymbolTableRecord
100
AcDbLayerTableRecord
  2
32
 70
     0
 62
   179
  6
Continuous
370
    -3
390
F
  0
LAYER
  5
65
330
2
100
AcDbSymbolTableRecord
100
AcDbLayerTableRecord
  2
33
 70
     0
 62
   179
  6
Continuous
370
    -3
390
F
  0
LAYER
  5
66
330
2
100
AcDbSymbolTableRecord
100
AcDbLayerTableRecord
  2
34
 70
     0
 62
   179
  6
Continuous
370
    -3
390
F
  0
LAYER
  5
67
330
2
100
AcDbSymbolTableRecord
100
AcDbLayerTableRecord
  2
35
 70
     0
 62
   179
  6
Continuous
370
    -3
390
F
  0
LAYER
  5
68
330
2
100
AcDbSymbolTableRecord
100
AcDbLayerTableRecord
  2
36
 70
     0
 62
   179
  6
Continuous
370
    -3
390
F
  0
LAYER
  5
69
330
2
100
AcDbSymbolTableRecord
100
AcDbLayerTableRecord
  2
37
 70
     0
 62
   179
  6
Continuous
370
    -3
390
F
  0
LAYER
  5
6A
330
2
100
AcDbSymbolTableRecord
100
AcDbLayerTableRecord
  2
38
 70
     0
 62
   179
  6
Continuous
370
    -3
390
F
  0
LAYER
  5
6B
330
2
100
AcDbSymbolTableRecord
100
AcDbLayerTableRecord
  2
39
 70
     0
 62
   179
  6
Continuous
370
    -3
390
F
  0
LAYER
  5
6C
330
2
100
AcDbSymbolTableRecord
100
AcDbLayerTableRecord
  2
40
 70
     0
 62
   179
  6
Continuous
370
    -3
390
F
  0
LAYER
  5
6D
330
2
100
AcDbSymbolTableRecord
100
AcDbLayerTableRecord
  2
41
 70
     0
 62
   179
  6
Continuous
370
    -3
390
F
  0
LAYER
  5
6E
330
2
100
AcDbSymbolTableRecord
100
AcDbLayerTableRecord
  2
42
 70
     0
 62
   179
  6
Continuous
370
    -3
390
F
  0
LAYER
  5
6F
330
2
100
AcDbSymbolTableRecord
100
AcDbLayerTableRecord
  2
43
 70
     0
 62
   179
  6
Continuous
370
    -3
390
F
  0
LAYER
  5
70
330
2
100
AcDbSymbolTableRecord
100
AcDbLayerTableRecord
  2
44
 70
     0
 62
   179
  6
Continuous
370
    -3
390
F
  0
LAYER
  5
71
330
2
100
AcDbSymbolTableRecord
100
AcDbLayerTableRecord
  2
45
 70
     0
 62
   179
  6
Continuous
370
    -3
390
F
  0
LAYER
  5
72
330
2
100
AcDbSymbolTableRecord
100
AcDbLayerTableRecord
  2
46
 70
     0
 62
  -179
  6
Continuous
370
    -3
390
F
  0
LAYER
  5
73
330
2
100
AcDbSymbolTableRecord
100
AcDbLayerTableRecord
  2
47
 70
     0
 62
   179
  6
Continuous
370
    -3
390
F
  0
LAYER
  5
74
330
2
100
AcDbSymbolTableRecord
100
AcDbLayerTableRecord
  2
48
 70
     0
 62
   179
  6
Continuous
370
    -3
390
F
  0
LAYER
  5
75
330
2
100
AcDbSymbolTableRecord
100
AcDbLayerTableRecord
  2
49
 70
     0
 62
   179
  6
Continuous
370
    -3
390
F
  0
LAYER
  5
76
330
2
100
AcDbSymbolTableRecord
100
AcDbLayerTableRecord
  2
50
 70
     0
 62
   179
  6
Continuous
370
    -3
390
F
  0
LAYER
  5
77
330
2
100
AcDbSymbolTableRecord
100
AcDbLayerTableRecord
  2
51
 70
     0
 62
   179
  6
Continuous
370
    -3
390
F
  0
LAYER
  5
78
330
2
100
AcDbSymbolTableRecord
100
AcDbLayerTableRecord
  2
52
 70
     0
 62
   179
  6
Continuous
370
    -3
390
F
  0
LAYER
  5
79
330
2
100
AcDbSymbolTableRecord
100
AcDbLayerTableRecord
  2
53
 70
     0
 62
   179
  6
Continuous
370
    -3
390
F
  0
LAYER
  5
7A
330
2
100
AcDbSymbolTableRecord
100
AcDbLayerTableRecord
  2
54
 70
     0
 62
   179
  6
Continuous
370
    -3
390
F
  0
LAYER
  5
7B
330
2
100
AcDbSymbolTableRecord
100
AcDbLayerTableRecord
  2
55
 70
     0
 62
   179
  6
Continuous
370
    -3
390
F
  0
LAYER
  5
7C
330
2
100
AcDbSymbolTableRecord
100
AcDbLayerTableRecord
  2
56
 70
     0
 62
   179
  6
Continuous
370
    -3
390
F
  0
LAYER
  5
7D
330
2
100
AcDbSymbolTableRecord
100
AcDbLayerTableRecord
  2
57
 70
     0
 62
   179
  6
Continuous
370
    -3
390
F
  0
LAYER
  5
7E
330
2
100
AcDbSymbolTableRecord
100
AcDbLayerTableRecord
  2
58
 70
     0
 62
   179
  6
Continuous
370
    -3
390
F
  0
LAYER
  5
7F
330
2
100
AcDbSymbolTableRecord
100
AcDbLayerTableRecord
  2
59
 70
     0
 62
   179
  6
Continuous
370
    -3
390
F
  0
LAYER
  5
80
330
2
100
AcDbSymbolTableRecord
100
AcDbLayerTableRecord
  2
60
 70
     0
 62
   179
  6
Continuous
370
    -3
390
F
  0
LAYER
  5
81
330
2
100
AcDbSymbolTableRecord
100
AcDbLayerTableRecord
  2
61
 70
     0
 62
   179
  6
Continuous
370
    -3
390
F
  0
LAYER
  5
82
330
2
100
AcDbSymbolTableRecord
100
AcDbLayerTableRecord
  2
62
 70
     0
 62
   179
  6
Continuous
370
    -3
390
F
  0
LAYER
  5
83
330
2
100
AcDbSymbolTableRecord
100
AcDbLayerTableRecord
  2
63
 70
     0
 62
   179
  6
Continuous
370
    -3
390
F
  0
LAYER
  5
84
330
2
100
AcDbSymbolTableRecord
100
AcDbLayerTableRecord
  2
64
 70
     0
 62
   179
  6
Continuous
370
    -3
390
F
  0
LAYER
  5
85
330
2
100
AcDbSymbolTableRecord
100
AcDbLayerTableRecord
  2
65
 70
     0
 62
   179
  6
Continuous
370
    -3
390
F
  0
LAYER
  5
86
330
2
100
AcDbSymbolTableRecord
100
AcDbLayerTableRecord
  2
66
 70
     0
 62
   179
  6
Continuous
370
    -3
390
F
  0
LAYER
  5
87
330
2
100
AcDbSymbolTableRecord
100
AcDbLayerTableRecord
  2
67
 70
     0
 62
   179
  6
Continuous
370
    -3
390
F
  0
LAYER
  5
88
330
2
100
AcDbSymbolTableRecord
100
AcDbLayerTableRecord
  2
68
 70
     0
 62
   179
  6
Continuous
370
    -3
390
F
  0
LAYER
  5
89
330
2
100
AcDbSymbolTableRecord
100
AcDbLayerTableRecord
  2
69
 70
     0
 62
   179
  6
Continuous
370
    -3
390
F
  0
LAYER
  5
8A
330
2
100
AcDbSymbolTableRecord
100
AcDbLayerTableRecord
  2
70
 70
     0
 62
   179
  6
Continuous
370
    -3
390
F
  0
LAYER
  5
8B
330
2
100
AcDbSymbolTableRecord
100
AcDbLayerTableRecord
  2
71
 70
     0
 62
   179
  6
Continuous
370
    -3
390
F
  0
LAYER
  5
8C
330
2
100
AcDbSymbolTableRecord
100
AcDbLayerTableRecord
  2
72
 70
     0
 62
   179
  6
Continuous
370
    -3
390
F
  0
LAYER
  5
8D
330
2
100
AcDbSymbolTableRecord
100
AcDbLayerTableRecord
  2
73
 70
     0
 62
   179
  6
Continuous
370
    -3
390
F
  0
LAYER
  5
8E
330
2
100
AcDbSymbolTableRecord
100
AcDbLayerTableRecord
  2
74
 70
     0
 62
   179
  6
Continuous
370
    -3
390
F
  0
LAYER
  5
8F
330
2
100
AcDbSymbolTableRecord
100
AcDbLayerTableRecord
  2
75
 70
     0
 62
   179
  6
Continuous
370
    -3
390
F
  0
LAYER
  5
90
330
2
100
AcDbSymbolTableRecord
100
AcDbLayerTableRecord
  2
76
 70
     0
 62
   179
  6
Continuous
370
    -3
390
F
  0
LAYER
  5
91
330
2
100
AcDbSymbolTableRecord
100
AcDbLayerTableRecord
  2
77
 70
     0
 62
   179
  6
Continuous
370
    -3
390
F
  0
LAYER
  5
92
330
2
100
AcDbSymbolTableRecord
100
AcDbLayerTableRecord
  2
78
 70
     0
 62
   179
  6
Continuous
370
    -3
390
F
  0
LAYER
  5
93
330
2
100
AcDbSymbolTableRecord
100
AcDbLayerTableRecord
  2
79
 70
     0
 62
   179
  6
Continuous
370
    -3
390
F
  0
LAYER
  5
94
330
2
100
AcDbSymbolTableRecord
100
AcDbLayerTableRecord
  2
80
 70
     0
 62
   179
  6
Continuous
370
    -3
390
F
  0
LAYER
  5
95
330
2
100
AcDbSymbolTableRecord
100
AcDbLayerTableRecord
  2
81
 70
     0
 62
   179
  6
Continuous
370
    -3
390
F
  0
LAYER
  5
96
330
2
100
AcDbSymbolTableRecord
100
AcDbLayerTableRecord
  2
82
 70
     0
 62
   179
  6
Continuous
370
    -3
390
F
  0
LAYER
  5
97
330
2
100
AcDbSymbolTableRecord
100
AcDbLayerTableRecord
  2
83
 70
     0
 62
   179
  6
Continuous
370
    -3
390
F
  0
LAYER
  5
98
330
2
100
AcDbSymbolTableRecord
100
AcDbLayerTableRecord
  2
84
 70
     0
 62
   179
  6
Continuous
370
    -3
390
F
  0
LAYER
  5
99
330
2
100
AcDbSymbolTableRecord
100
AcDbLayerTableRecord
  2
85
 70
     0
 62
   179
  6
Continuous
370
    -3
390
F
  0
LAYER
  5
9A
330
2
100
AcDbSymbolTableRecord
100
AcDbLayerTableRecord
  2
86
 70
     0
 62
   179
  6
Continuous
370
    -3
390
F
  0
LAYER
  5
9B
330
2
100
AcDbSymbolTableRecord
100
AcDbLayerTableRecord
  2
87
 70
     0
 62
   179
  6
Continuous
370
    -3
390
F
  0
LAYER
  5
9C
330
2
100
AcDbSymbolTableRecord
100
AcDbLayerTableRecord
  2
88
 70
     0
 62
   179
  6
Continuous
370
    -3
390
F
  0
LAYER
  5
9D
330
2
100
AcDbSymbolTableRecord
100
AcDbLayerTableRecord
  2
89
 70
     0
 62
   179
  6
Continuous
370
    -3
390
F
  0
LAYER
  5
9E
330
2
100
AcDbSymbolTableRecord
100
AcDbLayerTableRecord
  2
90
 70
     0
 62
   179
  6
Continuous
370
    -3
390
F
  0
LAYER
  5
9F
330
2
100
AcDbSymbolTableRecord
100
AcDbLayerTableRecord
  2
91
 70
     0
 62
   179
  6
Continuous
370
    -3
390
F
  0
LAYER
  5
A0
330
2
100
AcDbSymbolTableRecord
100
AcDbLayerTableRecord
  2
92
 70
     0
 62
   179
  6
Continuous
370
    -3
390
F
  0
LAYER
  5
A1
330
2
100
AcDbSymbolTableRecord
100
AcDbLayerTableRecord
  2
93
 70
     0
 62
   179
  6
Continuous
370
    -3
390
F
  0
LAYER
  5
A2
330
2
100
AcDbSymbolTableRecord
100
AcDbLayerTableRecord
  2
94
 70
     0
 62
   179
  6
Continuous
370
    -3
390
F
  0
LAYER
  5
A3
330
2
100
AcDbSymbolTableRecord
100
AcDbLayerTableRecord
  2
95
 70
     0
 62
   179
  6
Continuous
370
    -3
390
F
  0
LAYER
  5
A4
330
2
100
AcDbSymbolTableRecord
100
AcDbLayerTableRecord
  2
96
 70
     0
 62
   179
  6
Continuous
370
    -3
390
F
  0
LAYER
  5
A5
330
2
100
AcDbSymbolTableRecord
100
AcDbLayerTableRecord
  2
97
 70
     0
 62
   179
  6
Continuous
370
    -3
390
F
  0
LAYER
  5
A6
330
2
100
AcDbSymbolTableRecord
100
AcDbLayerTableRecord
  2
98
 70
     0
 62
   179
  6
Continuous
370
    -3
390
F
  0
LAYER
  5
A7
330
2
100
AcDbSymbolTableRecord
100
AcDbLayerTableRecord
  2
99
 70
     0
 62
   179
  6
Continuous
370
    -3
390
F
  0
LAYER
  5
A8
330
2
100
AcDbSymbolTableRecord
100
AcDbLayerTableRecord
  2
100
 70
     0
 62
   179
  6
Continuous
370
    -3
390
F
  0
LAYER
  5
A9
330
2
100
AcDbSymbolTableRecord
100
AcDbLayerTableRecord
  2
101
 70
     0
 62
   179
  6
Continuous
370
    -3
390
F
  0
LAYER
  5
AA
330
2
100
AcDbSymbolTableRecord
100
AcDbLayerTableRecord
  2
102
 70
     0
 62
   179
  6
Continuous
370
    -3
390
F
  0
LAYER
  5
AB
330
2
100
AcDbSymbolTableRecord
100
AcDbLayerTableRecord
  2
103
 70
     0
 62
   179
  6
Continuous
370
    -3
390
F
  0
LAYER
  5
AC
330
2
100
AcDbSymbolTableRecord
100
AcDbLayerTableRecord
  2
104
 70
     0
 62
   179
  6
Continuous
370
    -3
390
F
  0
LAYER
  5
AD
330
2
100
AcDbSymbolTableRecord
100
AcDbLayerTableRecord
  2
105
 70
     0
 62
   179
  6
Continuous
370
    -3
390
F
  0
LAYER
  5
AE
330
2
100
AcDbSymbolTableRecord
100
AcDbLayerTableRecord
  2
106
 70
     0
 62
   179
  6
Continuous
370
    -3
390
F
  0
LAYER
  5
AF
330
2
100
AcDbSymbolTableRecord
100
AcDbLayerTableRecord
  2
107
 70
     0
 62
   179
  6
Continuous
370
    -3
390
F
  0
LAYER
  5
B0
330
2
100
AcDbSymbolTableRecord
100
AcDbLayerTableRecord
  2
108
 70
     0
 62
   179
  6
Continuous
370
    -3
390
F
  0
LAYER
  5
B1
330
2
100
AcDbSymbolTableRecord
100
AcDbLayerTableRecord
  2
109
 70
     0
 62
   179
  6
Continuous
370
    -3
390
F
  0
LAYER
  5
B2
330
2
100
AcDbSymbolTableRecord
100
AcDbLayerTableRecord
  2
110
 70
     0
 62
   179
  6
Continuous
370
    -3
390
F
  0
LAYER
  5
B3
330
2
100
AcDbSymbolTableRecord
100
AcDbLayerTableRecord
  2
111
 70
     0
 62
   179
  6
Continuous
370
    -3
390
F
  0
LAYER
  5
B4
330
2
100
AcDbSymbolTableRecord
100
AcDbLayerTableRecord
  2
112
 70
     0
 62
   179
  6
Continuous
370
    -3
390
F
  0
LAYER
  5
B5
330
2
100
AcDbSymbolTableRecord
100
AcDbLayerTableRecord
  2
113
 70
     0
 62
   179
  6
Continuous
370
    -3
390
F
  0
LAYER
  5
B6
330
2
100
AcDbSymbolTableRecord
100
AcDbLayerTableRecord
  2
114
 70
     0
 62
   179
  6
Continuous
370
    -3
390
F
  0
LAYER
  5
B7
330
2
100
AcDbSymbolTableRecord
100
AcDbLayerTableRecord
  2
115
 70
     0
 62
   179
  6
Continuous
370
    -3
390
F
  0
LAYER
  5
B8
330
2
100
AcDbSymbolTableRecord
100
AcDbLayerTableRecord
  2
116
 70
     0
 62
   179
  6
Continuous
370
    -3
390
F
  0
LAYER
  5
B9
330
2
100
AcDbSymbolTableRecord
100
AcDbLayerTableRecord
  2
117
 70
     0
 62
   179
  6
Continuous
370
    -3
390
F
  0
LAYER
  5
BA
330
2
100
AcDbSymbolTableRecord
100
AcDbLayerTableRecord
  2
118
 70
     0
 62
   179
  6
Continuous
370
    -3
390
F
  0
LAYER
  5
BB
330
2
100
AcDbSymbolTableRecord
100
AcDbLayerTableRecord
  2
119
 70
     0
 62
   179
  6
Continuous
370
    -3
390
F
  0
LAYER
  5
BC
330
2
100
AcDbSymbolTableRecord
100
AcDbLayerTableRecord
  2
120
 70
     0
 62
   179
  6
Continuous
370
    -3
390
F
  0
LAYER
  5
BD
330
2
100
AcDbSymbolTableRecord
100
AcDbLayerTableRecord
  2
121
 70
     0
 62
   179
  6
Continuous
370
    -3
390
F
  0
LAYER
  5
BE
330
2
100
AcDbSymbolTableRecord
100
AcDbLayerTableRecord
  2
122
 70
     0
 62
   179
  6
Continuous
370
    -3
390
F
  0
LAYER
  5
BF
330
2
100
AcDbSymbolTableRecord
100
AcDbLayerTableRecord
  2
123
 70
     0
 62
   179
  6
Continuous
370
    -3
390
F
  0
LAYER
  5
C0
330
2
100
AcDbSymbolTableRecord
100
AcDbLayerTableRecord
  2
124
 70
     0
 62
   179
  6
Continuous
370
    -3
390
F
  0
LAYER
  5
C1
330
2
100
AcDbSymbolTableRecord
100
AcDbLayerTableRecord
  2
125
 70
     0
 62
   179
  6
Continuous
370
    -3
390
F
  0
LAYER
  5
C2
330
2
100
AcDbSymbolTableRecord
100
AcDbLayerTableRecord
  2
126
 70
     0
 62
   179
  6
Continuous
370
    -3
390
F
  0
LAYER
  5
C3
330
2
100
AcDbSymbolTableRecord
100
AcDbLayerTableRecord
  2
127
 70
     0
 62
   179
  6
Continuous
370
    -3
390
F
  0
LAYER
  5
C4
330
2
100
AcDbSymbolTableRecord
100
AcDbLayerTableRecord
  2
128
 70
     0
 62
   179
  6
Continuous
370
    -3
390
F
  0
LAYER
  5
C5
330
2
100
AcDbSymbolTableRecord
100
AcDbLayerTableRecord
  2
129
 70
     0
 62
   179
  6
Continuous
370
    -3
390
F
  0
LAYER
  5
C6
330
2
100
AcDbSymbolTableRecord
100
AcDbLayerTableRecord
  2
130
 70
     0
 62
   179
  6
Continuous
370
    -3
390
F
  0
LAYER
  5
C7
330
2
100
AcDbSymbolTableRecord
100
AcDbLayerTableRecord
  2
131
 70
     0
 62
   179
  6
Continuous
370
    -3
390
F
  0
LAYER
  5
C8
330
2
100
AcDbSymbolTableRecord
100
AcDbLayerTableRecord
  2
132
 70
     0
 62
   179
  6
Continuous
370
    -3
390
F
  0
LAYER
  5
C9
330
2
100
AcDbSymbolTableRecord
100
AcDbLayerTableRecord
  2
133
 70
     0
 62
   179
  6
Continuous
370
    -3
390
F
  0
LAYER
  5
CA
330
2
100
AcDbSymbolTableRecord
100
AcDbLayerTableRecord
  2
134
 70
     0
 62
   179
  6
Continuous
370
    -3
390
F
  0
LAYER
  5
CB
330
2
100
AcDbSymbolTableRecord
100
AcDbLayerTableRecord
  2
135
 70
     0
 62
   179
  6
Continuous
370
    -3
390
F
  0
LAYER
  5
CC
330
2
100
AcDbSymbolTableRecord
100
AcDbLayerTableRecord
  2
136
 70
     0
 62
   179
  6
Continuous
370
    -3
390
F
  0
LAYER
  5
CD
330
2
100
AcDbSymbolTableRecord
100
AcDbLayerTableRecord
  2
137
 70
     0
 62
   179
  6
Continuous
370
    -3
390
F
  0
LAYER
  5
CE
330
2
100
AcDbSymbolTableRecord
100
AcDbLayerTableRecord
  2
138
 70
     0
 62
   179
  6
Continuous
370
    -3
390
F
  0
LAYER
  5
CF
330
2
100
AcDbSymbolTableRecord
100
AcDbLayerTableRecord
  2
139
 70
     0
 62
   179
  6
Continuous
370
    -3
390
F
  0
LAYER
  5
D0
330
2
100
AcDbSymbolTableRecord
100
AcDbLayerTableRecord
  2
140
 70
     0
 62
   179
  6
Continuous
370
    -3
390
F
  0
LAYER
  5
D1
330
2
100
AcDbSymbolTableRecord
100
AcDbLayerTableRecord
  2
141
 70
     0
 62
   179
  6
Continuous
370
    -3
390
F
  0
LAYER
  5
D2
330
2
100
AcDbSymbolTableRecord
100
AcDbLayerTableRecord
  2
142
 70
     0
 62
   179
  6
Continuous
370
    -3
390
F
  0
LAYER
  5
D3
330
2
100
AcDbSymbolTableRecord
100
AcDbLayerTableRecord
  2
143
 70
     0
 62
   179
  6
Continuous
370
    -3
390
F
  0
LAYER
  5
D4
330
2
100
AcDbSymbolTableRecord
100
AcDbLayerTableRecord
  2
144
 70
     0
 62
   179
  6
Continuous
370
    -3
390
F
  0
LAYER
  5
D5
330
2
100
AcDbSymbolTableRecord
100
AcDbLayerTableRecord
  2
145
 70
     0
 62
   179
  6
Continuous
370
    -3
390
F
  0
LAYER
  5
D6
330
2
100
AcDbSymbolTableRecord
100
AcDbLayerTableRecord
  2
146
 70
     0
 62
   179
  6
Continuous
370
    -3
390
F
  0
LAYER
  5
D7
330
2
100
AcDbSymbolTableRecord
100
AcDbLayerTableRecord
  2
147
 70
     0
 62
   179
  6
Continuous
370
    -3
390
F
  0
LAYER
  5
D8
330
2
100
AcDbSymbolTableRecord
100
AcDbLayerTableRecord
  2
148
 70
     0
 62
   179
  6
Continuous
370
    -3
390
F
  0
LAYER
  5
D9
330
2
100
AcDbSymbolTableRecord
100
AcDbLayerTableRecord
  2
149
 70
     0
 62
   179
  6
Continuous
370
    -3
390
F
  0
LAYER
  5
DA
330
2
100
AcDbSymbolTableRecord
100
AcDbLayerTableRecord
  2
150
 70
     0
 62
   179
  6
Continuous
370
    -3
390
F
  0
LAYER
  5
DB
330
2
100
AcDbSymbolTableRecord
100
AcDbLayerTableRecord
  2
151
 70
     0
 62
   179
  6
Continuous
370
    -3
390
F
  0
LAYER
  5
DC
330
2
100
AcDbSymbolTableRecord
100
AcDbLayerTableRecord
  2
152
 70
     0
 62
   179
  6
Continuous
370
    -3
390
F
  0
LAYER
  5
DD
330
2
100
AcDbSymbolTableRecord
100
AcDbLayerTableRecord
  2
153
 70
     0
 62
   179
  6
Continuous
370
    -3
390
F
  0
LAYER
  5
DE
330
2
100
AcDbSymbolTableRecord
100
AcDbLayerTableRecord
  2
154
 70
     0
 62
   179
  6
Continuous
370
    -3
390
F
  0
LAYER
  5
DF
330
2
100
AcDbSymbolTableRecord
100
AcDbLayerTableRecord
  2
155
 70
     0
 62
   179
  6
Continuous
370
    -3
390
F
  0
LAYER
  5
E0
330
2
100
AcDbSymbolTableRecord
100
AcDbLayerTableRecord
  2
156
 70
     0
 62
   179
  6
Continuous
370
    -3
390
F
  0
LAYER
  5
E1
330
2
100
AcDbSymbolTableRecord
100
AcDbLayerTableRecord
  2
157
 70
     0
 62
   179
  6
Continuous
370
    -3
390
F
  0
LAYER
  5
E2
330
2
100
AcDbSymbolTableRecord
100
AcDbLayerTableRecord
  2
158
 70
     0
 62
   179
  6
Continuous
370
    -3
390
F
  0
LAYER
  5
E3
330
2
100
AcDbSymbolTableRecord
100
AcDbLayerTableRecord
  2
159
 70
     0
 62
   179
  6
Continuous
370
    -3
390
F
  0
LAYER
  5
E4
330
2
100
AcDbSymbolTableRecord
100
AcDbLayerTableRecord
  2
160
 70
     0
 62
   179
  6
Continuous
370
    -3
390
F
  0
LAYER
  5
E5
330
2
100
AcDbSymbolTableRecord
100
AcDbLayerTableRecord
  2
161
 70
     0
 62
   179
  6
Continuous
370
    -3
390
F
  0
LAYER
  5
E6
330
2
100
AcDbSymbolTableRecord
100
AcDbLayerTableRecord
  2
162
 70
     0
 62
   179
  6
Continuous
370
    -3
390
F
  0
LAYER
  5
E7
330
2
100
AcDbSymbolTableRecord
100
AcDbLayerTableRecord
  2
163
 70
     0
 62
   179
  6
Continuous
370
    -3
390
F
  0
LAYER
  5
E8
330
2
100
AcDbSymbolTableRecord
100
AcDbLayerTableRecord
  2
164
 70
     0
 62
   179
  6
Continuous
370
    -3
390
F
  0
LAYER
  5
E9
330
2
100
AcDbSymbolTableRecord
100
AcDbLayerTableRecord
  2
165
 70
     0
 62
   179
  6
Continuous
370
    -3
390
F
  0
LAYER
  5
EA
330
2
100
AcDbSymbolTableRecord
100
AcDbLayerTableRecord
  2
166
 70
     0
 62
   179
  6
Continuous
370
    -3
390
F
  0
LAYER
  5
EB
330
2
100
AcDbSymbolTableRecord
100
AcDbLayerTableRecord
  2
167
 70
     0
 62
   179
  6
Continuous
370
    -3
390
F
  0
LAYER
  5
EC
330
2
100
AcDbSymbolTableRecord
100
AcDbLayerTableRecord
  2
168
 70
     0
 62
   179
  6
Continuous
370
    -3
390
F
  0
LAYER
  5
ED
330
2
100
AcDbSymbolTableRecord
100
AcDbLayerTableRecord
  2
169
 70
     0
 62
   179
  6
Continuous
370
    -3
390
F
  0
LAYER
  5
EE
330
2
100
AcDbSymbolTableRecord
100
AcDbLayerTableRecord
  2
170
 70
     0
 62
   179
  6
Continuous
370
    -3
390
F
  0
LAYER
  5
EF
330
2
100
AcDbSymbolTableRecord
100
AcDbLayerTableRecord
  2
171
 70
     0
 62
   179
  6
Continuous
370
    -3
390
F
  0
LAYER
  5
F0
330
2
100
AcDbSymbolTableRecord
100
AcDbLayerTableRecord
  2
172
 70
     0
 62
   179
  6
Continuous
370
    -3
390
F
  0
LAYER
  5
F1
330
2
100
AcDbSymbolTableRecord
100
AcDbLayerTableRecord
  2
173
 70
     0
 62
   179
  6
Continuous
370
    -3
390
F
  0
LAYER
  5
F2
330
2
100
AcDbSymbolTableRecord
100
AcDbLayerTableRecord
  2
174
 70
     0
 62
   179
  6
Continuous
370
    -3
390
F
  0
LAYER
  5
F3
330
2
100
AcDbSymbolTableRecord
100
AcDbLayerTableRecord
  2
175
 70
     0
 62
   179
  6
Continuous
370
    -3
390
F
  0
LAYER
  5
F4
330
2
100
AcDbSymbolTableRecord
100
AcDbLayerTableRecord
  2
176
 70
     0
 62
   179
  6
Continuous
370
    -3
390
F
  0
LAYER
  5
F5
330
2
100
AcDbSymbolTableRecord
100
AcDbLayerTableRecord
  2
177
 70
     0
 62
   179
  6
Continuous
370
    -3
390
F
  0
LAYER
  5
F6
330
2
100
AcDbSymbolTableRecord
100
AcDbLayerTableRecord
  2
178
 70
     0
 62
   179
  6
Continuous
370
    -3
390
F
  0
LAYER
  5
F7
330
2
100
AcDbSymbolTableRecord
100
AcDbLayerTableRecord
  2
179
 70
     0
 62
   179
  6
Continuous
370
    -3
390
F
  0
LAYER
  5
F8
330
2
100
AcDbSymbolTableRecord
100
AcDbLayerTableRecord
  2
180
 70
     0
 62
   179
  6
Continuous
370
    -3
390
F
  0
LAYER
  5
F9
330
2
100
AcDbSymbolTableRecord
100
AcDbLayerTableRecord
  2
DRAFTING_HIDDEN_ENTITIES
 70
     0
 62
   179
  6
Continuous
370
    -3
390
F
  0
ENDTAB
  0
TABLE
  2
STYLE
  5
3
330
0
100
AcDbSymbolTable
 70
     2
  0
STYLE
  5
11
330
3
100
AcDbSymbolTableRecord
100
AcDbTextStyleTableRecord
  2
Standard
 70
     0
 40
0.0
 41
1.0
 50
0.0
 71
     0
 42
0.4814814815
  3
txt
  4

  0
STYLE
  5
115
330
3
100
AcDbSymbolTableRecord
100
AcDbTextStyleTableRecord
  2
SLDTEXTSTYLE0
 70
     0
 40
0.0
 41
0.75
 50
0.0
 71
     0
 42
0.2
  3
TXT
  4

  0
ENDTAB
  0
TABLE
  2
VIEW
  5
6
330
0
100
AcDbSymbolTable
 70
     0
  0
ENDTAB
  0
TABLE
  2
UCS
  5
7
330
0
100
AcDbSymbolTable
 70
     0
  0
ENDTAB
  0
TABLE
  2
APPID
  5
9
330
0
100
AcDbSymbolTable
 70
     1
  0
APPID
  5
12
330
9
100
AcDbSymbolTableRecord
100
AcDbRegAppTableRecord
  2
ACAD
 70
     0
  0
ENDTAB
  0
TABLE
  2
DIMSTYLE
  5
A
330
0
100
AcDbSymbolTable
 70
     6
100
AcDbDimStyleTable
  0
DIMSTYLE
105
27
330
A
100
AcDbSymbolTableRecord
100
AcDbDimStyleTableRecord
  2
Standard
 70
     0
178
     0
340
11
  0
DIMSTYLE
105
116
102
{ACAD_REACTORS
330
114
330
164
330
176
330
1BD
330
1D1
330
1E5
102
}
330
A
100
AcDbSymbolTableRecord
100
AcDbDimStyleTableRecord
  2
SLDDIMSTYLE0
 70
     0
 41
0.375
 44
0.0
 45
0.000000001
 78
    12
 79
     3
140
0.375
147
0.09375
148
0.000000001
170
     1
173
     1
178
     0
271
     2
272
     2
276
     2
277
     5
284
    12
340
115
  0
DIMSTYLE
105
12D
102
{ACAD_REACTORS
330
12C
102
}
330
A
100
AcDbSymbolTableRecord
100
AcDbDimStyleTableRecord
  2
SLDDIMSTYLE1
 70
     0
 41
0.375
 44
0.0
 45
0.000000001
 78
    12
 79
     3
140
0.375
141
0.0
147
0.09375
148
0.000000001
170
     1
173
     1
178
     0
271
     2
272
     2
276
     2
277
     5
284
    12
340
115
  0
DIMSTYLE
105
142
102
{ACAD_REACTORS
330
141
330
155
330
18C
330
19B
102
}
330
A
100
AcDbSymbolTableRecord
100
AcDbDimStyleTableRecord
  2
SLDDIMSTYLE2
 70
     0
 41
0.375
 44
0.0
 45
0.000000001
 78
    12
 79
     3
140
0.375
141
0.0
147
0.09375
148
0.000000001
170
     1
173
     1
178
     0
271
     2
272
     2
276
     2
277
     5
284
    12
340
115
  0
DIMSTYLE
105
1AF
102
{ACAD_REACTORS
330
1AE
102
}
330
A
100
AcDbSymbolTableRecord
100
AcDbDimStyleTableRecord
  2
SLDDIMSTYLE3
 70
     0
 41
0.375
 44
0.0
 45
0.000000001
 78
    12
 79
     3
140
0.375
141
0.0
147
0.09375
148
0.000000001
170
     1
173
     1
178
     0
271
     2
272
     2
276
     2
277
     5
279
     1
284
    12
340
115
  0
DIMSTYLE
105
1FC
330
A
100
AcDbSymbolTableRecord
100
AcDbDimStyleTableRecord
  2
SLDDIMSTYLE4
 70
     0
 41
0.375
 44
0.0
 45
0.000000001
140
0.0
146
0.375
147
0.0
173
     1
178
     0
271
     0
272
     0
276
     2
277
     5
340
11
  0
ENDTAB
  0
TABLE
  2
BLOCK_RECORD
  5
1
330
0
100
AcDbSymbolTable
 70
    15
  0
BLOCK_RECORD
  5
1F
330
1
100
AcDbSymbolTableRecord
100
AcDbBlockTableRecord
  2
*Model_Space
340
22
  0
BLOCK_RECORD
  5
1B
330
1
100
AcDbSymbolTableRecord
100
AcDbBlockTableRecord
  2
*Paper_Space
340
1E
  0
BLOCK_RECORD
  5
23
330
1
100
AcDbSymbolTableRecord
100
AcDbBlockTableRecord
  2
*Paper_Space0
340
26
  0
BLOCK_RECORD
  5
117
330
1
100
AcDbSymbolTableRecord
100
AcDbBlockTableRecord
  2
_D
340
0
  0
BLOCK_RECORD
  5
12E
330
1
100
AcDbSymbolTableRecord
100
AcDbBlockTableRecord
  2
_D_1
340
0
  0
BLOCK_RECORD
  5
143
330
1
100
AcDbSymbolTableRecord
100
AcDbBlockTableRecord
  2
_D_2
340
0
  0
BLOCK_RECORD
  5
156
330
1
100
AcDbSymbolTableRecord
100
AcDbBlockTableRecord
  2
_D_3
340
0
  0
BLOCK_RECORD
  5
165
330
1
100
AcDbSymbolTableRecord
100
AcDbBlockTableRecord
  2
_D_4
340
0
  0
BLOCK_RECORD
  5
177
330
1
100
AcDbSymbolTableRecord
100
AcDbBlockTableRecord
  2
_D_5
340
0
  0
BLOCK_RECORD
  5
18D
330
1
100
AcDbSymbolTableRecord
100
AcDbBlockTableRecord
  2
_D_6
340
0
  0
BLOCK_RECORD
  5
19C
330
1
100
AcDbSymbolTableRecord
100
AcDbBlockTableRecord
  2
_D_7
340
0
  0
BLOCK_RECORD
  5
1B0
330
1
100
AcDbSymbolTableRecord
100
AcDbBlockTableRecord
  2
_D_8
340
0
  0
BLOCK_RECORD
  5
1BE
330
1
100
AcDbSymbolTableRecord
100
AcDbBlockTableRecord
  2
_D_9
340
0
  0
BLOCK_RECORD
  5
1D2
330
1
100
AcDbSymbolTableRecord
100
AcDbBlockTableRecord
  2
_D_10
340
0
  0
BLOCK_RECORD
  5
1E6
330
1
100
AcDbSymbolTableRecord
100
AcDbBlockTableRecord
  2
_D_11
340
0
  0
BLOCK_RECORD
  5
1F6
330
1
100
AcDbSymbolTableRecord
100
AcDbBlockTableRecord
  2
SW_NOTE_0
340
0
102
{BLKREFS
331
1FB
102
}
  0
BLOCK_RECORD
  5
1FE
330
1
100
AcDbSymbolTableRecord
100
AcDbBlockTableRecord
  2
SW_NOTE_1
340
0
102
{BLKREFS
331
203
102
}
  0
ENDTAB
  0
ENDSEC
  0
SECTION
  2
BLOCKS
  0
BLOCK
  5
20
330
1F
100
AcDbEntity
  8
0
100
AcDbBlockBegin
  2
*Model_Space
 70
     0
 10
0.0
 20
0.0
 30
0.0
  3
*Model_Space
  1

  0
ENDBLK
  5
21
330
1F
100
AcDbEntity
  8
0
100
AcDbBlockEnd
  0
BLOCK
  5
1C
330
1B
100
AcDbEntity
 67
     1
  8
0
100
AcDbBlockBegin
  2
*Paper_Space
 70
     0
 10
0.0
 20
0.0
 30
0.0
  3
*Paper_Space
  1

  0
ENDBLK
  5
1D
330
1B
100
AcDbEntity
 67
     1
  8
0
100
AcDbBlockEnd
  0
BLOCK
  5
24
330
23
100
AcDbEntity
  8
0
100
AcDbBlockBegin
  2
*Paper_Space0
 70
     0
 10
0.0
 20
0.0
 30
0.0
  3
*Paper_Space0
  1

  0
ENDBLK
  5
25
330
23
100
AcDbEntity
  8
0
100
AcDbBlockEnd
  0
BLOCK
  5
118
330
117
100
AcDbEntity
  8
0
100
AcDbBlockBegin
  2
_D
 70
     0
 10
0.0
 20
0.0
 30
0.0
  3
_D
  1

  0
SOLID
  5
11A
330
117
100
AcDbEntity
  8
1
100
AcDbTrace
 10
37.4003394169
 20
22.2707392206
 30
0.0
 11
37.3436398547
 21
21.8955878351
 31
0.0
 12
37.459024066
 22
21.8958932331
 32
0.0
 13
37.459024066
 23
21.8958932331
 33
0.0
  0
SOLID
  5
11B
330
117
100
AcDbEntity
  8
1
100
AcDbTrace
 10
37.4446714772
 20
5.521381831
 30
0.0
 11
37.5013710394
 21
5.8965332165
 31
0.0
 12
37.3859868282
 22
5.8962278185
 32
0.0
 13
37.3859868282
 23
5.8962278185
 33
0.0
  0
LINE
  5
11C
330
117
100
AcDbEntity
  8
1
100
AcDbLine
 10
37.2762322308
 20
14.3436800209
 30
0.0
 11
37.6637322343
 21
14.3436800209
 31
0.0
  0
LINE
  5
11D
330
117
100
AcDbEntity
  8
1
100
AcDbLine
 10
36.5655552043
 20
13.7234716762
 30
0.0
 11
36.4895135365
 21
13.7234716762
 31
0.0
  0
LINE
  5
11E
330
117
100
AcDbEntity
  8
1
100
AcDbLine
 10
36.4895135365
 20
13.7234716762
 30
0.0
 11
36.4895135365
 21
13.1276383327
 31
0.0
  0
LINE
  5
11F
330
117
100
AcDbEntity
  8
1
100
AcDbLine
 10
36.4895135365
 20
13.1276383327
 30
0.0
 11
36.5655552043
 21
13.1276383327
 31
0.0
  0
LINE
  5
120
330
117
100
AcDbEntity
  8
1
100
AcDbLine
 10
38.2792704065
 20
13.7234716762
 30
0.0
 11
38.3553120743
 21
13.7234716762
 31
0.0
  0
LINE
  5
121
330
117
100
AcDbEntity
  8
1
100
AcDbLine
 10
38.3553120743
 20
13.7234716762
 30
0.0
 11
38.3553120743
 21
13.1276383327
 31
0.0
  0
LINE
  5
122
330
117
100
AcDbEntity
  8
1
100
AcDbLine
 10
38.3553120743
 20
13.1276383327
 30
0.0
 11
38.2792704065
 21
13.1276383327
 31
0.0
  0
LINE
  5
123
330
117
100
AcDbEntity
  8
1
100
AcDbLine
 10
31.0615984709
 20
22.2539618936
 30
0.0
 11
37.5253389791
 21
22.2710700684
 31
0.0
  0
LINE
  5
124
330
117
100
AcDbEntity
  8
1
100
AcDbLine
 10
31.1059305311
 20
5.5046045041
 30
0.0
 11
37.5696710393
 21
5.5217126788
 31
0.0
  0
LINE
  5
125
330
117
100
AcDbEntity
  8
1
100
AcDbLine
 10
37.4003394169
 20
22.2707392206
 30
0.0
 11
37.4200849706
 21
14.8105550181
 31
0.0
  0
LINE
  5
126
330
117
100
AcDbEntity
  8
1
100
AcDbLine
 10
37.4446714772
 20
5.521381831
 30
0.0
 11
37.4247405668
 21
13.0515967244
 31
0.0
  0
MTEXT
  5
127
330
117
100
AcDbEntity
  8
1
100
AcDbMText
 10
36.666857237
 20
14.5510401911
 30
0.0039370079
 40
0.375
 41
0.0
 71
     1
 72
     1
  1
16
  7
SLDTEXTSTYLE0
 73
     1
 44
1.0
  0
MTEXT
  5
128
330
117
100
AcDbEntity
  8
1
100
AcDbMText
 10
37.3314405655
 20
14.7939554083
 30
0.0039370079
 40
0.375
 41
0.0
 71
     1
 72
     1
  1
1
  7
SLDTEXTSTYLE0
 73
     1
 44
1.0
  0
MTEXT
  5
129
330
117
100
AcDbEntity
  8
1
100
AcDbMText
 10
37.3314405655
 20
14.2829137487
 30
0.0039370079
 40
0.375
 41
0.0
 71
     1
 72
     1
  1
2
  7
SLDTEXTSTYLE0
 73
     1
 44
1.0
  0
MTEXT
  5
12A
330
117
100
AcDbEntity
  8
1
100
AcDbMText
 10
37.7189405232
 20
14.5510401911
 30
0.0039370079
 40
0.375
 41
0.0
 71
     1
 72
     1
  1
"
  7
SLDTEXTSTYLE0
 73
     1
 44
1.0
  0
MTEXT
  5
12B
330
117
100
AcDbEntity
  8
1
100
AcDbMText
 10
36.6606072925
 20
13.6110387534
 30
0.0039370079
 40
0.375
 41
0.0
 71
     1
 72
     1
  1
425.44
  7
SLDTEXTSTYLE0
 73
     1
 44
1.0
  0
ENDBLK
  5
119
330
117
100
AcDbEntity
  8
0
100
AcDbBlockEnd
  0
BLOCK
  5
12F
330
12E
100
AcDbEntity
  8
0
100
AcDbBlockBegin
  2
_D_1
 70
     0
 10
0.0
 20
0.0
 30
0.0
  3
_D_1
  1

  0
SOLID
  5
131
330
12E
100
AcDbEntity
  8
1
100
AcDbTrace
 10
32.8215226752
 20
21.7495216834
 30
0.0
 11
33.0648228408
 21
22.0406546973
 31
0.0
 12
32.966063777
 22
22.1003225846
 32
0.0
 13
32.966063777
 23
22.1003225846
 33
0.0
  0
LINE
  5
132
330
12E
100
AcDbEntity
  8
1
100
AcDbLine
 10
35.3315880916
 20
24.6716591638
 30
0.0
 11
35.7190880951
 21
24.6716591638
 31
0.0
  0
LINE
  5
133
330
12E
100
AcDbEntity
  8
1
100
AcDbLine
 10
34.6636195018
 20
24.0514508192
 30
0.0
 11
34.587577834
 21
24.0514508192
 31
0.0
  0
LINE
  5
134
330
12E
100
AcDbEntity
  8
1
100
AcDbLine
 10
34.587577834
 20
24.0514508192
 30
0.0
 11
34.587577834
 21
23.4556174756
 31
0.0
  0
LINE
  5
135
330
12E
100
AcDbEntity
  8
1
100
AcDbLine
 10
34.587577834
 20
23.4556174756
 30
0.0
 11
34.6636195018
 21
23.4556174756
 31
0.0
  0
LINE
  5
136
330
12E
100
AcDbEntity
  8
1
100
AcDbLine
 10
36.1002514248
 20
24.0514508192
 30
0.0
 11
36.1762930926
 21
24.0514508192
 31
0.0
  0
LINE
  5
137
330
12E
100
AcDbEntity
  8
1
100
AcDbLine
 10
36.1762930926
 20
24.0514508192
 30
0.0
 11
36.1762930926
 21
23.4556174756
 31
0.0
  0
LINE
  5
138
330
12E
100
AcDbEntity
  8
1
100
AcDbLine
 10
36.1762930926
 20
23.4556174756
 30
0.0
 11
36.1002514248
 21
23.4556174756
 31
0.0
  0
LINE
  5
139
330
12E
100
AcDbEntity
  8
1
100
AcDbLine
 10
32.8215226752
 20
21.7495216834
 30
0.0
 11
34.2805465819
 21
24.1644192391
 31
0.0
  0
LINE
  5
13A
330
12E
100
AcDbEntity
  8
1
100
AcDbLine
 10
34.2805465819
 20
24.1644192391
 30
0.0
 11
34.5305465819
 21
24.1644192391
 31
0.0
  0
MTEXT
  5
13B
330
12E
100
AcDbEntity
  8
1
100
AcDbMText
 10
34.6958242193
 20
24.8790193341
 30
0.0039370079
 40
0.375
 41
0.0
 71
     1
 72
     1
  1
R3
  7
SLDTEXTSTYLE0
 73
     1
 44
1.0
  0
MTEXT
  5
13C
330
12E
100
AcDbEntity
  8
1
100
AcDbMText
 10
35.3867964263
 20
25.1219345512
 30
0.0039370079
 40
0.375
 41
0.0
 71
     1
 72
     1
  1
1
  7
SLDTEXTSTYLE0
 73
     1
 44
1.0
  0
MTEXT
  5
13D
330
12E
100
AcDbEntity
  8
1
100
AcDbMText
 10
35.3867964263
 20
24.6108928917
 30
0.0039370079
 40
0.375
 41
0.0
 71
     1
 72
     1
  1
2
  7
SLDTEXTSTYLE0
 73
     1
 44
1.0
  0
MTEXT
  5
13E
330
12E
100
AcDbEntity
  8
1
100
AcDbMText
 10
35.7742964207
 20
24.8790193341
 30
0.0039370079
 40
0.375
 41
0.0
 71
     1
 72
     1
  1
"
  7
SLDTEXTSTYLE0
 73
     1
 44
1.0
  0
MTEXT
  5
13F
330
12E
100
AcDbEntity
  8
1
100
AcDbMText
 10
34.75867159
 20
23.9390178964
 30
0.0039370079
 40
0.375
 41
0.0
 71
     1
 72
     1
  1
88.90
  7
SLDTEXTSTYLE0
 73
     1
 44
1.0
  0
MTEXT
  5
140
330
12E
100
AcDbEntity
  8
1
100
AcDbMText
 10
36.3739492713
 20
24.8790193341
 30
0.0039370079
 40
0.375
 41
0.0
 71
     1
 72
     1
  1
TYP
  7
SLDTEXTSTYLE0
 73
     1
 44
1.0
  0
ENDBLK
  5
130
330
12E
100
AcDbEntity
  8
0
100
AcDbBlockEnd
  0
BLOCK
  5
144
330
143
100
AcDbEntity
  8
0
100
AcDbBlockBegin
  2
_D_2
 70
     0
 10
0.0
 20
0.0
 30
0.0
  3
_D_2
  1

  0
SOLID
  5
146
330
143
100
AcDbEntity
  8
1
100
AcDbTrace
 10
17.0680963283
 20
24.2455908469
 30
0.0
 11
17.2630614835
 21
24.5710781595
 31
0.0
 12
17.1562114171
 22
24.6146289663
 32
0.0
 13
17.1562114171
 23
24.6146289663
 33
0.0
  0
LINE
  5
147
330
143
100
AcDbEntity
  8
1
100
AcDbLine
 10
19.4530094926
 20
28.0389078878
 30
0.0
 11
19.8405094962
 21
28.0389078878
 31
0.0
  0
LINE
  5
148
330
143
100
AcDbEntity
  8
1
100
AcDbLine
 10
18.8676797215
 20
27.4186995431
 30
0.0
 11
18.7916380537
 21
27.4186995431
 31
0.0
  0
LINE
  5
149
330
143
100
AcDbEntity
  8
1
100
AcDbLine
 10
18.7916380537
 20
27.4186995431
 30
0.0
 11
18.7916380537
 21
26.8228661996
 31
0.0
  0
LINE
  5
14A
330
143
100
AcDbEntity
  8
1
100
AcDbLine
 10
18.7916380537
 20
26.8228661996
 30
0.0
 11
18.8676797215
 21
26.8228661996
 31
0.0
  0
LINE
  5
14B
330
143
100
AcDbEntity
  8
1
100
AcDbLine
 10
20.3043116445
 20
27.4186995431
 30
0.0
 11
20.3803533124
 21
27.4186995431
 31
0.0
  0
LINE
  5
14C
330
143
100
AcDbEntity
  8
1
100
AcDbLine
 10
20.3803533124
 20
27.4186995431
 30
0.0
 11
20.3803533124
 21
26.8228661996
 31
0.0
  0
LINE
  5
14D
330
143
100
AcDbEntity
  8
1
100
AcDbLine
 10
20.3803533124
 20
26.8228661996
 30
0.0
 11
20.3043116445
 21
26.8228661996
 31
0.0
  0
LINE
  5
14E
330
143
100
AcDbEntity
  8
1
100
AcDbLine
 10
17.0680963283
 20
24.2455908469
 30
0.0
 11
18.4846068017
 21
27.7209395133
 31
0.0
  0
LINE
  5
14F
330
143
100
AcDbEntity
  8
1
100
AcDbLine
 10
18.4846068017
 20
27.7209395133
 30
0.0
 11
18.7346068017
 21
27.7209395133
 31
0.0
  0
MTEXT
  5
150
330
143
100
AcDbEntity
  8
1
100
AcDbMText
 10
18.8172456203
 20
28.246268058
 30
0.0039370079
 40
0.375
 41
0.0
 71
     1
 72
     1
  1
R3
  7
SLDTEXTSTYLE0
 73
     1
 44
1.0
  0
MTEXT
  5
151
330
143
100
AcDbEntity
  8
1
100
AcDbMText
 10
19.5082178273
 20
28.4891832751
 30
0.0039370079
 40
0.375
 41
0.0
 71
     1
 72
     1
  1
1
  7
SLDTEXTSTYLE0
 73
     1
 44
1.0
  0
MTEXT
  5
152
330
143
100
AcDbEntity
  8
1
100
AcDbMText
 10
19.5082178273
 20
27.9781416156
 30
0.0039370079
 40
0.375
 41
0.0
 71
     1
 72
     1
  1
2
  7
SLDTEXTSTYLE0
 73
     1
 44
1.0
  0
MTEXT
  5
153
330
143
100
AcDbEntity
  8
1
100
AcDbMText
 10
19.8957178217
 20
28.246268058
 30
0.0039370079
 40
0.375
 41
0.0
 71
     1
 72
     1
  1
"
  7
SLDTEXTSTYLE0
 73
     1
 44
1.0
  0
MTEXT
  5
154
330
143
100
AcDbEntity
  8
1
100
AcDbMText
 10
18.9627318097
 20
27.3062666203
 30
0.0039370079
 40
0.375
 41
0.0
 71
     1
 72
     1
  1
88.90
  7
SLDTEXTSTYLE0
 73
     1
 44
1.0
  0
ENDBLK
  5
145
330
143
100
AcDbEntity
  8
0
100
AcDbBlockEnd
  0
BLOCK
  5
157
330
156
100
AcDbEntity
  8
0
100
AcDbBlockBegin
  2
_D_3
 70
     0
 10
0.0
 20
0.0
 30
0.0
  3
_D_3
  1

  0
SOLID
  5
159
330
156
100
AcDbEntity
  8
1
100
AcDbTrace
 10
19.1638287895
 20
22.6568284137
 30
0.0
 11
19.4015036863
 21
22.9525716229
 31
0.0
 12
19.3016190271
 22
23.0103354897
 32
0.0
 13
19.3016190271
 23
23.0103354897
 33
0.0
  0
LINE
  5
15A
330
156
100
AcDbEntity
  8
1
100
AcDbLine
 10
19.3721681333
 20
24.307107463
 30
0.0
 11
19.2961264655
 21
24.307107463
 31
0.0
  0
LINE
  5
15B
330
156
100
AcDbEntity
  8
1
100
AcDbLine
 10
19.2961264655
 20
24.307107463
 30
0.0
 11
19.2961264655
 21
23.7112741195
 31
0.0
  0
LINE
  5
15C
330
156
100
AcDbEntity
  8
1
100
AcDbLine
 10
19.2961264655
 20
23.7112741195
 30
0.0
 11
19.3721681333
 21
23.7112741195
 31
0.0
  0
LINE
  5
15D
330
156
100
AcDbEntity
  8
1
100
AcDbLine
 10
20.8088000564
 20
24.307107463
 30
0.0
 11
20.8848417242
 21
24.307107463
 31
0.0
  0
LINE
  5
15E
330
156
100
AcDbEntity
  8
1
100
AcDbLine
 10
20.8848417242
 20
24.307107463
 30
0.0
 11
20.8848417242
 21
23.7112741195
 31
0.0
  0
LINE
  5
15F
330
156
100
AcDbEntity
  8
1
100
AcDbLine
 10
20.8848417242
 20
23.7112741195
 30
0.0
 11
20.8088000564
 21
23.7112741195
 31
0.0
  0
LINE
  5
160
330
156
100
AcDbEntity
  8
1
100
AcDbLine
 10
20.6656893272
 20
25.2538295545
 30
0.0
 11
20.4513227121
 21
24.8831491019
 31
0.0
  0
LINE
  5
161
330
156
100
AcDbEntity
  8
1
100
AcDbLine
 10
19.1638287895
 20
22.6568284137
 30
0.0
 11
19.7296454042
 21
23.6352324379
 31
0.0
  0
MTEXT
  5
162
330
156
100
AcDbEntity
  8
1
100
AcDbMText
 10
19.5706923962
 20
24.8665495286
 30
0.0039370079
 40
0.375
 41
0.0
 71
     1
 72
     1
  1
R3"
  7
SLDTEXTSTYLE0
 73
     1
 44
1.0
  0
MTEXT
  5
163
330
156
100
AcDbEntity
  8
1
100
AcDbMText
 10
19.4672202215
 20
24.1946745402
 30
0.0039370079
 40
0.375
 41
0.0
 71
     1
 72
     1
  1
76.20
  7
SLDTEXTSTYLE0
 73
     1
 44
1.0
  0
ENDBLK
  5
158
330
156
100
AcDbEntity
  8
0
100
AcDbBlockEnd
  0
BLOCK
  5
166
330
165
100
AcDbEntity
  8
0
100
AcDbBlockBegin
  2
_D_4
 70
     0
 10
0.0
 20
0.0
 30
0.0
  3
_D_4
  1

  0
SOLID
  5
168
330
165
100
AcDbEntity
  8
1
100
AcDbTrace
 10
2.3837367902
 20
24.5044721649
 30
0.0
 11
2.3260444826
 21
24.1294721649
 31
0.0
 12
2.4414290979
 22
24.1294721649
 32
0.0
 13
2.4414290979
 23
24.1294721649
 33
0.0
  0
SOLID
  5
169
330
165
100
AcDbEntity
  8
1
100
AcDbTrace
 10
2.3837367902
 20
5.5044721649
 30
0.0
 11
2.4414290979
 21
5.8794721649
 31
0.0
 12
2.3260444826
 22
5.8794721649
 32
0.0
 13
2.3260444826
 23
5.8794721649
 33
0.0
  0
LINE
  5
16A
330
165
100
AcDbEntity
  8
1
100
AcDbLine
 10
1.5268792258
 20
15.7003584212
 30
0.0
 11
1.450837558
 21
15.7003584212
 31
0.0
  0
LINE
  5
16B
330
165
100
AcDbEntity
  8
1
100
AcDbLine
 10
1.450837558
 20
15.7003584212
 30
0.0
 11
1.450837558
 21
15.1045250776
 31
0.0
  0
LINE
  5
16C
330
165
100
AcDbEntity
  8
1
100
AcDbLine
 10
1.450837558
 20
15.1045250776
 30
0.0
 11
1.5268792258
 21
15.1045250776
 31
0.0
  0
LINE
  5
16D
330
165
100
AcDbEntity
  8
1
100
AcDbLine
 10
3.240594428
 20
15.7003584212
 30
0.0
 11
3.3166360958
 21
15.7003584212
 31
0.0
  0
LINE
  5
16E
330
165
100
AcDbEntity
  8
1
100
AcDbLine
 10
3.3166360958
 20
15.7003584212
 30
0.0
 11
3.3166360958
 21
15.1045250776
 31
0.0
  0
LINE
  5
16F
330
165
100
AcDbEntity
  8
1
100
AcDbLine
 10
3.3166360958
 20
15.1045250776
 30
0.0
 11
3.240594428
 21
15.1045250776
 31
0.0
  0
LINE
  5
170
330
165
100
AcDbEntity
  8
1
100
AcDbLine
 10
8.212156446
 20
24.5044721649
 30
0.0
 11
2.2587367902
 21
24.5044721649
 31
0.0
  0
LINE
  5
171
330
165
100
AcDbEntity
  8
1
100
AcDbLine
 10
8.212156446
 20
5.5044721649
 30
0.0
 11
2.2587367902
 21
5.5044721649
 31
0.0
  0
LINE
  5
172
330
165
100
AcDbEntity
  8
1
100
AcDbLine
 10
2.3837367902
 20
24.5044721649
 30
0.0
 11
2.3837367902
 21
16.27640006
 31
0.0
  0
LINE
  5
173
330
165
100
AcDbEntity
  8
1
100
AcDbLine
 10
2.3837367902
 20
5.5044721649
 30
0.0
 11
2.3837367902
 21
15.0284833961
 31
0.0
  0
MTEXT
  5
174
330
165
100
AcDbEntity
  8
1
100
AcDbMText
 10
1.8771395858
 20
16.2598004868
 30
0.0039370079
 40
0.375
 41
0.0
 71
     1
 72
     1
  1
19"
  7
SLDTEXTSTYLE0
 73
     1
 44
1.0
  0
MTEXT
  5
175
330
165
100
AcDbEntity
  8
1
100
AcDbMText
 10
1.621931314
 20
15.5879254984
 30
0.0039370079
 40
0.375
 41
0.0
 71
     1
 72
     1
  1
482.60
  7
SLDTEXTSTYLE0
 73
     1
 44
1.0
  0
ENDBLK
  5
167
330
165
100
AcDbEntity
  8
0
100
AcDbBlockEnd
  0
BLOCK
  5
178
330
177
100
AcDbEntity
  8
0
100
AcDbBlockBegin
  2
_D_5
 70
     0
 10
0.0
 20
0.0
 30
0.0
  3
_D_5
  1

  0
SOLID
  5
17A
330
177
100
AcDbEntity
  8
1
100
AcDbTrace
 10
4.762156446
 20
2.9517990829
 30
0.0
 11
5.137156446
 21
2.8941067752
 31
0.0
 12
5.137156446
 22
3.0094913906
 32
0.0
 13
5.137156446
 23
3.0094913906
 33
0.0
  0
SOLID
  5
17B
330
177
100
AcDbEntity
  8
1
100
AcDbTrace
 10
34.5115950002
 20
2.9517990829
 30
0.0
 11
34.1365950002
 21
3.0094913906
 31
0.0
 12
34.1365950002
 22
2.8941067752
 32
0.0
 13
34.1365950002
 23
2.8941067752
 33
0.0
  0
LINE
  5
17C
330
177
100
AcDbEntity
  8
1
100
AcDbLine
 10
19.9443035202
 20
3.3644032325
 30
0.0
 11
20.3318035238
 21
3.3644032325
 31
0.0
  0
LINE
  5
17D
330
177
100
AcDbEntity
  8
1
100
AcDbLine
 10
19.2336264937
 20
2.7441948878
 30
0.0
 11
19.1575848259
 21
2.7441948878
 31
0.0
  0
LINE
  5
17E
330
177
100
AcDbEntity
  8
1
100
AcDbLine
 10
19.1575848259
 20
2.7441948878
 30
0.0
 11
19.1575848259
 21
2.1483615442
 31
0.0
  0
LINE
  5
17F
330
177
100
AcDbEntity
  8
1
100
AcDbLine
 10
19.1575848259
 20
2.1483615442
 30
0.0
 11
19.2336264937
 21
2.1483615442
 31
0.0
  0
LINE
  5
180
330
177
100
AcDbEntity
  8
1
100
AcDbLine
 10
20.9473416959
 20
2.7441948878
 30
0.0
 11
21.0233833637
 21
2.7441948878
 31
0.0
  0
LINE
  5
181
330
177
100
AcDbEntity
  8
1
100
AcDbLine
 10
21.0233833637
 20
2.7441948878
 30
0.0
 11
21.0233833637
 21
2.1483615442
 31
0.0
  0
LINE
  5
182
330
177
100
AcDbEntity
  8
1
100
AcDbLine
 10
21.0233833637
 20
2.1483615442
 30
0.0
 11
20.9473416959
 21
2.1483615442
 31
0.0
  0
LINE
  5
183
330
177
100
AcDbEntity
  8
1
100
AcDbLine
 10
4.762156446
 20
8.9544721649
 30
0.0
 11
4.762156446
 21
2.8267990829
 31
0.0
  0
LINE
  5
184
330
177
100
AcDbEntity
  8
1
100
AcDbLine
 10
34.5115950002
 20
8.9544721649
 30
0.0
 11
34.5115950002
 21
2.8267990829
 31
0.0
  0
LINE
  5
185
330
177
100
AcDbEntity
  8
1
100
AcDbLine
 10
4.762156446
 20
2.9517990829
 30
0.0
 11
19.0244546224
 21
2.9517990829
 31
0.0
  0
LINE
  5
186
330
177
100
AcDbEntity
  8
1
100
AcDbLine
 10
34.5115950002
 20
2.9517990829
 30
0.0
 11
21.1565134939
 21
2.9517990829
 31
0.0
  0
MTEXT
  5
187
330
177
100
AcDbEntity
  8
1
100
AcDbMText
 10
19.3349285264
 20
3.5717634027
 30
0.0039370079
 40
0.375
 41
0.0
 71
     1
 72
     1
  1
29
  7
SLDTEXTSTYLE0
 73
     1
 44
1.0
  0
MTEXT
  5
188
330
177
100
AcDbEntity
  8
1
100
AcDbMText
 10
19.9995118549
 20
3.8146786198
 30
0.0039370079
 40
0.375
 41
0.0
 71
     1
 72
     1
  1
1
  7
SLDTEXTSTYLE0
 73
     1
 44
1.0
  0
MTEXT
  5
189
330
177
100
AcDbEntity
  8
1
100
AcDbMText
 10
19.9995118549
 20
3.3036369603
 30
0.0039370079
 40
0.375
 41
0.0
 71
     1
 72
     1
  1
2
  7
SLDTEXTSTYLE0
 73
     1
 44
1.0
  0
MTEXT
  5
18A
330
177
100
AcDbEntity
  8
1
100
AcDbMText
 10
20.3870118126
 20
3.5717634027
 30
0.0039370079
 40
0.375
 41
0.0
 71
     1
 72
     1
  1
"
  7
SLDTEXTSTYLE0
 73
     1
 44
1.0
  0
MTEXT
  5
18B
330
177
100
AcDbEntity
  8
1
100
AcDbMText
 10
19.3286785819
 20
2.631761965
 30
0.0039370079
 40
0.375
 41
0.0
 71
     1
 72
     1
  1
755.64
  7
SLDTEXTSTYLE0
 73
     1
 44
1.0
  0
ENDBLK
  5
179
330
177
100
AcDbEntity
  8
0
100
AcDbBlockEnd
  0
BLOCK
  5
18E
330
18D
100
AcDbEntity
  8
0
100
AcDbBlockBegin
  2
_D_6
 70
     0
 10
0.0
 20
0.0
 30
0.0
  3
_D_6
  1

  0
SOLID
  5
190
330
18D
100
AcDbEntity
  8
1
100
AcDbTrace
 10
17.2137531973
 20
23.4772078879
 30
0.0
 11
16.9728246467
 21
23.1841092084
 31
0.0
 12
17.0720648764
 22
23.1252450744
 32
0.0
 13
17.0720648764
 23
23.1252450744
 33
0.0
  0
LINE
  5
191
330
18D
100
AcDbEntity
  8
1
100
AcDbLine
 10
15.8644430781
 20
22.461318755
 30
0.0
 11
15.7884014103
 21
22.461318755
 31
0.0
  0
LINE
  5
192
330
18D
100
AcDbEntity
  8
1
100
AcDbLine
 10
15.7884014103
 20
22.461318755
 30
0.0
 11
15.7884014103
 21
21.8654854114
 31
0.0
  0
LINE
  5
193
330
18D
100
AcDbEntity
  8
1
100
AcDbLine
 10
15.7884014103
 20
21.8654854114
 30
0.0
 11
15.8644430781
 21
21.8654854114
 31
0.0
  0
LINE
  5
194
330
18D
100
AcDbEntity
  8
1
100
AcDbLine
 10
17.3010750012
 20
22.461318755
 30
0.0
 11
17.377116669
 21
22.461318755
 31
0.0
  0
LINE
  5
195
330
18D
100
AcDbEntity
  8
1
100
AcDbLine
 10
17.377116669
 20
22.461318755
 30
0.0
 11
17.377116669
 21
21.8654854114
 31
0.0
  0
LINE
  5
196
330
18D
100
AcDbEntity
  8
1
100
AcDbLine
 10
17.377116669
 20
21.8654854114
 30
0.0
 11
17.3010750012
 21
21.8654854114
 31
0.0
  0
LINE
  5
197
330
18D
100
AcDbEntity
  8
1
100
AcDbLine
 10
15.74705519
 20
21.0044721649
 30
0.0
 11
16.2126594272
 21
21.7894437299
 31
0.0
  0
LINE
  5
198
330
18D
100
AcDbEntity
  8
1
100
AcDbLine
 10
17.2137531973
 20
23.4772078879
 30
0.0
 11
16.9528585788
 21
23.0373603938
 31
0.0
  0
MTEXT
  5
199
330
18D
100
AcDbEntity
  8
1
100
AcDbMText
 10
16.062967341
 20
23.0207608206
 30
0.0039370079
 40
0.375
 41
0.0
 71
     1
 72
     1
  1
R3"
  7
SLDTEXTSTYLE0
 73
     1
 44
1.0
  0
MTEXT
  5
19A
330
18D
100
AcDbEntity
  8
1
100
AcDbMText
 10
15.9594951663
 20
22.3488858322
 30
0.0039370079
 40
0.375
 41
0.0
 71
     1
 72
     1
  1
73.03
  7
SLDTEXTSTYLE0
 73
     1
 44
1.0
  0
ENDBLK
  5
18F
330
18D
100
AcDbEntity
  8
0
100
AcDbBlockEnd
  0
BLOCK
  5
19D
330
19C
100
AcDbEntity
  8
0
100
AcDbBlockBegin
  2
_D_7
 70
     0
 10
0.0
 20
0.0
 30
0.0
  3
_D_7
  1

  0
SOLID
  5
19F
330
19C
100
AcDbEntity
  8
1
100
AcDbTrace
 10
19.0687105455
 20
21.9995579354
 30
0.0
 11
18.8517137227
 21
21.6883252552
 31
0.0
 12
18.9552979652
 22
21.6374930393
 32
0.0
 13
18.9552979652
 23
21.6374930393
 33
0.0
  0
LINE
  5
1A0
330
19C
100
AcDbEntity
  8
1
100
AcDbLine
 10
16.4497728492
 20
19.4961093042
 30
0.0
 11
16.8372728528
 21
19.4961093042
 31
0.0
  0
LINE
  5
1A1
330
19C
100
AcDbEntity
  8
1
100
AcDbLine
 10
15.8644430781
 20
18.8759009596
 30
0.0
 11
15.7884014103
 21
18.8759009596
 31
0.0
  0
LINE
  5
1A2
330
19C
100
AcDbEntity
  8
1
100
AcDbLine
 10
15.7884014103
 20
18.8759009596
 30
0.0
 11
15.7884014103
 21
18.280067616
 31
0.0
  0
LINE
  5
1A3
330
19C
100
AcDbEntity
  8
1
100
AcDbLine
 10
15.7884014103
 20
18.280067616
 30
0.0
 11
15.8644430781
 21
18.280067616
 31
0.0
  0
LINE
  5
1A4
330
19C
100
AcDbEntity
  8
1
100
AcDbLine
 10
17.3010750012
 20
18.8759009596
 30
0.0
 11
17.377116669
 21
18.8759009596
 31
0.0
  0
LINE
  5
1A5
330
19C
100
AcDbEntity
  8
1
100
AcDbLine
 10
17.377116669
 20
18.8759009596
 30
0.0
 11
17.377116669
 21
18.280067616
 31
0.0
  0
LINE
  5
1A6
330
19C
100
AcDbEntity
  8
1
100
AcDbLine
 10
17.377116669
 20
18.280067616
 30
0.0
 11
17.3010750012
 21
18.280067616
 31
0.0
  0
LINE
  5
1A7
330
19C
100
AcDbEntity
  8
1
100
AcDbLine
 10
19.0687105455
 20
21.9995579354
 30
0.0
 11
17.6841478477
 21
19.1781409297
 31
0.0
  0
LINE
  5
1A8
330
19C
100
AcDbEntity
  8
1
100
AcDbLine
 10
17.6841478477
 20
19.1781409297
 30
0.0
 11
17.4341478477
 21
19.1781409297
 31
0.0
  0
MTEXT
  5
1A9
330
19C
100
AcDbEntity
  8
1
100
AcDbMText
 10
15.814008977
 20
19.7034694745
 30
0.0039370079
 40
0.375
 41
0.0
 71
     1
 72
     1
  1
R3
  7
SLDTEXTSTYLE0
 73
     1
 44
1.0
  0
MTEXT
  5
1AA
330
19C
100
AcDbEntity
  8
1
100
AcDbMText
 10
16.504981184
 20
19.9463846916
 30
0.0039370079
 40
0.375
 41
0.0
 71
     1
 72
     1
  1
1
  7
SLDTEXTSTYLE0
 73
     1
 44
1.0
  0
MTEXT
  5
1AB
330
19C
100
AcDbEntity
  8
1
100
AcDbMText
 10
16.504981184
 20
19.4353430321
 30
0.0039370079
 40
0.375
 41
0.0
 71
     1
 72
     1
  1
2
  7
SLDTEXTSTYLE0
 73
     1
 44
1.0
  0
MTEXT
  5
1AC
330
19C
100
AcDbEntity
  8
1
100
AcDbMText
 10
16.8924811784
 20
19.7034694745
 30
0.0039370079
 40
0.375
 41
0.0
 71
     1
 72
     1
  1
"
  7
SLDTEXTSTYLE0
 73
     1
 44
1.0
  0
MTEXT
  5
1AD
330
19C
100
AcDbEntity
  8
1
100
AcDbMText
 10
15.9594951663
 20
18.7634680368
 30
0.0039370079
 40
0.375
 41
0.0
 71
     1
 72
     1
  1
92.08
  7
SLDTEXTSTYLE0
 73
     1
 44
1.0
  0
ENDBLK
  5
19E
330
19C
100
AcDbEntity
  8
0
100
AcDbBlockEnd
  0
BLOCK
  5
1B1
330
1B0
100
AcDbEntity
  8
0
100
AcDbBlockBegin
  2
_D_8
 70
     0
 10
0.0
 20
0.0
 30
0.0
  3
_D_8
  1

  0
SOLID
  5
1B3
330
1B0
100
AcDbEntity
  8
1
100
AcDbTrace
 10
33.2407007538
 20
20.5695170466
 30
0.0
 11
32.9135127627
 21
20.3774196212
 31
0.0
 12
32.9863831098
 22
20.2879572158
 32
0.0
 13
32.9863831098
 23
20.2879572158
 33
0.0
  0
LINE
  5
1B4
330
1B0
100
AcDbEntity
  8
1
100
AcDbLine
 10
27.6940552096
 20
17.5541022601
 30
0.0
 11
27.6180135418
 21
17.5541022601
 31
0.0
  0
LINE
  5
1B5
330
1B0
100
AcDbEntity
  8
1
100
AcDbLine
 10
27.6180135418
 20
17.5541022601
 30
0.0
 11
27.6180135418
 21
16.9582689166
 31
0.0
  0
LINE
  5
1B6
330
1B0
100
AcDbEntity
  8
1
100
AcDbLine
 10
27.6180135418
 20
16.9582689166
 30
0.0
 11
27.6940552096
 21
16.9582689166
 31
0.0
  0
LINE
  5
1B7
330
1B0
100
AcDbEntity
  8
1
100
AcDbLine
 10
29.1306871327
 20
17.5541022601
 30
0.0
 11
29.2067288005
 21
17.5541022601
 31
0.0
  0
LINE
  5
1B8
330
1B0
100
AcDbEntity
  8
1
100
AcDbLine
 10
29.2067288005
 20
17.5541022601
 30
0.0
 11
29.2067288005
 21
16.9582689166
 31
0.0
  0
LINE
  5
1B9
330
1B0
100
AcDbEntity
  8
1
100
AcDbLine
 10
29.2067288005
 20
16.9582689166
 30
0.0
 11
29.1306871327
 21
16.9582689166
 31
0.0
  0
LINE
  5
1BA
330
1B0
100
AcDbEntity
  8
1
100
AcDbLine
 10
33.2407007538
 20
20.5695170466
 30
0.0
 11
29.5137599792
 21
17.5337897298
 31
0.0
  0
MTEXT
  5
1BB
330
1B0
100
AcDbEntity
  8
1
100
AcDbMText
 10
27.8925794725
 20
18.1135443258
 30
0.0039370079
 40
0.375
 41
0.0
 71
     1
 72
     1
  1
R3"
  7
SLDTEXTSTYLE0
 73
     1
 44
1.0
  0
MTEXT
  5
1BC
330
1B0
100
AcDbEntity
  8
1
100
AcDbMText
 10
27.7891072978
 20
17.4416693373
 30
0.0039370079
 40
0.375
 41
0.0
 71
     1
 72
     1
  1
73.02
  7
SLDTEXTSTYLE0
 73
     1
 44
1.0
  0
ENDBLK
  5
1B2
330
1B0
100
AcDbEntity
  8
0
100
AcDbBlockEnd
  0
BLOCK
  5
1BF
330
1BE
100
AcDbEntity
  8
0
100
AcDbBlockBegin
  2
_D_9
 70
     0
 10
0.0
 20
0.0
 30
0.0
  3
_D_9
  1

  0
SOLID
  5
1C1
330
1BE
100
AcDbEntity
  8
1
100
AcDbTrace
 10
26.9051546392
 20
21.6288295545
 30
0.0
 11
26.8474623315
 21
21.2538295545
 31
0.0
 12
26.9628469469
 22
21.2538295545
 32
0.0
 13
26.9628469469
 23
21.2538295545
 33
0.0
  0
SOLID
  5
1C2
330
1BE
100
AcDbEntity
  8
1
100
AcDbTrace
 10
26.9051546392
 20
6.1294721649
 30
0.0
 11
26.9628469469
 21
6.5044721649
 31
0.0
 12
26.8474623315
 22
6.5044721649
 32
0.0
 13
26.8474623315
 23
6.5044721649
 33
0.0
  0
LINE
  5
1C3
330
1BE
100
AcDbEntity
  8
1
100
AcDbLine
 10
26.7589741012
 20
14.3436800209
 30
0.0
 11
27.1464741048
 21
14.3436800209
 31
0.0
  0
LINE
  5
1C4
330
1BE
100
AcDbEntity
  8
1
100
AcDbLine
 10
26.0482970748
 20
13.7234716762
 30
0.0
 11
25.9722554069
 21
13.7234716762
 31
0.0
  0
LINE
  5
1C5
330
1BE
100
AcDbEntity
  8
1
100
AcDbLine
 10
25.9722554069
 20
13.7234716762
 30
0.0
 11
25.9722554069
 21
13.1276383327
 31
0.0
  0
LINE
  5
1C6
330
1BE
100
AcDbEntity
  8
1
100
AcDbLine
 10
25.9722554069
 20
13.1276383327
 30
0.0
 11
26.0482970748
 21
13.1276383327
 31
0.0
  0
LINE
  5
1C7
330
1BE
100
AcDbEntity
  8
1
100
AcDbLine
 10
27.7620122769
 20
13.7234716762
 30
0.0
 11
27.8380539447
 21
13.7234716762
 31
0.0
  0
LINE
  5
1C8
330
1BE
100
AcDbEntity
  8
1
100
AcDbLine
 10
27.8380539447
 20
13.7234716762
 30
0.0
 11
27.8380539447
 21
13.1276383327
 31
0.0
  0
LINE
  5
1C9
330
1BE
100
AcDbEntity
  8
1
100
AcDbLine
 10
27.8380539447
 20
13.1276383327
 30
0.0
 11
27.7620122769
 21
13.1276383327
 31
0.0
  0
LINE
  5
1CA
330
1BE
100
AcDbEntity
  8
1
100
AcDbLine
 10
26.9051546392
 20
21.6288295545
 30
0.0
 11
26.9051546392
 21
14.8105550181
 31
0.0
  0
LINE
  5
1CB
330
1BE
100
AcDbEntity
  8
1
100
AcDbLine
 10
26.9051546392
 20
6.1294721649
 30
0.0
 11
26.9051546392
 21
13.0515967244
 31
0.0
  0
MTEXT
  5
1CC
330
1BE
100
AcDbEntity
  8
1
100
AcDbMText
 10
26.1495991074
 20
14.5510401911
 30
0.0039370079
 40
0.375
 41
0.0
 71
     1
 72
     1
  1
15
  7
SLDTEXTSTYLE0
 73
     1
 44
1.0
  0
MTEXT
  5
1CD
330
1BE
100
AcDbEntity
  8
1
100
AcDbMText
 10
26.8141824359
 20
14.7939554083
 30
0.0039370079
 40
0.375
 41
0.0
 71
     1
 72
     1
  1
1
  7
SLDTEXTSTYLE0
 73
     1
 44
1.0
  0
MTEXT
  5
1CE
330
1BE
100
AcDbEntity
  8
1
100
AcDbMText
 10
26.8141824359
 20
14.2829137487
 30
0.0039370079
 40
0.375
 41
0.0
 71
     1
 72
     1
  1
2
  7
SLDTEXTSTYLE0
 73
     1
 44
1.0
  0
MTEXT
  5
1CF
330
1BE
100
AcDbEntity
  8
1
100
AcDbMText
 10
27.2016823937
 20
14.5510401911
 30
0.0039370079
 40
0.375
 41
0.0
 71
     1
 72
     1
  1
"
  7
SLDTEXTSTYLE0
 73
     1
 44
1.0
  0
MTEXT
  5
1D0
330
1BE
100
AcDbEntity
  8
1
100
AcDbMText
 10
26.143349163
 20
13.6110387534
 30
0.0039370079
 40
0.375
 41
0.0
 71
     1
 72
     1
  1
393.68
  7
SLDTEXTSTYLE0
 73
     1
 44
1.0
  0
ENDBLK
  5
1C0
330
1BE
100
AcDbEntity
  8
0
100
AcDbBlockEnd
  0
BLOCK
  5
1D3
330
1D2
100
AcDbEntity
  8
0
100
AcDbBlockBegin
  2
_D_10
 70
     0
 10
0.0
 20
0.0
 30
0.0
  3
_D_10
  1

  0
SOLID
  5
1D5
330
1D2
100
AcDbEntity
  8
1
100
AcDbTrace
 10
33.8865950013
 20
9.7247422693
 30
0.0
 11
33.5115950013
 21
9.7824345769
 31
0.0
 12
33.5115950013
 22
9.6670499615
 32
0.0
 13
33.5115950013
 23
9.6670499615
 33
0.0
  0
SOLID
  5
1D6
330
1D2
100
AcDbEntity
  8
1
100
AcDbTrace
 10
5.3871564459
 20
9.7247422657
 30
0.0
 11
5.7621564459
 21
9.6670499581
 31
0.0
 12
5.7621564459
 22
9.7824345735
 32
0.0
 13
5.7621564459
 23
9.7824345735
 33
0.0
  0
LINE
  5
1D7
330
1D2
100
AcDbEntity
  8
1
100
AcDbLine
 10
23.7445411117
 20
10.1373464176
 30
0.0
 11
24.1320411152
 21
10.1373464176
 31
0.0
  0
LINE
  5
1D8
330
1D2
100
AcDbEntity
  8
1
100
AcDbLine
 10
23.0338640852
 20
9.517138073
 30
0.0
 11
22.9578224174
 21
9.517138073
 31
0.0
  0
LINE
  5
1D9
330
1D2
100
AcDbEntity
  8
1
100
AcDbLine
 10
22.9578224174
 20
9.517138073
 30
0.0
 11
22.9578224174
 21
8.9213047294
 31
0.0
  0
LINE
  5
1DA
330
1D2
100
AcDbEntity
  8
1
100
AcDbLine
 10
22.9578224174
 20
8.9213047294
 30
0.0
 11
23.0338640852
 21
8.9213047294
 31
0.0
  0
LINE
  5
1DB
330
1D2
100
AcDbEntity
  8
1
100
AcDbLine
 10
24.7475792874
 20
9.517138073
 30
0.0
 11
24.8236209552
 21
9.517138073
 31
0.0
  0
LINE
  5
1DC
330
1D2
100
AcDbEntity
  8
1
100
AcDbLine
 10
24.8236209552
 20
9.517138073
 30
0.0
 11
24.8236209552
 21
8.9213047294
 31
0.0
  0
LINE
  5
1DD
330
1D2
100
AcDbEntity
  8
1
100
AcDbLine
 10
24.8236209552
 20
8.9213047294
 30
0.0
 11
24.7475792874
 21
8.9213047294
 31
0.0
  0
LINE
  5
1DE
330
1D2
100
AcDbEntity
  8
1
100
AcDbLine
 10
33.8865950013
 20
9.7247422693
 30
0.0
 11
24.9567510854
 21
9.7247422682
 31
0.0
  0
LINE
  5
1DF
330
1D2
100
AcDbEntity
  8
1
100
AcDbLine
 10
5.3871564459
 20
9.7247422657
 30
0.0
 11
22.8246922139
 21
9.7247422679
 31
0.0
  0
MTEXT
  5
1E0
330
1D2
100
AcDbEntity
  8
1
100
AcDbMText
 10
23.1351661179
 20
10.3447065879
 30
0.0039370079
 40
0.375
 41
0.0
 71
     1
 72
     1
  1
28
  7
SLDTEXTSTYLE0
 73
     1
 44
1.0
  0
MTEXT
  5
1E1
330
1D2
100
AcDbEntity
  8
1
100
AcDbMText
 10
23.7997494464
 20
10.587621805
 30
0.0039370079
 40
0.375
 41
0.0
 71
     1
 72
     1
  1
1
  7
SLDTEXTSTYLE0
 73
     1
 44
1.0
  0
MTEXT
  5
1E2
330
1D2
100
AcDbEntity
  8
1
100
AcDbMText
 10
23.7997494464
 20
10.0765801455
 30
0.0039370079
 40
0.375
 41
0.0
 71
     1
 72
     1
  1
2
  7
SLDTEXTSTYLE0
 73
     1
 44
1.0
  0
MTEXT
  5
1E3
330
1D2
100
AcDbEntity
  8
1
100
AcDbMText
 10
24.1872494041
 20
10.3447065879
 30
0.0039370079
 40
0.375
 41
0.0
 71
     1
 72
     1
  1
"
  7
SLDTEXTSTYLE0
 73
     1
 44
1.0
  0
MTEXT
  5
1E4
330
1D2
100
AcDbEntity
  8
1
100
AcDbMText
 10
23.1289161734
 20
9.4047051502
 30
0.0039370079
 40
0.375
 41
0.0
 71
     1
 72
     1
  1
723.89
  7
SLDTEXTSTYLE0
 73
     1
 44
1.0
  0
ENDBLK
  5
1D4
330
1D2
100
AcDbEntity
  8
0
100
AcDbBlockEnd
  0
BLOCK
  5
1E7
330
1E6
100
AcDbEntity
  8
0
100
AcDbBlockBegin
  2
_D_11
 70
     0
 10
0.0
 20
0.0
 30
0.0
  3
_D_11
  1

  0
SOLID
  5
1E9
330
1E6
100
AcDbEntity
  8
1
100
AcDbTrace
 10
9.4845360825
 20
23.8794721649
 30
0.0
 11
9.4268437748
 21
23.5044721649
 31
0.0
 12
9.5422283902
 22
23.5044721649
 32
0.0
 13
9.5422283902
 23
23.5044721649
 33
0.0
  0
SOLID
  5
1EA
330
1E6
100
AcDbEntity
  8
1
100
AcDbTrace
 10
9.4845360825
 20
6.1294721649
 30
0.0
 11
9.5422283902
 21
6.5044721649
 31
0.0
 12
9.4268437748
 22
6.5044721649
 32
0.0
 13
9.4268437748
 23
6.5044721649
 33
0.0
  0
LINE
  5
1EB
330
1E6
100
AcDbEntity
  8
1
100
AcDbLine
 10
8.627678518
 20
19.1314218478
 30
0.0
 11
8.5516368502
 21
19.1314218478
 31
0.0
  0
LINE
  5
1EC
330
1E6
100
AcDbEntity
  8
1
100
AcDbLine
 10
8.5516368502
 20
19.1314218478
 30
0.0
 11
8.5516368502
 21
18.5355885042
 31
0.0
  0
LINE
  5
1ED
330
1E6
100
AcDbEntity
  8
1
100
AcDbLine
 10
8.5516368502
 20
18.5355885042
 30
0.0
 11
8.627678518
 21
18.5355885042
 31
0.0
  0
LINE
  5
1EE
330
1E6
100
AcDbEntity
  8
1
100
AcDbLine
 10
10.3413937202
 20
19.1314218478
 30
0.0
 11
10.417435388
 21
19.1314218478
 31
0.0
  0
LINE
  5
1EF
330
1E6
100
AcDbEntity
  8
1
100
AcDbLine
 10
10.417435388
 20
19.1314218478
 30
0.0
 11
10.417435388
 21
18.5355885042
 31
0.0
  0
LINE
  5
1F0
330
1E6
100
AcDbEntity
  8
1
100
AcDbLine
 10
10.417435388
 20
18.5355885042
 30
0.0
 11
10.3413937202
 21
18.5355885042
 31
0.0
  0
LINE
  5
1F1
330
1E6
100
AcDbEntity
  8
1
100
AcDbLine
 10
9.4845360825
 20
23.8794721649
 30
0.0
 11
9.4845360825
 21
19.7074634866
 31
0.0
  0
LINE
  5
1F2
330
1E6
100
AcDbEntity
  8
1
100
AcDbLine
 10
9.4845360825
 20
6.1294721649
 30
0.0
 11
9.4845360825
 21
18.4595468227
 31
0.0
  0
MTEXT
  5
1F3
330
1E6
100
AcDbEntity
  8
1
100
AcDbMText
 10
8.9779388781
 20
19.6908639134
 30
0.0039370079
 40
0.375
 41
0.0
 71
     1
 72
     1
  1
18"
  7
SLDTEXTSTYLE0
 73
     1
 44
1.0
  0
MTEXT
  5
1F4
330
1E6
100
AcDbEntity
  8
1
100
AcDbMText
 10
8.7227306062
 20
19.018988925
 30
0.0039370079
 40
0.375
 41
0.0
 71
     1
 72
     1
  1
450.85
  7
SLDTEXTSTYLE0
 73
     1
 44
1.0
  0
ENDBLK
  5
1E8
330
1E6
100
AcDbEntity
  8
0
100
AcDbBlockEnd
  0
BLOCK
  5
1F7
330
1F6
100
AcDbEntity
  8
0
100
AcDbBlockBegin
  2
SW_NOTE_0
 70
     0
 10
0.0
 20
0.0
 30
0.0
  3
SW_NOTE_0
  1

  0
MTEXT
  5
1F9
330
1F6
100
AcDbEntity
  8
1
 62
     0
100
AcDbMText
 10
-5.68390405
 20
0.6224423823
 30
0.0
 40
0.4814814815
 41
0.0
 71
     1
 72
     1
  1
TEMPLATE OUTLINE
  7
SLDTEXTSTYLE0
 73
     1
 44
1.0
  0
MTEXT
  5
1FA
330
1F6
100
AcDbEntity
  8
1
 62
     0
100
AcDbMText
 10
-5.68390405
 20
-0.0001399389
 30
0.0
 40
0.4814814815
 41
0.0
 71
     1
 72
     1
  1
FOR 1/2" REVEAL
  7
SLDTEXTSTYLE0
 73
     1
 44
1.0
  0
ENDBLK
  5
1F8
330
1F6
100
AcDbEntity
  8
0
100
AcDbBlockEnd
  0
BLOCK
  5
1FF
330
1FE
100
AcDbEntity
  8
0
100
AcDbBlockBegin
  2
SW_NOTE_1
 70
     0
 10
0.0
 20
0.0
 30
0.0
  3
SW_NOTE_1
  1

  0
MTEXT
  5
201
330
1FE
100
AcDbEntity
  8
1
 62
     0
100
AcDbMText
 10
0.0212702687
 20
0.6237798051
 30
0.0
 40
0.4814814815
 41
0.0
 71
     1
 72
     1
  1
TEMPLATE OUTLINE
  7
SLDTEXTSTYLE0
 73
     1
 44
1.0
  0
MTEXT
  5
202
330
1FE
100
AcDbEntity
  8
1
 62
     0
100
AcDbMText
 10
0.0212702687
 20
0.0011974838
 30
0.0
 40
0.4814814815
 41
0.0
 71
     1
 72
     1
  1
FOR 1/8" REVEAL
  7
SLDTEXTSTYLE0
 73
     1
 44
1.0
  0
ENDBLK
  5
200
330
1FE
100
AcDbEntity
  8
0
100
AcDbBlockEnd
  0
ENDSEC
  0
SECTION
  2
ENTITIES
  0
LINE
  5
FA
330
1F
100
AcDbEntity
  8
1
  6
Continuous
 62
     7
370
     0
100
AcDbLine
 10
15.74705519
 20
24.5044721649
 30
0.0
 11
8.262156446
 21
24.5044721649
 31
0.0
  0
LINE
  5
FB
330
1F
100
AcDbEntity
  8
1
  6
Continuous
 62
     7
370
     0
100
AcDbLine
 10
4.762156446
 20
21.0044721649
 30
0.0
 11
4.762156446
 21
9.0044721649
 31
0.0
  0
LINE
  5
FC
330
1F
100
AcDbEntity
  8
1
  6
Continuous
 62
     7
370
     0
100
AcDbLine
 10
8.262156446
 20
5.5044721649
 30
0.0
 11
31.0559307063
 21
5.5044721649
 31
0.0
  0
LINE
  5
FD
330
1F
100
AcDbEntity
  8
1
  6
Continuous
 62
     7
370
     0
100
AcDbLine
 10
34.5115950002
 20
9.0044721649
 30
0.0
 11
34.5115950002
 21
18.7538332003
 31
0.0
  0
LINE
  5
FE
330
1F
100
AcDbEntity
  8
1
  6
Continuous
 62
     7
370
     0
100
AcDbLine
 10
31.011598646
 20
22.2538295545
 30
0.0
 11
20.6656893272
 21
22.2538295545
 31
0.0
  0
LINE
  5
FF
330
1F
100
AcDbEntity
  8
1
100
AcDbLine
 10
19.6590435761
 20
5.5044721649
 30
0.0
 11
19.6590435761
 21
7.5555345115
 31
0.0
  0
LINE
  5
100
330
1F
100
AcDbEntity
  8
1
100
AcDbLine
 10
34.5115950002
 20
13.8791526826
 30
0.0
 11
32.4813312981
 21
13.8791526826
 31
0.0
  0
LINE
  5
101
330
1F
100
AcDbEntity
  8
1
100
AcDbLine
 10
6.7621564521
 20
13.8791526826
 30
0.0
 11
4.762156446
 21
13.8791526826
 31
0.0
  0
LINE
  5
102
330
1F
100
AcDbEntity
  8
1
100
AcDbLine
 10
19.6590435761
 20
20.4363680013
 30
0.0
 11
19.6590435761
 21
22.4277608484
 31
0.0
  0
LINE
  5
103
330
1F
100
AcDbEntity
  8
1
100
AcDbLine
 10
33.8865950014
 20
9.0044997417
 30
0.0
 11
33.8865950002
 21
18.7538332003
 31
0.0
  0
LINE
  5
104
330
1F
100
AcDbEntity
  8
1
100
AcDbLine
 10
8.262156446
 20
6.1294721649
 30
0.0
 11
31.0517222695
 21
6.1294721649
 31
0.0
  0
LINE
  5
105
330
1F
100
AcDbEntity
  8
1
100
AcDbLine
 10
5.387156446
 20
21.0044721649
 30
0.0
 11
5.387156446
 21
9.0044721649
 31
0.0
  0
LINE
  5
106
330
1F
100
AcDbEntity
  8
1
100
AcDbLine
 10
15.74705519
 20
23.8794721649
 30
0.0
 11
8.262156446
 21
23.8794721649
 31
0.0
  0
LINE
  5
107
330
1F
100
AcDbEntity
  8
1
100
AcDbLine
 10
31.011598646
 20
21.6288295545
 30
0.0
 11
20.6656893272
 21
21.6288295545
 31
0.0
  0
ARC
  5
108
330
1F
100
AcDbEntity
  8
1
  6
Continuous
 62
     7
370
     0
100
AcDbCircle
 10
8.262156446
 20
21.0044721649
 30
0.0
 40
3.500000000000002
100
AcDbArc
 50
90.0
 51
180.0
  0
ARC
  5
109
330
1F
100
AcDbEntity
  8
1
  6
Continuous
 62
     7
370
     0
100
AcDbCircle
 10
8.262156446
 20
9.0044721649
 30
0.0
 40
3.500000000000002
100
AcDbArc
 50
180.0
 51
270.0
  0
ARC
  5
10A
330
1F
100
AcDbEntity
  8
1
  6
Continuous
 62
     7
370
     0
100
AcDbCircle
 10
31.0109977137
 20
9.0047810776
 30
0.0
 40
3.500597300157967
100
AcDbArc
 50
270.7354577846
 51
359.9949438938
  0
ARC
  5
10B
330
1F
100
AcDbEntity
  8
1
  6
Continuous
 62
     7
370
     0
100
AcDbCircle
 10
31.011598646
 20
18.7538332003
 30
0.0
 40
3.499996354188561
100
AcDbArc
 50
0.0
 51
90.0
  0
ARC
  5
10C
330
1F
100
AcDbEntity
  8
1
  6
Continuous
 62
     7
370
     0
100
AcDbCircle
 10
20.6656893272
 20
25.2538295545
 30
0.0
 40
3.000000000000004
100
AcDbArc
 50
220.8247310173
 51
270.0
  0
ARC
  5
10D
330
1F
100
AcDbEntity
  8
1
  6
Continuous
 62
     7
370
     0
100
AcDbCircle
 10
15.74705519
 20
21.0044721649
 30
0.0
 40
3.500000000000001
100
AcDbArc
 50
40.8247310173
 51
90.0
  0
ARC
  5
10E
330
1F
100
AcDbEntity
  8
1
100
AcDbCircle
 10
31.011598646
 20
18.7538332003
 30
0.0
 40
2.874996354188561
100
AcDbArc
 50
0.0
 51
90.0
  0
ARC
  5
10F
330
1F
100
AcDbEntity
  8
1
100
AcDbCircle
 10
31.0109977137
 20
9.0047810776
 30
0.0
 40
2.875597301506959
100
AcDbArc
 50
270.8114568681
 51
359.9943944312
  0
ARC
  5
110
330
1F
100
AcDbEntity
  8
1
100
AcDbCircle
 10
8.262156446
 20
9.0044721649
 30
0.0
 40
2.875000000000001
100
AcDbArc
 50
180.0
 51
270.0
  0
ARC
  5
111
330
1F
100
AcDbEntity
  8
1
100
AcDbCircle
 10
8.262156446
 20
21.0044721649
 30
0.0
 40
2.875000000000002
100
AcDbArc
 50
90.0
 51
180.0
  0
ARC
  5
112
330
1F
100
AcDbEntity
  8
1
100
AcDbCircle
 10
15.74705519
 20
21.0044721649
 30
0.0
 40
2.875
100
AcDbArc
 50
40.8247310173
 51
90.0
  0
ARC
  5
113
330
1F
100
AcDbEntity
  8
1
100
AcDbCircle
 10
20.6656893272
 20
25.2538295545
 30
0.0
 40
3.625
100
AcDbArc
 50
220.8247310173
 51
270.0
  0
DIMENSION
  5
114
330
1F
100
AcDbEntity
  8
1
100
AcDbDimension
  2
_D
 10
37.4446714772
 20
5.521381831
 30
0.0
 11
37.4224127687
 21
13.9310758713
 31
0.0
 70
   160
  1
<>
 71
     2
 42
-1.0
  3
SLDDIMSTYLE0
100
AcDbAlignedDimension
 13
31.011598646
 23
22.2538295545
 33
0.0
 14
31.0559307063
 24
5.5044721649
 34
0.0
 50
-89.84835036
100
AcDbRotatedDimension
  0
DIMENSION
  5
12C
330
1F
100
AcDbEntity
  8
1
100
AcDbDimension
  2
_D_1
 10
31.011598646
 20
18.7538332003
 30
0.0
 11
35.8534631662
 21
24.2590550142
 31
0.0
 70
   164
  1
<> TYP
 71
     1
 42
-1.0
  3
SLDDIMSTYLE1
100
AcDbRadialDimension
 15
32.8215226752
 25
21.7495216834
 35
0.0
 40
0.0
  0
DIMENSION
  5
141
330
1F
100
AcDbEntity
  8
1
100
AcDbDimension
  2
_D_2
 10
15.74705519
 20
21.0044721649
 30
0.0
 11
19.5859956463
 21
27.6263037382
 31
0.0
 70
   164
  1
<>
 71
     1
 42
-1.0
  3
SLDDIMSTYLE2
100
AcDbRadialDimension
 15
17.0680963283
 25
24.2455908469
 35
0.0
 40
0.0
  0
DIMENSION
  5
155
330
1F
100
AcDbEntity
  8
1
100
AcDbDimension
  2
_D_3
 10
20.6656893272
 20
25.2538295545
 30
0.0
 11
20.0904844519
 21
24.2591911636
 31
0.0
 70
   164
  1
<>
 71
     1
 42
-1.0
  3
SLDDIMSTYLE2
100
AcDbRadialDimension
 15
19.1638287895
 25
22.6568284137
 35
0.0
 40
0.0
  0
DIMENSION
  5
164
330
1F
100
AcDbEntity
  8
1
100
AcDbDimension
  2
_D_4
 10
2.3837367902
 20
5.5044721649
 30
0.0
 11
2.3837367902
 21
15.652441728
 31
0.0
 70
   160
  1
<>
 71
     2
 42
-1.0
  3
SLDDIMSTYLE0
100
AcDbAlignedDimension
 13
8.262156446
 23
24.5044721649
 33
0.0
 14
8.262156446
 24
5.5044721649
 34
0.0
 50
90.0
100
AcDbRotatedDimension
  0
DIMENSION
  5
176
330
1F
100
AcDbEntity
  8
1
100
AcDbDimension
  2
_D_5
 10
34.5115950002
 20
2.9517990829
 30
0.0
 11
20.0904840582
 21
2.9517990829
 31
0.0
 70
   160
  1
<>
 71
     2
 42
-1.0
  3
SLDDIMSTYLE0
100
AcDbAlignedDimension
 13
4.762156446
 23
9.0044721649
 33
0.0
 14
34.5115950002
 24
9.0044721649
 34
0.0
 50
0.0
100
AcDbRotatedDimension
  0
DIMENSION
  5
18C
330
1F
100
AcDbEntity
  8
1
100
AcDbDimension
  2
_D_6
 10
15.74705519
 20
21.0044721649
 30
0.0
 11
16.5827593967
 21
22.4134024556
 31
0.0
 70
   164
  1
<>
 71
     1
 42
-1.0
  3
SLDDIMSTYLE2
100
AcDbRadialDimension
 15
17.2137531973
 25
23.4772078879
 35
0.0
 40
0.0
  0
DIMENSION
  5
19B
330
1F
100
AcDbEntity
  8
1
100
AcDbDimension
  2
_D_7
 10
20.6656893272
 20
25.2538295545
 30
0.0
 11
16.582759003
 21
19.0835051546
 31
0.0
 70
   164
  1
<>
 71
     1
 42
-1.0
  3
SLDDIMSTYLE2
100
AcDbRadialDimension
 15
19.0687105455
 25
21.9995579354
 35
0.0
 40
0.0
  0
DIMENSION
  5
1AE
330
1F
100
AcDbEntity
  8
1
100
AcDbDimension
  2
_D_8
 10
31.011598646
 20
18.7538332003
 30
0.0
 11
28.4123711345
 21
17.506185567
 31
0.0
 70
   164
  1
<>
 71
     1
 42
-1.0
  3
SLDDIMSTYLE3
100
AcDbRadialDimension
 15
33.2407007538
 25
20.5695170466
 35
0.0
 40
0.0
  0
DIMENSION
  5
1BD
330
1F
100
AcDbEntity
  8
1
100
AcDbDimension
  2
_D_9
 10
26.9051546392
 20
6.1294721649
 30
0.0
 11
26.9051546392
 21
13.9310758713
 31
0.0
 70
   160
  1
<>
 71
     2
 42
-1.0
  3
SLDDIMSTYLE0
100
AcDbAlignedDimension
 13
31.011598646
 23
21.6288295545
 33
0.0
 14
31.0517222695
 24
6.1294721649
 34
0.0
 50
90.0
100
AcDbRotatedDimension
  0
DIMENSION
  5
1D1
330
1F
100
AcDbEntity
  8
1
100
AcDbDimension
  2
_D_10
 10
5.3871564459
 20
9.7247422657
 30
0.0
 11
23.8907216496
 21
9.724742268
 31
0.0
 70
   160
  1
<>
 71
     2
 42
-1.0
  3
SLDDIMSTYLE0
100
AcDbAlignedDimension
 13
33.8865950014
 23
9.0044997417
 33
0.0
 14
5.387156446
 24
9.0044721649
 34
0.0
 50
0.0000000072
100
AcDbRotatedDimension
  0
DIMENSION
  5
1E5
330
1F
100
AcDbEntity
  8
1
100
AcDbDimension
  2
_D_11
 10
9.4845360825
 20
6.1294721649
 30
0.0
 11
9.4845360825
 21
19.0835051546
 31
0.0
 70
   160
  1
<>
 71
     2
 42
-1.0
  3
SLDDIMSTYLE0
100
AcDbAlignedDimension
 13
8.262156446
 23
23.8794721649
 33
0.0
 14
8.262156446
 24
6.1294721649
 34
0.0
 50
90.0
100
AcDbRotatedDimension
  0
MTEXT
  5
1F5
330
1F
100
AcDbEntity
  8
1
100
AcDbMText
 10
16.7553412144
 20
14.1024594644
 30
0.0
 40
0.7291666667
 41
0.0
 71
     1
 72
     1
  1
0000000788
  7
SLDTEXTSTYLE0
 73
     1
 44
1.0
  0
INSERT
  5
1FB
102
{ACAD_REACTORS
330
1FD
102
}
330
1F
100
AcDbEntity
  8
1
100
AcDbBlockReference
  2
SW_NOTE_0
 10
7.313211422
 20
28.106005098
 30
0.0
  0
LEADER
  5
1FD
330
1F
100
AcDbEntity
  8
1
100
AcDbLeader
  3
SLDDIMSTYLE4
 73
     2
 76
     3
 10
9.7481251071
 20
24.5044721649
 30
0.0
 10
7.563211422
 20
28.106005098
 30
0.0
 10
7.313211422
 20
28.106005098
 30
0.0
340
1FB
  0
INSERT
  5
203
102
{ACAD_REACTORS
330
204
102
}
330
1F
100
AcDbEntity
  8
1
100
AcDbBlockReference
  2
SW_NOTE_1
 10
13.0735750921
 20
8.1526506434
 30
0.0
  0
LEADER
  5
204
330
1F
100
AcDbEntity
  8
1
100
AcDbLeader
  3
SLDDIMSTYLE4
 73
     2
 76
     3
 10
11.587628866
 20
6.1294721649
 30
0.0
 10
12.8235750921
 20
8.1526506434
 30
0.0
 10
13.0735750921
 20
8.1526506434
 30
0.0
340
203
  0
ENDSEC
  0
SECTION
  2
OBJECTS
  0
DICTIONARY
  5
C
330
0
100
AcDbDictionary
281
     1
  3
ACAD_GROUP
350
D
  3
ACAD_LAYOUT
350
1A
  3
ACAD_MLINESTYLE
350
17
  3
ACAD_PLOTSETTINGS
350
19
  3
ACAD_PLOTSTYLENAME
350
E
  0
DICTIONARY
  5
D
102
{ACAD_REACTORS
330
C
102
}
330
C
100
AcDbDictionary
281
     1
  0
DICTIONARY
  5
1A
102
{ACAD_REACTORS
330
C
102
}
330
C
100
AcDbDictionary
281
     1
  3
Layout1
350
1E
  3
Layout2
350
26
  3
Model
350
22
  0
DICTIONARY
  5
17
102
{ACAD_REACTORS
330
C
102
}
330
C
100
AcDbDictionary
281
     1
  3
Standard
350
18
  0
DICTIONARY
  5
19
102
{ACAD_REACTORS
330
C
102
}
330
C
100
AcDbDictionary
281
     1
  0
ACDBDICTIONARYWDFLT
  5
E
102
{ACAD_REACTORS
330
C
102
}
330
C
100
AcDbDictionary
281
     1
  3
Normal
350
F
100
AcDbDictionaryWithDefault
340
F
  0
LAYOUT
  5
1E
102
{ACAD_REACTORS
330
1A
102
}
330
1A
100
AcDbPlotSettings
  1

  2
none_device
  4

  6

 40
0.0
 41
0.0
 42
0.0
 43
0.0
 44
0.0
 45
0.0
 46
0.0
 47
0.0
 48
0.0
 49
0.0
140
0.0
141
0.0
142
1.0
143
1.0
 70
   688
 72
     0
 73
     0
 74
     5
  7

 75
    16
147
1.0
148
0.0
149
0.0
100
AcDbLayout
  1
Layout1
 70
     1
 71
     1
 10
0.0
 20
0.0
 11
12.0
 21
9.0
 12
0.0
 22
0.0
 32
0.0
 14
1.0000000000E+20
 24
1.0000000000E+20
 34
1.0000000000E+20
 15
-1.0000000000E+20
 25
-1.0000000000E+20
 35
-1.0000000000E+20
146
0.0
 13
0.0
 23
0.0
 33
0.0
 16
1.0
 26
0.0
 36
0.0
 17
0.0
 27
1.0
 37
0.0
 76
     0
330
1B
  0
LAYOUT
  5
26
102
{ACAD_REACTORS
330
1A
102
}
330
1A
100
AcDbPlotSettings
  1

  2
none_device
  4

  6

 40
0.0
 41
0.0
 42
0.0
 43
0.0
 44
0.0
 45
0.0
 46
0.0
 47
0.0
 48
0.0
 49
0.0
140
0.0
141
0.0
142
1.0
143
1.0
 70
   688
 72
     0
 73
     0
 74
     5
  7

 75
    16
147
1.0
148
0.0
149
0.0
100
AcDbLayout
  1
Layout2
 70
     1
 71
     2
 10
0.0
 20
0.0
 11
0.0
 21
0.0
 12
0.0
 22
0.0
 32
0.0
 14
0.0
 24
0.0
 34
0.0
 15
0.0
 25
0.0
 35
0.0
146
0.0
 13
0.0
 23
0.0
 33
0.0
 16
1.0
 26
0.0
 36
0.0
 17
0.0
 27
1.0
 37
0.0
 76
     0
330
23
  0
LAYOUT
  5
22
102
{ACAD_REACTORS
330
1A
102
}
330
1A
100
AcDbPlotSettings
  1

  2
none_device
  4

  6

 40
0.0
 41
0.0
 42
0.0
 43
0.0
 44
0.0
 45
0.0
 46
0.0
 47
0.0
 48
0.0
 49
0.0
140
0.0
141
0.0
142
1.0
143
1.0
 70
  1712
 72
     0
 73
     0
 74
     0
  7

 75
     0
147
1.0
148
0.0
149
0.0
100
AcDbLayout
  1
Model
 70
     1
 71
     0
 10
0.0
 20
0.0
 11
40.0
 21
30.0
 12
0.0
 22
0.0
 32
0.0
 14
0.0
 24
0.0
 34
0.0
 15
40.0
 25
30.0
 35
0.0
146
0.0
 13
0.0
 23
0.0
 33
0.0
 16
1.0
 26
0.0
 36
0.0
 17
0.0
 27
1.0
 37
0.0
 76
     0
330
1F
331
29
  0
MLINESTYLE
  5
18
102
{ACAD_REACTORS
330
17
102
}
330
17
100
AcDbMlineStyle
  2
Standard
 70
     0
  3

 62
   256
 51
90.0
 52
90.0
 71
     2
 49
0.5
 62
   256
  6
BYLAYER
 49
-0.5
 62
   256
  6
BYLAYER
  0
ACDBPLACEHOLDER
  5
F
102
{ACAD_REACTORS
330
E
102
}
330
E
  0
ENDSEC
  0
EOF
