  0
SECTION
  2
HEADER
  9
$ACADVER
  1
AC1015
  9
$ACADMAINTVER
 70
     6
  9
$DWGCODEPAGE
  3
ANSI_1252
  9
$INSBASE
 10
0.0
 20
0.0
 30
0.0
  9
$EXTMIN
 10
0.0
 20
0.0
 30
0.0
  9
$EXTMAX
 10
40.0
 20
30.0
 30
0.0
  9
$LIMMIN
 10
0.0
 20
0.0
  9
$LIMMAX
 10
40.0
 20
30.0
  9
$ORTHOMODE
 70
     0
  9
$REGENMODE
 70
     1
  9
$FILLMODE
 70
     1
  9
$QTEXTMODE
 70
     0
  9
$MIRRTEXT
 70
     1
  9
$LTSCALE
 40
1.0
  9
$ATTMODE
 70
     1
  9
$TEXTSIZE
 40
0.4814814815
  9
$TRACEWID
 40
0.05
  9
$TEXTSTYLE
  7
Standard
  9
$CLAYER
  8
0
  9
$CELTYPE
  6
ByLayer
  9
$CECOLOR
 62
   256
  9
$CELTSCALE
 40
1.0
  9
$DISPSILH
 70
     0
  9
$DIMSCALE
 40
1.0
  9
$DIMASZ
 40
0.375
  9
$DIMEXO
 40
0.05
  9
$DIMDLI
 40
0.38
  9
$DIMRND
 40
0.0
  9
$DIMDLE
 40
0.0
  9
$DIMEXE
 40
0.125
  9
$DIMTP
 40
0.0
  9
$DIMTM
 40
0.0
  9
$DIMTXT
 40
0.5
  9
$DIMCEN
 40
0.09
  9
$DIMTSZ
 40
0.0
  9
$DIMTOL
 70
     0
  9
$DIMLIM
 70
     0
  9
$DIMTIH
 70
     1
  9
$DIMTOH
 70
     1
  9
$DIMSE1
 70
     0
  9
$DIMSE2
 70
     0
  9
$DIMTAD
 70
     0
  9
$DIMZIN
 70
     0
  9
$DIMBLK
  1

  9
$DIMASO
 70
     1
  9
$DIMSHO
 70
     1
  9
$DIMPOST
  1

  9
$DIMAPOST
  1

  9
$DIMALT
 70
     0
  9
$DIMALTD
 70
     2
  9
$DIMALTF
 40
25.4
  9
$DIMLFAC
 40
1.0
  9
$DIMTOFL
 70
     0
  9
$DIMTVP
 40
0.0
  9
$DIMTIX
 70
     0
  9
$DIMSOXD
 70
     0
  9
$DIMSAH
 70
     0
  9
$DIMBLK1
  1

  9
$DIMBLK2
  1

  9
$DIMSTYLE
  2
Standard
  9
$DIMCLRD
 70
     0
  9
$DIMCLRE
 70
     0
  9
$DIMCLRT
 70
     0
  9
$DIMTFAC
 40
1.0
  9
$DIMGAP
 40
0.06
  9
$DIMJUST
 70
     0
  9
$DIMSD1
 70
     0
  9
$DIMSD2
 70
     0
  9
$DIMTOLJ
 70
     1
  9
$DIMTZIN
 70
     0
  9
$DIMALTZ
 70
     0
  9
$DIMALTTZ
 70
     0
  9
$DIMUPT
 70
     0
  9
$DIMDEC
 70
     2
  9
$DIMTDEC
 70
     2
  9
$DIMALTU
 70
     2
  9
$DIMALTTD
 70
     2
  9
$DIMTXSTY
  7
Standard
  9
$DIMAUNIT
 70
     0
  9
$DIMADEC
 70
     2
  9
$DIMALTRND
 40
0.0
  9
$DIMAZIN
 70
     0
  9
$DIMDSEP
 70
    46
  9
$DIMATFIT
 70
     3
  9
$DIMFRAC
 70
     0
  9
$DIMLDRBLK
  1

  9
$DIMLUNIT
 70
     2
  9
$DIMLWD
 70
    -2
  9
$DIMLWE
 70
    -2
  9
$DIMTMOVE
 70
     0
  9
$LUNITS
 70
     2
  9
$LUPREC
 70
     3
  9
$SKETCHINC
 40
0.1
  9
$FILLETRAD
 40
0.5
  9
$AUNITS
 70
     0
  9
$AUPREC
 70
     2
  9
$MENU
  1
.
  9
$ELEVATION
 40
0.0
  9
$PELEVATION
 40
0.0
  9
$THICKNESS
 40
0.0
  9
$LIMCHECK
 70
     0
  9
$CHAMFERA
 40
0.5
  9
$CHAMFERB
 40
0.5
  9
$CHAMFERC
 40
1.0
  9
$CHAMFERD
 40
0.0
  9
$SKPOLY
 70
     0
  9
$TDCREATE
 40
2456408.583356343
  9
$TDUCREATE
 40
2456408.791689676
  9
$TDUPDATE
 40
2456408.583357072
  9
$TDUUPDATE
 40
2456408.791690405
  9
$TDINDWG
 40
0.0000000116
  9
$TDUSRTIMER
 40
0.0000000116
  9
$USRTIMER
 70
     1
  9
$ANGBASE
 50
0.0
  9
$ANGDIR
 70
     0
  9
$PDMODE
 70
     0
  9
$PDSIZE
 40
-1.0
  9
$PLINEWID
 40
0.0
  9
$SPLFRAME
 70
     0
  9
$SPLINETYPE
 70
     6
  9
$SPLINESEGS
 70
     8
  9
$HANDSEED
  5
204
  9
$SURFTAB1
 70
     6
  9
$SURFTAB2
 70
     6
  9
$SURFTYPE
 70
     6
  9
$SURFU
 70
     6
  9
$SURFV
 70
     6
  9
$UCSBASE
  2

  9
$UCSNAME
  2

  9
$UCSORG
 10
0.0
 20
0.0
 30
0.0
  9
$UCSXDIR
 10
1.0
 20
0.0
 30
0.0
  9
$UCSYDIR
 10
0.0
 20
1.0
 30
0.0
  9
$UCSORTHOREF
  2

  9
$UCSORTHOVIEW
 70
     0
  9
$UCSORGTOP
 10
0.0
 20
0.0
 30
0.0
  9
$UCSORGBOTTOM
 10
0.0
 20
0.0
 30
0.0
  9
$UCSORGLEFT
 10
0.0
 20
0.0
 30
0.0
  9
$UCSORGRIGHT
 10
0.0
 20
0.0
 30
0.0
  9
$UCSORGFRONT
 10
0.0
 20
0.0
 30
0.0
  9
$UCSORGBACK
 10
0.0
 20
0.0
 30
0.0
  9
$PUCSBASE
  2

  9
$PUCSNAME
  2

  9
$PUCSORG
 10
0.0
 20
0.0
 30
0.0
  9
$PUCSXDIR
 10
1.0
 20
0.0
 30
0.0
  9
$PUCSYDIR
 10
0.0
 20
1.0
 30
0.0
  9
$PUCSORTHOREF
  2

  9
$PUCSORTHOVIEW
 70
     0
  9
$PUCSORGTOP
 10
0.0
 20
0.0
 30
0.0
  9
$PUCSORGBOTTOM
 10
0.0
 20
0.0
 30
0.0
  9
$PUCSORGLEFT
 10
0.0
 20
0.0
 30
0.0
  9
$PUCSORGRIGHT
 10
0.0
 20
0.0
 30
0.0
  9
$PUCSORGFRONT
 10
0.0
 20
0.0
 30
0.0
  9
$PUCSORGBACK
 10
0.0
 20
0.0
 30
0.0
  9
$USERI1
 70
     0
  9
$USERI2
 70
     0
  9
$USERI3
 70
     0
  9
$USERI4
 70
     0
  9
$USERI5
 70
     0
  9
$USERR1
 40
0.0
  9
$USERR2
 40
0.0
  9
$USERR3
 40
0.0
  9
$USERR4
 40
0.0
  9
$USERR5
 40
0.0
  9
$WORLDVIEW
 70
     1
  9
$SHADEDGE
 70
     3
  9
$SHADEDIF
 70
    70
  9
$TILEMODE
 70
     1
  9
$MAXACTVP
 70
    64
  9
$PINSBASE
 10
0.0
 20
0.0
 30
0.0
  9
$PLIMCHECK
 70
     0
  9
$PEXTMIN
 10
1.0000000000E+20
 20
1.0000000000E+20
 30
1.0000000000E+20
  9
$PEXTMAX
 10
-1.0000000000E+20
 20
-1.0000000000E+20
 30
-1.0000000000E+20
  9
$PLIMMIN
 10
0.0
 20
0.0
  9
$PLIMMAX
 10
12.0
 20
9.0
  9
$UNITMODE
 70
     0
  9
$VISRETAIN
 70
     1
  9
$PLINEGEN
 70
     0
  9
$PSLTSCALE
 70
     1
  9
$TREEDEPTH
 70
  3020
  9
$CMLSTYLE
  2
Standard
  9
$CMLJUST
 70
     0
  9
$CMLSCALE
 40
1.0
  9
$PROXYGRAPHICS
 70
     1
  9
$MEASUREMENT
 70
     0
  9
$CELWEIGHT
370
    -1
  9
$ENDCAPS
280
     0
  9
$JOINSTYLE
280
     0
  9
$LWDISPLAY
290
     1
  9
$INSUNITS
 70
     1
  9
$HYPERLINKBASE
  1

  9
$STYLESHEET
  1

  9
$XEDIT
290
     1
  9
$CEPSNTYPE
380
     0
  9
$PSTYLEMODE
290
     1
  9
$FINGERPRINTGUID
  2
{6750FEA7-CA66-42EE-9C52-C90FB797E206}
  9
$VERSIONGUID
  2
{FAEB1C32-E019-11D5-929B-00C0DF256EC4}
  9
$EXTNAMES
290
     1
  9
$PSVPSCALE
 40
0.0
  9
$OLESTARTUP
290
     0
  0
ENDSEC
  0
SECTION
  2
CLASSES
  0
CLASS
  1
ACDBDICTIONARYWDFLT
  2
AcDbDictionaryWithDefault
  3
ObjectDBX Classes
 90
        0
280
     0
281
     0
  0
CLASS
  1
VISUALSTYLE
  2
AcDbVisualStyle
  3
ObjectDBX Classes
 90
     4095
280
     0
281
     0
  0
CLASS
  1
MATERIAL
  2
AcDbMaterial
  3
ObjectDBX Classes
 90
     1153
280
     0
281
     0
  0
CLASS
  1
ACDBPLACEHOLDER
  2
AcDbPlaceHolder
  3
ObjectDBX Classes
 90
        0
280
     0
281
     0
  0
CLASS
  1
LAYOUT
  2
AcDbLayout
  3
ObjectDBX Classes
 90
        0
280
     0
281
     0
  0
ENDSEC
  0
SECTION
  2
TABLES
  0
TABLE
  2
VPORT
  5
8
330
0
100
AcDbSymbolTable
 70
     1
  0
VPORT
  5
29
330
8
100
AcDbSymbolTableRecord
100
AcDbViewportTableRecord
  2
*Active
 70
     0
 10
0.0
 20
0.0
 11
1.0
 21
1.0
 12
20.0
 22
15.0
 13
0.0
 23
0.0
 14
0.5
 24
0.5
 15
0.5
 25
0.5
 16
0.0
 26
0.0
 36
1.0
 17
0.0
 27
0.0
 37
0.0
 40
30.0
 41
1.3333333333
 42
50.0
 43
0.0
 44
0.0
 50
0.0
 51
0.0
 71
     0
 72
  2000
 73
     1
 74
     3
 75
     0
 76
     0
 77
     0
 78
     0
281
     0
 65
     1
110
0.0
120
0.0
130
0.0
111
1.0
121
0.0
131
0.0
112
0.0
122
1.0
132
0.0
 79
     0
146
0.0
  0
ENDTAB
  0
TABLE
  2
LTYPE
  5
5
330
0
100
AcDbSymbolTable
 70
     6
  0
LTYPE
  5
14
330
5
100
AcDbSymbolTableRecord
100
AcDbLinetypeTableRecord
  2
ByBlock
 70
     0
  3

 72
    65
 73
     0
 40
0.0
  0
LTYPE
  5
15
330
5
100
AcDbSymbolTableRecord
100
AcDbLinetypeTableRecord
  2
ByLayer
 70
     0
  3

 72
    65
 73
     0
 40
0.0
  0
LTYPE
  5
16
330
5
100
AcDbSymbolTableRecord
100
AcDbLinetypeTableRecord
  2
Continuous
 70
     0
  3
Solid line
 72
    65
 73
     0
 40
0.0
  0
LTYPE
  5
3F
330
5
100
AcDbSymbolTableRecord
100
AcDbLinetypeTableRecord
  2
HIDDEN
 70
     0
  3
Hidden __ __ __ __ __ __ __ __ __ __ __ __ __ __
 72
    65
 73
     2
 40
0.075
 49
0.05
 74
     0
 49
-0.025
 74
     0
  0
LTYPE
  5
40
330
5
100
AcDbSymbolTableRecord
100
AcDbLinetypeTableRecord
  2
PHANTOM
 70
     0
  3
Phantom ______  __  __  ______  __  __  ______
 72
    65
 73
     6
 40
0.5
 49
0.25
 74
     0
 49
-0.05
 74
     0
 49
0.05
 74
     0
 49
-0.05
 74
     0
 49
0.05
 74
     0
 49
-0.05
 74
     0
  0
LTYPE
  5
41
330
5
100
AcDbSymbolTableRecord
100
AcDbLinetypeTableRecord
  2
CENTER
 70
     0
  3
Center ____ _ ____ _ ____ _ ____ _ ____ _ ____
 72
    65
 73
     4
 40
0.4
 49
0.25
 74
     0
 49
-0.05
 74
     0
 49
0.05
 74
     0
 49
-0.05
 74
     0
  0
LTYPE
  5
42
330
5
100
AcDbSymbolTableRecord
100
AcDbLinetypeTableRecord
  2
CENTERX2
 70
     0
  3
Center (2x) ________  __  ________  __  _____
 72
    65
 73
     4
 40
0.8
 49
0.5
 74
     0
 49
-0.1
 74
     0
 49
0.1
 74
     0
 49
-0.1
 74
     0
  0
LTYPE
  5
43
330
5
100
AcDbSymbolTableRecord
100
AcDbLinetypeTableRecord
  2
DOT2
 70
     0
  3
Dot (.5x) ........................................
 72
    65
 73
     2
 40
0.025
 49
0.0
 74
     0
 49
-0.025
 74
     0
  0
ENDTAB
  0
TABLE
  2
LAYER
  5
2
330
0
100
AcDbSymbolTable
 70
   183
  0
LAYER
  5
10
330
2
100
AcDbSymbolTableRecord
100
AcDbLayerTableRecord
  2
0
 70
     0
 62
     7
  6
Continuous
370
    -3
390
F
  0
LAYER
  5
44
330
2
100
AcDbSymbolTableRecord
100
AcDbLayerTableRecord
  2
SLD-0
 70
     0
 62
   179
  6
Continuous
370
    -3
390
F
  0
LAYER
  5
45
330
2
100
AcDbSymbolTableRecord
100
AcDbLayerTableRecord
  2
1
 70
     0
 62
   179
  6
Continuous
370
    -3
390
F
  0
LAYER
  5
46
330
2
100
AcDbSymbolTableRecord
100
AcDbLayerTableRecord
  2
2
 70
     0
 62
   179
  6
Continuous
370
    -3
390
F
  0
LAYER
  5
47
330
2
100
AcDbSymbolTableRecord
100
AcDbLayerTableRecord
  2
3
 70
     0
 62
   179
  6
Continuous
370
    -3
390
F
  0
LAYER
  5
48
330
2
100
AcDbSymbolTableRecord
100
AcDbLayerTableRecord
  2
4
 70
     0
 62
   179
  6
Continuous
370
    -3
390
F
  0
LAYER
  5
49
330
2
100
AcDbSymbolTableRecord
100
AcDbLayerTableRecord
  2
5
 70
     0
 62
   179
  6
Continuous
370
    -3
390
F
  0
LAYER
  5
4A
330
2
100
AcDbSymbolTableRecord
100
AcDbLayerTableRecord
  2
6
 70
     0
 62
   179
  6
Continuous
370
    -3
390
F
  0
LAYER
  5
4B
330
2
100
AcDbSymbolTableRecord
100
AcDbLayerTableRecord
  2
7
 70
     0
 62
   179
  6
Continuous
370
    -3
390
F
  0
LAYER
  5
4C
330
2
100
AcDbSymbolTableRecord
100
AcDbLayerTableRecord
  2
8
 70
     0
 62
   179
  6
Continuous
370
    -3
390
F
  0
LAYER
  5
4D
330
2
100
AcDbSymbolTableRecord
100
AcDbLayerTableRecord
  2
9
 70
     0
 62
   179
  6
Continuous
370
    -3
390
F
  0
LAYER
  5
4E
330
2
100
AcDbSymbolTableRecord
100
AcDbLayerTableRecord
  2
10
 70
     0
 62
   179
  6
Continuous
370
    -3
390
F
  0
LAYER
  5
4F
330
2
100
AcDbSymbolTableRecord
100
AcDbLayerTableRecord
  2
11
 70
     0
 62
   179
  6
Continuous
370
    -3
390
F
  0
LAYER
  5
50
330
2
100
AcDbSymbolTableRecord
100
AcDbLayerTableRecord
  2
12
 70
     0
 62
   179
  6
Continuous
370
    -3
390
F
  0
LAYER
  5
51
330
2
100
AcDbSymbolTableRecord
100
AcDbLayerTableRecord
  2
13
 70
     0
 62
   179
  6
Continuous
370
    -3
390
F
  0
LAYER
  5
52
330
2
100
AcDbSymbolTableRecord
100
AcDbLayerTableRecord
  2
14
 70
     0
 62
   179
  6
Continuous
370
    -3
390
F
  0
LAYER
  5
53
330
2
100
AcDbSymbolTableRecord
100
AcDbLayerTableRecord
  2
15
 70
     0
 62
   179
  6
Continuous
370
    -3
390
F
  0
LAYER
  5
54
330
2
100
AcDbSymbolTableRecord
100
AcDbLayerTableRecord
  2
16
 70
     0
 62
   179
  6
Continuous
370
    -3
390
F
  0
LAYER
  5
55
330
2
100
AcDbSymbolTableRecord
100
AcDbLayerTableRecord
  2
17
 70
     0
 62
   179
  6
Continuous
370
    -3
390
F
  0
LAYER
  5
56
330
2
100
AcDbSymbolTableRecord
100
AcDbLayerTableRecord
  2
18
 70
     0
 62
   179
  6
Continuous
370
    -3
390
F
  0
LAYER
  5
57
330
2
100
AcDbSymbolTableRecord
100
AcDbLayerTableRecord
  2
19
 70
     0
 62
   179
  6
Continuous
370
    -3
390
F
  0
LAYER
  5
58
330
2
100
AcDbSymbolTableRecord
100
AcDbLayerTableRecord
  2
20
 70
     0
 62
   179
  6
Continuous
370
    -3
390
F
  0
LAYER
  5
59
330
2
100
AcDbSymbolTableRecord
100
AcDbLayerTableRecord
  2
21
 70
     0
 62
   179
  6
Continuous
370
    -3
390
F
  0
LAYER
  5
5A
330
2
100
AcDbSymbolTableRecord
100
AcDbLayerTableRecord
  2
22
 70
     0
 62
   179
  6
Continuous
370
    -3
390
F
  0
LAYER
  5
5B
330
2
100
AcDbSymbolTableRecord
100
AcDbLayerTableRecord
  2
23
 70
     0
 62
   179
  6
Continuous
370
    -3
390
F
  0
LAYER
  5
5C
330
2
100
AcDbSymbolTableRecord
100
AcDbLayerTableRecord
  2
24
 70
     0
 62
   179
  6
Continuous
370
    -3
390
F
  0
LAYER
  5
5D
330
2
100
AcDbSymbolTableRecord
100
AcDbLayerTableRecord
  2
25
 70
     0
 62
   179
  6
Continuous
370
    -3
390
F
  0
LAYER
  5
5E
330
2
100
AcDbSymbolTableRecord
100
AcDbLayerTableRecord
  2
26
 70
     0
 62
   179
  6
Continuous
370
    -3
390
F
  0
LAYER
  5
5F
330
2
100
AcDbSymbolTableRecord
100
AcDbLayerTableRecord
  2
27
 70
     0
 62
   179
  6
Continuous
370
    -3
390
F
  0
LAYER
  5
60
330
2
100
AcDbSymbolTableRecord
100
AcDbLayerTableRecord
  2
28
 70
     0
 62
   179
  6
Continuous
370
    -3
390
F
  0
LAYER
  5
61
330
2
100
AcDbSymbolTableRecord
100
AcDbLayerTableRecord
  2
29
 70
     0
 62
   179
  6
Continuous
370
    -3
390
F
  0
LAYER
  5
62
330
2
100
AcDbSymbolTableRecord
100
AcDbLayerTableRecord
  2
30
 70
     0
 62
   179
  6
Continuous
370
    -3
390
F
  0
LAYER
  5
63
330
2
100
AcDbSymbolTableRecord
100
AcDbLayerTableRecord
  2
31
 70
     0
 62
   179
  6
Continuous
370
    -3
390
F
  0
LAYER
  5
64
330
2
100
AcDbSymbolTableRecord
100
AcDbLayerTableRecord
  2
32
 70
     0
 62
   179
  6
Continuous
370
    -3
390
F
  0
LAYER
  5
65
330
2
100
AcDbSymbolTableRecord
100
AcDbLayerTableRecord
  2
33
 70
     0
 62
   179
  6
Continuous
370
    -3
390
F
  0
LAYER
  5
66
330
2
100
AcDbSymbolTableRecord
100
AcDbLayerTableRecord
  2
34
 70
     0
 62
   179
  6
Continuous
370
    -3
390
F
  0
LAYER
  5
67
330
2
100
AcDbSymbolTableRecord
100
AcDbLayerTableRecord
  2
35
 70
     0
 62
   179
  6
Continuous
370
    -3
390
F
  0
LAYER
  5
68
330
2
100
AcDbSymbolTableRecord
100
AcDbLayerTableRecord
  2
36
 70
     0
 62
   179
  6
Continuous
370
    -3
390
F
  0
LAYER
  5
69
330
2
100
AcDbSymbolTableRecord
100
AcDbLayerTableRecord
  2
37
 70
     0
 62
   179
  6
Continuous
370
    -3
390
F
  0
LAYER
  5
6A
330
2
100
AcDbSymbolTableRecord
100
AcDbLayerTableRecord
  2
38
 70
     0
 62
   179
  6
Continuous
370
    -3
390
F
  0
LAYER
  5
6B
330
2
100
AcDbSymbolTableRecord
100
AcDbLayerTableRecord
  2
39
 70
     0
 62
   179
  6
Continuous
370
    -3
390
F
  0
LAYER
  5
6C
330
2
100
AcDbSymbolTableRecord
100
AcDbLayerTableRecord
  2
40
 70
     0
 62
   179
  6
Continuous
370
    -3
390
F
  0
LAYER
  5
6D
330
2
100
AcDbSymbolTableRecord
100
AcDbLayerTableRecord
  2
41
 70
     0
 62
   179
  6
Continuous
370
    -3
390
F
  0
LAYER
  5
6E
330
2
100
AcDbSymbolTableRecord
100
AcDbLayerTableRecord
  2
42
 70
     0
 62
   179
  6
Continuous
370
    -3
390
F
  0
LAYER
  5
6F
330
2
100
AcDbSymbolTableRecord
100
AcDbLayerTableRecord
  2
43
 70
     0
 62
   179
  6
Continuous
370
    -3
390
F
  0
LAYER
  5
70
330
2
100
AcDbSymbolTableRecord
100
AcDbLayerTableRecord
  2
44
 70
     0
 62
   179
  6
Continuous
370
    -3
390
F
  0
LAYER
  5
71
330
2
100
AcDbSymbolTableRecord
100
AcDbLayerTableRecord
  2
45
 70
     0
 62
   179
  6
Continuous
370
    -3
390
F
  0
LAYER
  5
72
330
2
100
AcDbSymbolTableRecord
100
AcDbLayerTableRecord
  2
46
 70
     0
 62
  -179
  6
Continuous
370
    -3
390
F
  0
LAYER
  5
73
330
2
100
AcDbSymbolTableRecord
100
AcDbLayerTableRecord
  2
47
 70
     0
 62
   179
  6
Continuous
370
    -3
390
F
  0
LAYER
  5
74
330
2
100
AcDbSymbolTableRecord
100
AcDbLayerTableRecord
  2
48
 70
     0
 62
   179
  6
Continuous
370
    -3
390
F
  0
LAYER
  5
75
330
2
100
AcDbSymbolTableRecord
100
AcDbLayerTableRecord
  2
49
 70
     0
 62
   179
  6
Continuous
370
    -3
390
F
  0
LAYER
  5
76
330
2
100
AcDbSymbolTableRecord
100
AcDbLayerTableRecord
  2
50
 70
     0
 62
   179
  6
Continuous
370
    -3
390
F
  0
LAYER
  5
77
330
2
100
AcDbSymbolTableRecord
100
AcDbLayerTableRecord
  2
51
 70
     0
 62
   179
  6
Continuous
370
    -3
390
F
  0
LAYER
  5
78
330
2
100
AcDbSymbolTableRecord
100
AcDbLayerTableRecord
  2
52
 70
     0
 62
   179
  6
Continuous
370
    -3
390
F
  0
LAYER
  5
79
330
2
100
AcDbSymbolTableRecord
100
AcDbLayerTableRecord
  2
53
 70
     0
 62
   179
  6
Continuous
370
    -3
390
F
  0
LAYER
  5
7A
330
2
100
AcDbSymbolTableRecord
100
AcDbLayerTableRecord
  2
54
 70
     0
 62
   179
  6
Continuous
370
    -3
390
F
  0
LAYER
  5
7B
330
2
100
AcDbSymbolTableRecord
100
AcDbLayerTableRecord
  2
55
 70
     0
 62
   179
  6
Continuous
370
    -3
390
F
  0
LAYER
  5
7C
330
2
100
AcDbSymbolTableRecord
100
AcDbLayerTableRecord
  2
56
 70
     0
 62
   179
  6
Continuous
370
    -3
390
F
  0
LAYER
  5
7D
330
2
100
AcDbSymbolTableRecord
100
AcDbLayerTableRecord
  2
57
 70
     0
 62
   179
  6
Continuous
370
    -3
390
F
  0
LAYER
  5
7E
330
2
100
AcDbSymbolTableRecord
100
AcDbLayerTableRecord
  2
58
 70
     0
 62
   179
  6
Continuous
370
    -3
390
F
  0
LAYER
  5
7F
330
2
100
AcDbSymbolTableRecord
100
AcDbLayerTableRecord
  2
59
 70
     0
 62
   179
  6
Continuous
370
    -3
390
F
  0
LAYER
  5
80
330
2
100
AcDbSymbolTableRecord
100
AcDbLayerTableRecord
  2
60
 70
     0
 62
   179
  6
Continuous
370
    -3
390
F
  0
LAYER
  5
81
330
2
100
AcDbSymbolTableRecord
100
AcDbLayerTableRecord
  2
61
 70
     0
 62
   179
  6
Continuous
370
    -3
390
F
  0
LAYER
  5
82
330
2
100
AcDbSymbolTableRecord
100
AcDbLayerTableRecord
  2
62
 70
     0
 62
   179
  6
Continuous
370
    -3
390
F
  0
LAYER
  5
83
330
2
100
AcDbSymbolTableRecord
100
AcDbLayerTableRecord
  2
63
 70
     0
 62
   179
  6
Continuous
370
    -3
390
F
  0
LAYER
  5
84
330
2
100
AcDbSymbolTableRecord
100
AcDbLayerTableRecord
  2
64
 70
     0
 62
   179
  6
Continuous
370
    -3
390
F
  0
LAYER
  5
85
330
2
100
AcDbSymbolTableRecord
100
AcDbLayerTableRecord
  2
65
 70
     0
 62
   179
  6
Continuous
370
    -3
390
F
  0
LAYER
  5
86
330
2
100
AcDbSymbolTableRecord
100
AcDbLayerTableRecord
  2
66
 70
     0
 62
   179
  6
Continuous
370
    -3
390
F
  0
LAYER
  5
87
330
2
100
AcDbSymbolTableRecord
100
AcDbLayerTableRecord
  2
67
 70
     0
 62
   179
  6
Continuous
370
    -3
390
F
  0
LAYER
  5
88
330
2
100
AcDbSymbolTableRecord
100
AcDbLayerTableRecord
  2
68
 70
     0
 62
   179
  6
Continuous
370
    -3
390
F
  0
LAYER
  5
89
330
2
100
AcDbSymbolTableRecord
100
AcDbLayerTableRecord
  2
69
 70
     0
 62
   179
  6
Continuous
370
    -3
390
F
  0
LAYER
  5
8A
330
2
100
AcDbSymbolTableRecord
100
AcDbLayerTableRecord
  2
70
 70
     0
 62
   179
  6
Continuous
370
    -3
390
F
  0
LAYER
  5
8B
330
2
100
AcDbSymbolTableRecord
100
AcDbLayerTableRecord
  2
71
 70
     0
 62
   179
  6
Continuous
370
    -3
390
F
  0
LAYER
  5
8C
330
2
100
AcDbSymbolTableRecord
100
AcDbLayerTableRecord
  2
72
 70
     0
 62
   179
  6
Continuous
370
    -3
390
F
  0
LAYER
  5
8D
330
2
100
AcDbSymbolTableRecord
100
AcDbLayerTableRecord
  2
73
 70
     0
 62
   179
  6
Continuous
370
    -3
390
F
  0
LAYER
  5
8E
330
2
100
AcDbSymbolTableRecord
100
AcDbLayerTableRecord
  2
74
 70
     0
 62
   179
  6
Continuous
370
    -3
390
F
  0
LAYER
  5
8F
330
2
100
AcDbSymbolTableRecord
100
AcDbLayerTableRecord
  2
75
 70
     0
 62
   179
  6
Continuous
370
    -3
390
F
  0
LAYER
  5
90
330
2
100
AcDbSymbolTableRecord
100
AcDbLayerTableRecord
  2
76
 70
     0
 62
   179
  6
Continuous
370
    -3
390
F
  0
LAYER
  5
91
330
2
100
AcDbSymbolTableRecord
100
AcDbLayerTableRecord
  2
77
 70
     0
 62
   179
  6
Continuous
370
    -3
390
F
  0
LAYER
  5
92
330
2
100
AcDbSymbolTableRecord
100
AcDbLayerTableRecord
  2
78
 70
     0
 62
   179
  6
Continuous
370
    -3
390
F
  0
LAYER
  5
93
330
2
100
AcDbSymbolTableRecord
100
AcDbLayerTableRecord
  2
79
 70
     0
 62
   179
  6
Continuous
370
    -3
390
F
  0
LAYER
  5
94
330
2
100
AcDbSymbolTableRecord
100
AcDbLayerTableRecord
  2
80
 70
     0
 62
   179
  6
Continuous
370
    -3
390
F
  0
LAYER
  5
95
330
2
100
AcDbSymbolTableRecord
100
AcDbLayerTableRecord
  2
81
 70
     0
 62
   179
  6
Continuous
370
    -3
390
F
  0
LAYER
  5
96
330
2
100
AcDbSymbolTableRecord
100
AcDbLayerTableRecord
  2
82
 70
     0
 62
   179
  6
Continuous
370
    -3
390
F
  0
LAYER
  5
97
330
2
100
AcDbSymbolTableRecord
100
AcDbLayerTableRecord
  2
83
 70
     0
 62
   179
  6
Continuous
370
    -3
390
F
  0
LAYER
  5
98
330
2
100
AcDbSymbolTableRecord
100
AcDbLayerTableRecord
  2
84
 70
     0
 62
   179
  6
Continuous
370
    -3
390
F
  0
LAYER
  5
99
330
2
100
AcDbSymbolTableRecord
100
AcDbLayerTableRecord
  2
85
 70
     0
 62
   179
  6
Continuous
370
    -3
390
F
  0
LAYER
  5
9A
330
2
100
AcDbSymbolTableRecord
100
AcDbLayerTableRecord
  2
86
 70
     0
 62
   179
  6
Continuous
370
    -3
390
F
  0
LAYER
  5
9B
330
2
100
AcDbSymbolTableRecord
100
AcDbLayerTableRecord
  2
87
 70
     0
 62
   179
  6
Continuous
370
    -3
390
F
  0
LAYER
  5
9C
330
2
100
AcDbSymbolTableRecord
100
AcDbLayerTableRecord
  2
88
 70
     0
 62
   179
  6
Continuous
370
    -3
390
F
  0
LAYER
  5
9D
330
2
100
AcDbSymbolTableRecord
100
AcDbLayerTableRecord
  2
89
 70
     0
 62
   179
  6
Continuous
370
    -3
390
F
  0
LAYER
  5
9E
330
2
100
AcDbSymbolTableRecord
100
AcDbLayerTableRecord
  2
90
 70
     0
 62
   179
  6
Continuous
370
    -3
390
F
  0
LAYER
  5
9F
330
2
100
AcDbSymbolTableRecord
100
AcDbLayerTableRecord
  2
91
 70
     0
 62
   179
  6
Continuous
370
    -3
390
F
  0
LAYER
  5
A0
330
2
100
AcDbSymbolTableRecord
100
AcDbLayerTableRecord
  2
92
 70
     0
 62
   179
  6
Continuous
370
    -3
390
F
  0
LAYER
  5
A1
330
2
100
AcDbSymbolTableRecord
100
AcDbLayerTableRecord
  2
93
 70
     0
 62
   179
  6
Continuous
370
    -3
390
F
  0
LAYER
  5
A2
330
2
100
AcDbSymbolTableRecord
100
AcDbLayerTableRecord
  2
94
 70
     0
 62
   179
  6
Continuous
370
    -3
390
F
  0
LAYER
  5
A3
330
2
100
AcDbSymbolTableRecord
100
AcDbLayerTableRecord
  2
95
 70
     0
 62
   179
  6
Continuous
370
    -3
390
F
  0
LAYER
  5
A4
330
2
100
AcDbSymbolTableRecord
100
AcDbLayerTableRecord
  2
96
 70
     0
 62
   179
  6
Continuous
370
    -3
390
F
  0
LAYER
  5
A5
330
2
100
AcDbSymbolTableRecord
100
AcDbLayerTableRecord
  2
97
 70
     0
 62
   179
  6
Continuous
370
    -3
390
F
  0
LAYER
  5
A6
330
2
100
AcDbSymbolTableRecord
100
AcDbLayerTableRecord
  2
98
 70
     0
 62
   179
  6
Continuous
370
    -3
390
F
  0
LAYER
  5
A7
330
2
100
AcDbSymbolTableRecord
100
AcDbLayerTableRecord
  2
99
 70
     0
 62
   179
  6
Continuous
370
    -3
390
F
  0
LAYER
  5
A8
330
2
100
AcDbSymbolTableRecord
100
AcDbLayerTableRecord
  2
100
 70
     0
 62
   179
  6
Continuous
370
    -3
390
F
  0
LAYER
  5
A9
330
2
100
AcDbSymbolTableRecord
100
AcDbLayerTableRecord
  2
101
 70
     0
 62
   179
  6
Continuous
370
    -3
390
F
  0
LAYER
  5
AA
330
2
100
AcDbSymbolTableRecord
100
AcDbLayerTableRecord
  2
102
 70
     0
 62
   179
  6
Continuous
370
    -3
390
F
  0
LAYER
  5
AB
330
2
100
AcDbSymbolTableRecord
100
AcDbLayerTableRecord
  2
103
 70
     0
 62
   179
  6
Continuous
370
    -3
390
F
  0
LAYER
  5
AC
330
2
100
AcDbSymbolTableRecord
100
AcDbLayerTableRecord
  2
104
 70
     0
 62
   179
  6
Continuous
370
    -3
390
F
  0
LAYER
  5
AD
330
2
100
AcDbSymbolTableRecord
100
AcDbLayerTableRecord
  2
105
 70
     0
 62
   179
  6
Continuous
370
    -3
390
F
  0
LAYER
  5
AE
330
2
100
AcDbSymbolTableRecord
100
AcDbLayerTableRecord
  2
106
 70
     0
 62
   179
  6
Continuous
370
    -3
390
F
  0
LAYER
  5
AF
330
2
100
AcDbSymbolTableRecord
100
AcDbLayerTableRecord
  2
107
 70
     0
 62
   179
  6
Continuous
370
    -3
390
F
  0
LAYER
  5
B0
330
2
100
AcDbSymbolTableRecord
100
AcDbLayerTableRecord
  2
108
 70
     0
 62
   179
  6
Continuous
370
    -3
390
F
  0
LAYER
  5
B1
330
2
100
AcDbSymbolTableRecord
100
AcDbLayerTableRecord
  2
109
 70
     0
 62
   179
  6
Continuous
370
    -3
390
F
  0
LAYER
  5
B2
330
2
100
AcDbSymbolTableRecord
100
AcDbLayerTableRecord
  2
110
 70
     0
 62
   179
  6
Continuous
370
    -3
390
F
  0
LAYER
  5
B3
330
2
100
AcDbSymbolTableRecord
100
AcDbLayerTableRecord
  2
111
 70
     0
 62
   179
  6
Continuous
370
    -3
390
F
  0
LAYER
  5
B4
330
2
100
AcDbSymbolTableRecord
100
AcDbLayerTableRecord
  2
112
 70
     0
 62
   179
  6
Continuous
370
    -3
390
F
  0
LAYER
  5
B5
330
2
100
AcDbSymbolTableRecord
100
AcDbLayerTableRecord
  2
113
 70
     0
 62
   179
  6
Continuous
370
    -3
390
F
  0
LAYER
  5
B6
330
2
100
AcDbSymbolTableRecord
100
AcDbLayerTableRecord
  2
114
 70
     0
 62
   179
  6
Continuous
370
    -3
390
F
  0
LAYER
  5
B7
330
2
100
AcDbSymbolTableRecord
100
AcDbLayerTableRecord
  2
115
 70
     0
 62
   179
  6
Continuous
370
    -3
390
F
  0
LAYER
  5
B8
330
2
100
AcDbSymbolTableRecord
100
AcDbLayerTableRecord
  2
116
 70
     0
 62
   179
  6
Continuous
370
    -3
390
F
  0
LAYER
  5
B9
330
2
100
AcDbSymbolTableRecord
100
AcDbLayerTableRecord
  2
117
 70
     0
 62
   179
  6
Continuous
370
    -3
390
F
  0
LAYER
  5
BA
330
2
100
AcDbSymbolTableRecord
100
AcDbLayerTableRecord
  2
118
 70
     0
 62
   179
  6
Continuous
370
    -3
390
F
  0
LAYER
  5
BB
330
2
100
AcDbSymbolTableRecord
100
AcDbLayerTableRecord
  2
119
 70
     0
 62
   179
  6
Continuous
370
    -3
390
F
  0
LAYER
  5
BC
330
2
100
AcDbSymbolTableRecord
100
AcDbLayerTableRecord
  2
120
 70
     0
 62
   179
  6
Continuous
370
    -3
390
F
  0
LAYER
  5
BD
330
2
100
AcDbSymbolTableRecord
100
AcDbLayerTableRecord
  2
121
 70
     0
 62
   179
  6
Continuous
370
    -3
390
F
  0
LAYER
  5
BE
330
2
100
AcDbSymbolTableRecord
100
AcDbLayerTableRecord
  2
122
 70
     0
 62
   179
  6
Continuous
370
    -3
390
F
  0
LAYER
  5
BF
330
2
100
AcDbSymbolTableRecord
100
AcDbLayerTableRecord
  2
123
 70
     0
 62
   179
  6
Continuous
370
    -3
390
F
  0
LAYER
  5
C0
330
2
100
AcDbSymbolTableRecord
100
AcDbLayerTableRecord
  2
124
 70
     0
 62
   179
  6
Continuous
370
    -3
390
F
  0
LAYER
  5
C1
330
2
100
AcDbSymbolTableRecord
100
AcDbLayerTableRecord
  2
125
 70
     0
 62
   179
  6
Continuous
370
    -3
390
F
  0
LAYER
  5
C2
330
2
100
AcDbSymbolTableRecord
100
AcDbLayerTableRecord
  2
126
 70
     0
 62
   179
  6
Continuous
370
    -3
390
F
  0
LAYER
  5
C3
330
2
100
AcDbSymbolTableRecord
100
AcDbLayerTableRecord
  2
127
 70
     0
 62
   179
  6
Continuous
370
    -3
390
F
  0
LAYER
  5
C4
330
2
100
AcDbSymbolTableRecord
100
AcDbLayerTableRecord
  2
128
 70
     0
 62
   179
  6
Continuous
370
    -3
390
F
  0
LAYER
  5
C5
330
2
100
AcDbSymbolTableRecord
100
AcDbLayerTableRecord
  2
129
 70
     0
 62
   179
  6
Continuous
370
    -3
390
F
  0
LAYER
  5
C6
330
2
100
AcDbSymbolTableRecord
100
AcDbLayerTableRecord
  2
130
 70
     0
 62
   179
  6
Continuous
370
    -3
390
F
  0
LAYER
  5
C7
330
2
100
AcDbSymbolTableRecord
100
AcDbLayerTableRecord
  2
131
 70
     0
 62
   179
  6
Continuous
370
    -3
390
F
  0
LAYER
  5
C8
330
2
100
AcDbSymbolTableRecord
100
AcDbLayerTableRecord
  2
132
 70
     0
 62
   179
  6
Continuous
370
    -3
390
F
  0
LAYER
  5
C9
330
2
100
AcDbSymbolTableRecord
100
AcDbLayerTableRecord
  2
133
 70
     0
 62
   179
  6
Continuous
370
    -3
390
F
  0
LAYER
  5
CA
330
2
100
AcDbSymbolTableRecord
100
AcDbLayerTableRecord
  2
134
 70
     0
 62
   179
  6
Continuous
370
    -3
390
F
  0
LAYER
  5
CB
330
2
100
AcDbSymbolTableRecord
100
AcDbLayerTableRecord
  2
135
 70
     0
 62
   179
  6
Continuous
370
    -3
390
F
  0
LAYER
  5
CC
330
2
100
AcDbSymbolTableRecord
100
AcDbLayerTableRecord
  2
136
 70
     0
 62
   179
  6
Continuous
370
    -3
390
F
  0
LAYER
  5
CD
330
2
100
AcDbSymbolTableRecord
100
AcDbLayerTableRecord
  2
137
 70
     0
 62
   179
  6
Continuous
370
    -3
390
F
  0
LAYER
  5
CE
330
2
100
AcDbSymbolTableRecord
100
AcDbLayerTableRecord
  2
138
 70
     0
 62
   179
  6
Continuous
370
    -3
390
F
  0
LAYER
  5
CF
330
2
100
AcDbSymbolTableRecord
100
AcDbLayerTableRecord
  2
139
 70
     0
 62
   179
  6
Continuous
370
    -3
390
F
  0
LAYER
  5
D0
330
2
100
AcDbSymbolTableRecord
100
AcDbLayerTableRecord
  2
140
 70
     0
 62
   179
  6
Continuous
370
    -3
390
F
  0
LAYER
  5
D1
330
2
100
AcDbSymbolTableRecord
100
AcDbLayerTableRecord
  2
141
 70
     0
 62
   179
  6
Continuous
370
    -3
390
F
  0
LAYER
  5
D2
330
2
100
AcDbSymbolTableRecord
100
AcDbLayerTableRecord
  2
142
 70
     0
 62
   179
  6
Continuous
370
    -3
390
F
  0
LAYER
  5
D3
330
2
100
AcDbSymbolTableRecord
100
AcDbLayerTableRecord
  2
143
 70
     0
 62
   179
  6
Continuous
370
    -3
390
F
  0
LAYER
  5
D4
330
2
100
AcDbSymbolTableRecord
100
AcDbLayerTableRecord
  2
144
 70
     0
 62
   179
  6
Continuous
370
    -3
390
F
  0
LAYER
  5
D5
330
2
100
AcDbSymbolTableRecord
100
AcDbLayerTableRecord
  2
145
 70
     0
 62
   179
  6
Continuous
370
    -3
390
F
  0
LAYER
  5
D6
330
2
100
AcDbSymbolTableRecord
100
AcDbLayerTableRecord
  2
146
 70
     0
 62
   179
  6
Continuous
370
    -3
390
F
  0
LAYER
  5
D7
330
2
100
AcDbSymbolTableRecord
100
AcDbLayerTableRecord
  2
147
 70
     0
 62
   179
  6
Continuous
370
    -3
390
F
  0
LAYER
  5
D8
330
2
100
AcDbSymbolTableRecord
100
AcDbLayerTableRecord
  2
148
 70
     0
 62
   179
  6
Continuous
370
    -3
390
F
  0
LAYER
  5
D9
330
2
100
AcDbSymbolTableRecord
100
AcDbLayerTableRecord
  2
149
 70
     0
 62
   179
  6
Continuous
370
    -3
390
F
  0
LAYER
  5
DA
330
2
100
AcDbSymbolTableRecord
100
AcDbLayerTableRecord
  2
150
 70
     0
 62
   179
  6
Continuous
370
    -3
390
F
  0
LAYER
  5
DB
330
2
100
AcDbSymbolTableRecord
100
AcDbLayerTableRecord
  2
151
 70
     0
 62
   179
  6
Continuous
370
    -3
390
F
  0
LAYER
  5
DC
330
2
100
AcDbSymbolTableRecord
100
AcDbLayerTableRecord
  2
152
 70
     0
 62
   179
  6
Continuous
370
    -3
390
F
  0
LAYER
  5
DD
330
2
100
AcDbSymbolTableRecord
100
AcDbLayerTableRecord
  2
153
 70
     0
 62
   179
  6
Continuous
370
    -3
390
F
  0
LAYER
  5
DE
330
2
100
AcDbSymbolTableRecord
100
AcDbLayerTableRecord
  2
154
 70
     0
 62
   179
  6
Continuous
370
    -3
390
F
  0
LAYER
  5
DF
330
2
100
AcDbSymbolTableRecord
100
AcDbLayerTableRecord
  2
155
 70
     0
 62
   179
  6
Continuous
370
    -3
390
F
  0
LAYER
  5
E0
330
2
100
AcDbSymbolTableRecord
100
AcDbLayerTableRecord
  2
156
 70
     0
 62
   179
  6
Continuous
370
    -3
390
F
  0
LAYER
  5
E1
330
2
100
AcDbSymbolTableRecord
100
AcDbLayerTableRecord
  2
157
 70
     0
 62
   179
  6
Continuous
370
    -3
390
F
  0
LAYER
  5
E2
330
2
100
AcDbSymbolTableRecord
100
AcDbLayerTableRecord
  2
158
 70
     0
 62
   179
  6
Continuous
370
    -3
390
F
  0
LAYER
  5
E3
330
2
100
AcDbSymbolTableRecord
100
AcDbLayerTableRecord
  2
159
 70
     0
 62
   179
  6
Continuous
370
    -3
390
F
  0
LAYER
  5
E4
330
2
100
AcDbSymbolTableRecord
100
AcDbLayerTableRecord
  2
160
 70
     0
 62
   179
  6
Continuous
370
    -3
390
F
  0
LAYER
  5
E5
330
2
100
AcDbSymbolTableRecord
100
AcDbLayerTableRecord
  2
161
 70
     0
 62
   179
  6
Continuous
370
    -3
390
F
  0
LAYER
  5
E6
330
2
100
AcDbSymbolTableRecord
100
AcDbLayerTableRecord
  2
162
 70
     0
 62
   179
  6
Continuous
370
    -3
390
F
  0
LAYER
  5
E7
330
2
100
AcDbSymbolTableRecord
100
AcDbLayerTableRecord
  2
163
 70
     0
 62
   179
  6
Continuous
370
    -3
390
F
  0
LAYER
  5
E8
330
2
100
AcDbSymbolTableRecord
100
AcDbLayerTableRecord
  2
164
 70
     0
 62
   179
  6
Continuous
370
    -3
390
F
  0
LAYER
  5
E9
330
2
100
AcDbSymbolTableRecord
100
AcDbLayerTableRecord
  2
165
 70
     0
 62
   179
  6
Continuous
370
    -3
390
F
  0
LAYER
  5
EA
330
2
100
AcDbSymbolTableRecord
100
AcDbLayerTableRecord
  2
166
 70
     0
 62
   179
  6
Continuous
370
    -3
390
F
  0
LAYER
  5
EB
330
2
100
AcDbSymbolTableRecord
100
AcDbLayerTableRecord
  2
167
 70
     0
 62
   179
  6
Continuous
370
    -3
390
F
  0
LAYER
  5
EC
330
2
100
AcDbSymbolTableRecord
100
AcDbLayerTableRecord
  2
168
 70
     0
 62
   179
  6
Continuous
370
    -3
390
F
  0
LAYER
  5
ED
330
2
100
AcDbSymbolTableRecord
100
AcDbLayerTableRecord
  2
169
 70
     0
 62
   179
  6
Continuous
370
    -3
390
F
  0
LAYER
  5
EE
330
2
100
AcDbSymbolTableRecord
100
AcDbLayerTableRecord
  2
170
 70
     0
 62
   179
  6
Continuous
370
    -3
390
F
  0
LAYER
  5
EF
330
2
100
AcDbSymbolTableRecord
100
AcDbLayerTableRecord
  2
171
 70
     0
 62
   179
  6
Continuous
370
    -3
390
F
  0
LAYER
  5
F0
330
2
100
AcDbSymbolTableRecord
100
AcDbLayerTableRecord
  2
172
 70
     0
 62
   179
  6
Continuous
370
    -3
390
F
  0
LAYER
  5
F1
330
2
100
AcDbSymbolTableRecord
100
AcDbLayerTableRecord
  2
173
 70
     0
 62
   179
  6
Continuous
370
    -3
390
F
  0
LAYER
  5
F2
330
2
100
AcDbSymbolTableRecord
100
AcDbLayerTableRecord
  2
174
 70
     0
 62
   179
  6
Continuous
370
    -3
390
F
  0
LAYER
  5
F3
330
2
100
AcDbSymbolTableRecord
100
AcDbLayerTableRecord
  2
175
 70
     0
 62
   179
  6
Continuous
370
    -3
390
F
  0
LAYER
  5
F4
330
2
100
AcDbSymbolTableRecord
100
AcDbLayerTableRecord
  2
176
 70
     0
 62
   179
  6
Continuous
370
    -3
390
F
  0
LAYER
  5
F5
330
2
100
AcDbSymbolTableRecord
100
AcDbLayerTableRecord
  2
177
 70
     0
 62
   179
  6
Continuous
370
    -3
390
F
  0
LAYER
  5
F6
330
2
100
AcDbSymbolTableRecord
100
AcDbLayerTableRecord
  2
178
 70
     0
 62
   179
  6
Continuous
370
    -3
390
F
  0
LAYER
  5
F7
330
2
100
AcDbSymbolTableRecord
100
AcDbLayerTableRecord
  2
179
 70
     0
 62
   179
  6
Continuous
370
    -3
390
F
  0
LAYER
  5
F8
330
2
100
AcDbSymbolTableRecord
100
AcDbLayerTableRecord
  2
180
 70
     0
 62
   179
  6
Continuous
370
    -3
390
F
  0
LAYER
  5
F9
330
2
100
AcDbSymbolTableRecord
100
AcDbLayerTableRecord
  2
DRAFTING_HIDDEN_ENTITIES
 70
     0
 62
   179
  6
Continuous
370
    -3
390
F
  0
ENDTAB
  0
TABLE
  2
STYLE
  5
3
330
0
100
AcDbSymbolTable
 70
     2
  0
STYLE
  5
11
330
3
100
AcDbSymbolTableRecord
100
AcDbTextStyleTableRecord
  2
Standard
 70
     0
 40
0.0
 41
1.0
 50
0.0
 71
     0
 42
0.4814814815
  3
txt
  4

  0
STYLE
  5
115
330
3
100
AcDbSymbolTableRecord
100
AcDbTextStyleTableRecord
  2
SLDTEXTSTYLE0
 70
     0
 40
0.0
 41
0.75
 50
0.0
 71
     0
 42
0.2
  3
TXT
  4

  0
ENDTAB
  0
TABLE
  2
VIEW
  5
6
330
0
100
AcDbSymbolTable
 70
     0
  0
ENDTAB
  0
TABLE
  2
UCS
  5
7
330
0
100
AcDbSymbolTable
 70
     0
  0
ENDTAB
  0
TABLE
  2
APPID
  5
9
330
0
100
AcDbSymbolTable
 70
     1
  0
APPID
  5
12
330
9
100
AcDbSymbolTableRecord
100
AcDbRegAppTableRecord
  2
ACAD
 70
     0
  0
ENDTAB
  0
TABLE
  2
DIMSTYLE
  5
A
330
0
100
AcDbSymbolTable
 70
     5
100
AcDbDimStyleTable
  0
DIMSTYLE
105
27
330
A
100
AcDbSymbolTableRecord
100
AcDbDimStyleTableRecord
  2
Standard
 70
     0
178
     0
340
11
  0
DIMSTYLE
105
116
102
{ACAD_REACTORS
330
114
330
12C
330
162
330
1BC
330
1CC
330
1E0
102
}
330
A
100
AcDbSymbolTableRecord
100
AcDbDimStyleTableRecord
  2
SLDDIMSTYLE0
 70
     0
 41
0.375
 44
0.0
 45
0.000000001
 78
    12
 79
     3
140
0.375
147
0.09375
148
0.000000001
170
     1
173
     1
178
     0
271
     2
272
     2
276
     2
277
     5
284
    12
340
115
  0
DIMSTYLE
105
13F
102
{ACAD_REACTORS
330
13E
330
19A
102
}
330
A
100
AcDbSymbolTableRecord
100
AcDbDimStyleTableRecord
  2
SLDDIMSTYLE1
 70
     0
 41
0.375
 44
0.0
 45
0.000000001
 78
    12
 79
     3
140
0.375
141
0.0
147
0.09375
148
0.000000001
170
     1
173
     1
178
     0
271
     2
272
     2
276
     2
277
     5
284
    12
340
115
  0
DIMSTYLE
105
153
102
{ACAD_REACTORS
330
152
330
178
330
18C
330
1AD
102
}
330
A
100
AcDbSymbolTableRecord
100
AcDbDimStyleTableRecord
  2
SLDDIMSTYLE2
 70
     0
 41
0.375
 44
0.0
 45
0.000000001
 78
    12
 79
     3
140
0.375
141
0.0
147
0.09375
148
0.000000001
170
     1
173
     1
178
     0
271
     2
272
     2
276
     2
277
     5
284
    12
340
115
  0
DIMSTYLE
105
1FB
330
A
100
AcDbSymbolTableRecord
100
AcDbDimStyleTableRecord
  2
SLDDIMSTYLE3
 70
     0
 41
0.375
 44
0.0
 45
0.000000001
140
0.0
146
0.375
147
0.0
173
     1
178
     0
271
     0
272
     0
276
     2
277
     5
340
11
  0
ENDTAB
  0
TABLE
  2
BLOCK_RECORD
  5
1
330
0
100
AcDbSymbolTable
 70
    15
  0
BLOCK_RECORD
  5
1F
330
1
100
AcDbSymbolTableRecord
100
AcDbBlockTableRecord
  2
*Model_Space
340
22
  0
BLOCK_RECORD
  5
1B
330
1
100
AcDbSymbolTableRecord
100
AcDbBlockTableRecord
  2
*Paper_Space
340
1E
  0
BLOCK_RECORD
  5
23
330
1
100
AcDbSymbolTableRecord
100
AcDbBlockTableRecord
  2
*Paper_Space0
340
26
  0
BLOCK_RECORD
  5
117
330
1
100
AcDbSymbolTableRecord
100
AcDbBlockTableRecord
  2
_D
340
0
  0
BLOCK_RECORD
  5
12D
330
1
100
AcDbSymbolTableRecord
100
AcDbBlockTableRecord
  2
_D_1
340
0
  0
BLOCK_RECORD
  5
140
330
1
100
AcDbSymbolTableRecord
100
AcDbBlockTableRecord
  2
_D_2
340
0
  0
BLOCK_RECORD
  5
154
330
1
100
AcDbSymbolTableRecord
100
AcDbBlockTableRecord
  2
_D_3
340
0
  0
BLOCK_RECORD
  5
163
330
1
100
AcDbSymbolTableRecord
100
AcDbBlockTableRecord
  2
_D_4
340
0
  0
BLOCK_RECORD
  5
179
330
1
100
AcDbSymbolTableRecord
100
AcDbBlockTableRecord
  2
_D_5
340
0
  0
BLOCK_RECORD
  5
18D
330
1
100
AcDbSymbolTableRecord
100
AcDbBlockTableRecord
  2
_D_6
340
0
  0
BLOCK_RECORD
  5
19B
330
1
100
AcDbSymbolTableRecord
100
AcDbBlockTableRecord
  2
_D_7
340
0
  0
BLOCK_RECORD
  5
1AE
330
1
100
AcDbSymbolTableRecord
100
AcDbBlockTableRecord
  2
_D_8
340
0
  0
BLOCK_RECORD
  5
1BD
330
1
100
AcDbSymbolTableRecord
100
AcDbBlockTableRecord
  2
_D_9
340
0
  0
BLOCK_RECORD
  5
1CD
330
1
100
AcDbSymbolTableRecord
100
AcDbBlockTableRecord
  2
_D_10
340
0
  0
BLOCK_RECORD
  5
1E1
330
1
100
AcDbSymbolTableRecord
100
AcDbBlockTableRecord
  2
_D_11
340
0
  0
BLOCK_RECORD
  5
1F5
330
1
100
AcDbSymbolTableRecord
100
AcDbBlockTableRecord
  2
SW_NOTE_0
340
0
102
{BLKREFS
331
1FA
102
}
  0
BLOCK_RECORD
  5
1FD
330
1
100
AcDbSymbolTableRecord
100
AcDbBlockTableRecord
  2
SW_NOTE_1
340
0
102
{BLKREFS
331
202
102
}
  0
ENDTAB
  0
ENDSEC
  0
SECTION
  2
BLOCKS
  0
BLOCK
  5
20
330
1F
100
AcDbEntity
  8
0
100
AcDbBlockBegin
  2
*Model_Space
 70
     0
 10
0.0
 20
0.0
 30
0.0
  3
*Model_Space
  1

  0
ENDBLK
  5
21
330
1F
100
AcDbEntity
  8
0
100
AcDbBlockEnd
  0
BLOCK
  5
1C
330
1B
100
AcDbEntity
 67
     1
  8
0
100
AcDbBlockBegin
  2
*Paper_Space
 70
     0
 10
0.0
 20
0.0
 30
0.0
  3
*Paper_Space
  1

  0
ENDBLK
  5
1D
330
1B
100
AcDbEntity
 67
     1
  8
0
100
AcDbBlockEnd
  0
BLOCK
  5
24
330
23
100
AcDbEntity
  8
0
100
AcDbBlockBegin
  2
*Paper_Space0
 70
     0
 10
0.0
 20
0.0
 30
0.0
  3
*Paper_Space0
  1

  0
ENDBLK
  5
25
330
23
100
AcDbEntity
  8
0
100
AcDbBlockEnd
  0
BLOCK
  5
118
330
117
100
AcDbEntity
  8
0
100
AcDbBlockBegin
  2
_D
 70
     0
 10
0.0
 20
0.0
 30
0.0
  3
_D
  1

  0
SOLID
  5
11A
330
117
100
AcDbEntity
  8
1
100
AcDbTrace
 10
1.4855027541
 20
20.970569798
 30
0.0
 11
1.4278104464
 21
20.595569798
 31
0.0
 12
1.5431950618
 22
20.595569798
 32
0.0
 13
1.5431950618
 23
20.595569798
 33
0.0
  0
SOLID
  5
11B
330
117
100
AcDbEntity
  8
1
100
AcDbTrace
 10
1.4855027541
 20
4.2217407639
 30
0.0
 11
1.5431950618
 21
4.5967407639
 31
0.0
 12
1.4278104464
 22
4.5967407639
 32
0.0
 13
1.4278104464
 23
4.5967407639
 33
0.0
  0
LINE
  5
11C
330
117
100
AcDbEntity
  8
1
100
AcDbLine
 10
1.3393222161
 20
12.4506960064
 30
0.0
 11
1.7268222197
 21
12.4506960064
 31
0.0
  0
LINE
  5
11D
330
117
100
AcDbEntity
  8
1
100
AcDbLine
 10
0.6286451897
 20
11.8304876618
 30
0.0
 11
0.5526035219
 21
11.8304876618
 31
0.0
  0
LINE
  5
11E
330
117
100
AcDbEntity
  8
1
100
AcDbLine
 10
0.5526035219
 20
11.8304876618
 30
0.0
 11
0.5526035219
 21
11.2346543182
 31
0.0
  0
LINE
  5
11F
330
117
100
AcDbEntity
  8
1
100
AcDbLine
 10
0.5526035219
 20
11.2346543182
 30
0.0
 11
0.6286451897
 21
11.2346543182
 31
0.0
  0
LINE
  5
120
330
117
100
AcDbEntity
  8
1
100
AcDbLine
 10
2.3423603919
 20
11.8304876618
 30
0.0
 11
2.4184020597
 21
11.8304876618
 31
0.0
  0
LINE
  5
121
330
117
100
AcDbEntity
  8
1
100
AcDbLine
 10
2.4184020597
 20
11.8304876618
 30
0.0
 11
2.4184020597
 21
11.2346543182
 31
0.0
  0
LINE
  5
122
330
117
100
AcDbEntity
  8
1
100
AcDbLine
 10
2.4184020597
 20
11.2346543182
 30
0.0
 11
2.3423603919
 21
11.2346543182
 31
0.0
  0
LINE
  5
123
330
117
100
AcDbEntity
  8
1
100
AcDbLine
 10
8.2262511388
 20
20.970569798
 30
0.0
 11
1.3605027541
 21
20.970569798
 31
0.0
  0
LINE
  5
124
330
117
100
AcDbEntity
  8
1
100
AcDbLine
 10
8.2262511388
 20
4.2217407639
 30
0.0
 11
1.3605027541
 21
4.2217407639
 31
0.0
  0
LINE
  5
125
330
117
100
AcDbEntity
  8
1
100
AcDbLine
 10
1.4855027541
 20
20.970569798
 30
0.0
 11
1.4855027541
 21
12.9175710037
 31
0.0
  0
LINE
  5
126
330
117
100
AcDbEntity
  8
1
100
AcDbLine
 10
1.4855027541
 20
4.2217407639
 30
0.0
 11
1.4855027541
 21
11.15861271
 31
0.0
  0
MTEXT
  5
127
330
117
100
AcDbEntity
  8
1
100
AcDbMText
 10
0.7299472224
 20
12.6580561766
 30
0.0039370079
 40
0.375
 41
0.0
 71
     1
 72
     1
  1
16
  7
SLDTEXTSTYLE0
 73
     1
 44
1.0
  0
MTEXT
  5
128
330
117
100
AcDbEntity
  8
1
100
AcDbMText
 10
1.3945305509
 20
12.9009713938
 30
0.0039370079
 40
0.375
 41
0.0
 71
     1
 72
     1
  1
1
  7
SLDTEXTSTYLE0
 73
     1
 44
1.0
  0
MTEXT
  5
129
330
117
100
AcDbEntity
  8
1
100
AcDbMText
 10
1.3945305509
 20
12.3899297343
 30
0.0039370079
 40
0.375
 41
0.0
 71
     1
 72
     1
  1
2
  7
SLDTEXTSTYLE0
 73
     1
 44
1.0
  0
MTEXT
  5
12A
330
117
100
AcDbEntity
  8
1
100
AcDbMText
 10
1.7820305086
 20
12.6580561766
 30
0.0039370079
 40
0.375
 41
0.0
 71
     1
 72
     1
  1
"
  7
SLDTEXTSTYLE0
 73
     1
 44
1.0
  0
MTEXT
  5
12B
330
117
100
AcDbEntity
  8
1
100
AcDbMText
 10
0.7236972779
 20
11.718054739
 30
0.0039370079
 40
0.375
 41
0.0
 71
     1
 72
     1
  1
425.42
  7
SLDTEXTSTYLE0
 73
     1
 44
1.0
  0
ENDBLK
  5
119
330
117
100
AcDbEntity
  8
0
100
AcDbBlockEnd
  0
BLOCK
  5
12E
330
12D
100
AcDbEntity
  8
0
100
AcDbBlockBegin
  2
_D_1
 70
     0
 10
0.0
 20
0.0
 30
0.0
  3
_D_1
  1

  0
SOLID
  5
130
330
12D
100
AcDbEntity
  8
1
100
AcDbTrace
 10
37.1629268922
 20
23.2217407651
 30
0.0
 11
37.1052345845
 21
22.8467407651
 31
0.0
 12
37.2206191999
 22
22.8467407651
 32
0.0
 13
37.2206191999
 23
22.8467407651
 33
0.0
  0
SOLID
  5
131
330
12D
100
AcDbEntity
  8
1
100
AcDbTrace
 10
37.1629268922
 20
4.2217407639
 30
0.0
 11
37.2206191999
 21
4.5967407639
 31
0.0
 12
37.1052345845
 22
4.5967407639
 32
0.0
 13
37.1052345845
 23
4.5967407639
 33
0.0
  0
LINE
  5
132
330
12D
100
AcDbEntity
  8
1
100
AcDbLine
 10
36.3060693278
 20
13.5228935252
 30
0.0
 11
36.23002766
 21
13.5228935252
 31
0.0
  0
LINE
  5
133
330
12D
100
AcDbEntity
  8
1
100
AcDbLine
 10
36.23002766
 20
13.5228935252
 30
0.0
 11
36.23002766
 21
12.9270601817
 31
0.0
  0
LINE
  5
134
330
12D
100
AcDbEntity
  8
1
100
AcDbLine
 10
36.23002766
 20
12.9270601817
 30
0.0
 11
36.3060693278
 21
12.9270601817
 31
0.0
  0
LINE
  5
135
330
12D
100
AcDbEntity
  8
1
100
AcDbLine
 10
38.01978453
 20
13.5228935252
 30
0.0
 11
38.0958261978
 21
13.5228935252
 31
0.0
  0
LINE
  5
136
330
12D
100
AcDbEntity
  8
1
100
AcDbLine
 10
38.0958261978
 20
13.5228935252
 30
0.0
 11
38.0958261978
 21
12.9270601817
 31
0.0
  0
LINE
  5
137
330
12D
100
AcDbEntity
  8
1
100
AcDbLine
 10
38.0958261978
 20
12.9270601817
 30
0.0
 11
38.01978453
 21
12.9270601817
 31
0.0
  0
LINE
  5
138
330
12D
100
AcDbEntity
  8
1
100
AcDbLine
 10
31.0754698897
 20
23.2217407651
 30
0.0
 11
37.2879268922
 21
23.2217407651
 31
0.0
  0
LINE
  5
139
330
12D
100
AcDbEntity
  8
1
100
AcDbLine
 10
31.0754698897
 20
4.2217407639
 30
0.0
 11
37.2879268922
 21
4.2217407639
 31
0.0
  0
LINE
  5
13A
330
12D
100
AcDbEntity
  8
1
100
AcDbLine
 10
37.1629268922
 20
23.2217407651
 30
0.0
 11
37.1629268922
 21
14.0989351641
 31
0.0
  0
LINE
  5
13B
330
12D
100
AcDbEntity
  8
1
100
AcDbLine
 10
37.1629268922
 20
4.2217407639
 30
0.0
 11
37.1629268922
 21
12.8510185001
 31
0.0
  0
MTEXT
  5
13C
330
12D
100
AcDbEntity
  8
1
100
AcDbMText
 10
36.6563296878
 20
14.0823355908
 30
0.0039370079
 40
0.375
 41
0.0
 71
     1
 72
     1
  1
19"
  7
SLDTEXTSTYLE0
 73
     1
 44
1.0
  0
MTEXT
  5
13D
330
12D
100
AcDbEntity
  8
1
100
AcDbMText
 10
36.401121416
 20
13.4104606024
 30
0.0039370079
 40
0.375
 41
0.0
 71
     1
 72
     1
  1
482.60
  7
SLDTEXTSTYLE0
 73
     1
 44
1.0
  0
ENDBLK
  5
12F
330
12D
100
AcDbEntity
  8
0
100
AcDbBlockEnd
  0
BLOCK
  5
141
330
140
100
AcDbEntity
  8
0
100
AcDbBlockBegin
  2
_D_2
 70
     0
 10
0.0
 20
0.0
 30
0.0
  3
_D_2
  1

  0
SOLID
  5
143
330
140
100
AcDbEntity
  8
1
100
AcDbTrace
 10
22.2761315864
 20
22.9910094482
 30
0.0
 11
22.1961185271
 21
23.3618885561
 31
0.0
 12
22.0883404396
 22
23.320687909
 32
0.0
 13
22.0883404396
 23
23.320687909
 33
0.0
  0
LINE
  5
144
330
140
100
AcDbEntity
  8
1
100
AcDbLine
 10
19.9955982676
 20
26.0456567583
 30
0.0
 11
20.3830982711
 21
26.0456567583
 31
0.0
  0
LINE
  5
145
330
140
100
AcDbEntity
  8
1
100
AcDbLine
 10
19.4102684964
 20
25.4254484137
 30
0.0
 11
19.3342268286
 21
25.4254484137
 31
0.0
  0
LINE
  5
146
330
140
100
AcDbEntity
  8
1
100
AcDbLine
 10
19.3342268286
 20
25.4254484137
 30
0.0
 11
19.3342268286
 21
24.8296150701
 31
0.0
  0
LINE
  5
147
330
140
100
AcDbEntity
  8
1
100
AcDbLine
 10
19.3342268286
 20
24.8296150701
 30
0.0
 11
19.4102684964
 21
24.8296150701
 31
0.0
  0
LINE
  5
148
330
140
100
AcDbEntity
  8
1
100
AcDbLine
 10
20.8469004195
 20
25.4254484137
 30
0.0
 11
20.9229420873
 21
25.4254484137
 31
0.0
  0
LINE
  5
149
330
140
100
AcDbEntity
  8
1
100
AcDbLine
 10
20.9229420873
 20
25.4254484137
 30
0.0
 11
20.9229420873
 21
24.8296150701
 31
0.0
  0
LINE
  5
14A
330
140
100
AcDbEntity
  8
1
100
AcDbLine
 10
20.9229420873
 20
24.8296150701
 30
0.0
 11
20.8469004195
 21
24.8296150701
 31
0.0
  0
LINE
  5
14B
330
140
100
AcDbEntity
  8
1
100
AcDbLine
 10
22.2761315864
 20
22.9910094482
 30
0.0
 11
21.229973266
 21
25.7276883838
 31
0.0
  0
LINE
  5
14C
330
140
100
AcDbEntity
  8
1
100
AcDbLine
 10
21.229973266
 20
25.7276883838
 30
0.0
 11
20.979973266
 21
25.7276883838
 31
0.0
  0
MTEXT
  5
14D
330
140
100
AcDbEntity
  8
1
100
AcDbMText
 10
19.3598343953
 20
26.2530169286
 30
0.0039370079
 40
0.375
 41
0.0
 71
     1
 72
     1
  1
R3
  7
SLDTEXTSTYLE0
 73
     1
 44
1.0
  0
MTEXT
  5
14E
330
140
100
AcDbEntity
  8
1
100
AcDbMText
 10
20.0508066023
 20
26.4959321457
 30
0.0039370079
 40
0.375
 41
0.0
 71
     1
 72
     1
  1
1
  7
SLDTEXTSTYLE0
 73
     1
 44
1.0
  0
MTEXT
  5
14F
330
140
100
AcDbEntity
  8
1
100
AcDbMText
 10
20.0508066023
 20
25.9848904862
 30
0.0039370079
 40
0.375
 41
0.0
 71
     1
 72
     1
  1
2
  7
SLDTEXTSTYLE0
 73
     1
 44
1.0
  0
MTEXT
  5
150
330
140
100
AcDbEntity
  8
1
100
AcDbMText
 10
20.4383065967
 20
26.2530169286
 30
0.0039370079
 40
0.375
 41
0.0
 71
     1
 72
     1
  1
"
  7
SLDTEXTSTYLE0
 73
     1
 44
1.0
  0
MTEXT
  5
151
330
140
100
AcDbEntity
  8
1
100
AcDbMText
 10
19.5053205846
 20
25.3130154909
 30
0.0039370079
 40
0.375
 41
0.0
 71
     1
 72
     1
  1
88.90
  7
SLDTEXTSTYLE0
 73
     1
 44
1.0
  0
ENDBLK
  5
142
330
140
100
AcDbEntity
  8
0
100
AcDbBlockEnd
  0
BLOCK
  5
155
330
154
100
AcDbEntity
  8
0
100
AcDbBlockBegin
  2
_D_3
 70
     0
 10
0.0
 20
0.0
 30
0.0
  3
_D_3
  1

  0
SOLID
  5
157
330
154
100
AcDbEntity
  8
1
100
AcDbTrace
 10
20.324225492
 20
21.444735351
 30
0.0
 11
20.1672199108
 21
21.7901375077
 31
0.0
 12
20.0706599831
 22
21.7269727246
 32
0.0
 13
20.0706599831
 23
21.7269727246
 33
0.0
  0
LINE
  5
158
330
154
100
AcDbEntity
  8
1
100
AcDbLine
 10
18.5867026318
 20
23.0507124573
 30
0.0
 11
18.510660964
 21
23.0507124573
 31
0.0
  0
LINE
  5
159
330
154
100
AcDbEntity
  8
1
100
AcDbLine
 10
18.510660964
 20
23.0507124573
 30
0.0
 11
18.510660964
 21
22.4548791137
 31
0.0
  0
LINE
  5
15A
330
154
100
AcDbEntity
  8
1
100
AcDbLine
 10
18.510660964
 20
22.4548791137
 30
0.0
 11
18.5867026318
 21
22.4548791137
 31
0.0
  0
LINE
  5
15B
330
154
100
AcDbEntity
  8
1
100
AcDbLine
 10
20.0233345549
 20
23.0507124573
 30
0.0
 11
20.0993762227
 21
23.0507124573
 31
0.0
  0
LINE
  5
15C
330
154
100
AcDbEntity
  8
1
100
AcDbLine
 10
20.0993762227
 20
23.0507124573
 30
0.0
 11
20.0993762227
 21
22.4548791137
 31
0.0
  0
LINE
  5
15D
330
154
100
AcDbEntity
  8
1
100
AcDbLine
 10
20.0993762227
 20
22.4548791137
 30
0.0
 11
20.0233345549
 21
22.4548791137
 31
0.0
  0
LINE
  5
15E
330
154
100
AcDbEntity
  8
1
100
AcDbLine
 10
18.6819411319
 20
23.9552934723
 30
0.0
 11
18.8968555267
 21
23.6267540961
 31
0.0
  0
LINE
  5
15F
330
154
100
AcDbEntity
  8
1
100
AcDbLine
 10
20.324225492
 20
21.444735351
 30
0.0
 11
19.7131815868
 21
22.3788374321
 31
0.0
  0
MTEXT
  5
160
330
154
100
AcDbEntity
  8
1
100
AcDbMText
 10
18.7852268947
 20
23.6101545229
 30
0.0039370079
 40
0.375
 41
0.0
 71
     1
 72
     1
  1
R3"
  7
SLDTEXTSTYLE0
 73
     1
 44
1.0
  0
MTEXT
  5
161
330
154
100
AcDbEntity
  8
1
100
AcDbMText
 10
18.68175472
 20
22.9382795345
 30
0.0039370079
 40
0.375
 41
0.0
 71
     1
 72
     1
  1
76.20
  7
SLDTEXTSTYLE0
 73
     1
 44
1.0
  0
ENDBLK
  5
156
330
154
100
AcDbEntity
  8
0
100
AcDbBlockEnd
  0
BLOCK
  5
164
330
163
100
AcDbEntity
  8
0
100
AcDbBlockBegin
  2
_D_4
 70
     0
 10
0.0
 20
0.0
 30
0.0
  3
_D_4
  1

  0
SOLID
  5
166
330
163
100
AcDbEntity
  8
1
100
AcDbTrace
 10
4.7762693189
 20
1.9482115083
 30
0.0
 11
5.1512693189
 21
1.8905192006
 31
0.0
 12
5.1512693189
 22
2.005903816
 32
0.0
 13
5.1512693189
 23
2.005903816
 33
0.0
  0
SOLID
  5
167
330
163
100
AcDbEntity
  8
1
100
AcDbTrace
 10
34.5254804971
 20
1.9482115083
 30
0.0
 11
34.1504804971
 21
2.005903816
 31
0.0
 12
34.1504804971
 22
1.8905192006
 32
0.0
 13
34.1504804971
 23
1.8905192006
 33
0.0
  0
LINE
  5
168
330
163
100
AcDbEntity
  8
1
100
AcDbLine
 10
19.9824427306
 20
2.3608156579
 30
0.0
 11
20.3699427342
 21
2.3608156579
 31
0.0
  0
LINE
  5
169
330
163
100
AcDbEntity
  8
1
100
AcDbLine
 10
19.2717657042
 20
1.7406073132
 30
0.0
 11
19.1957240363
 21
1.7406073132
 31
0.0
  0
LINE
  5
16A
330
163
100
AcDbEntity
  8
1
100
AcDbLine
 10
19.1957240363
 20
1.7406073132
 30
0.0
 11
19.1957240363
 21
1.1447739697
 31
0.0
  0
LINE
  5
16B
330
163
100
AcDbEntity
  8
1
100
AcDbLine
 10
19.1957240363
 20
1.1447739697
 30
0.0
 11
19.2717657042
 21
1.1447739697
 31
0.0
  0
LINE
  5
16C
330
163
100
AcDbEntity
  8
1
100
AcDbLine
 10
20.9854809063
 20
1.7406073132
 30
0.0
 11
21.0615225741
 21
1.7406073132
 31
0.0
  0
LINE
  5
16D
330
163
100
AcDbEntity
  8
1
100
AcDbLine
 10
21.0615225741
 20
1.7406073132
 30
0.0
 11
21.0615225741
 21
1.1447739697
 31
0.0
  0
LINE
  5
16E
330
163
100
AcDbEntity
  8
1
100
AcDbLine
 10
21.0615225741
 20
1.1447739697
 30
0.0
 11
20.9854809063
 21
1.1447739697
 31
0.0
  0
LINE
  5
16F
330
163
100
AcDbEntity
  8
1
100
AcDbLine
 10
4.7762693189
 20
7.6717225837
 30
0.0
 11
4.7762693189
 21
1.8232115083
 31
0.0
  0
LINE
  5
170
330
163
100
AcDbEntity
  8
1
100
AcDbLine
 10
34.5254804971
 20
7.6717225837
 30
0.0
 11
34.5254804971
 21
1.8232115083
 31
0.0
  0
LINE
  5
171
330
163
100
AcDbEntity
  8
1
100
AcDbLine
 10
4.7762693189
 20
1.9482115083
 30
0.0
 11
19.0625938328
 21
1.9482115083
 31
0.0
  0
LINE
  5
172
330
163
100
AcDbEntity
  8
1
100
AcDbLine
 10
34.5254804971
 20
1.9482115083
 30
0.0
 11
21.1946527043
 21
1.9482115083
 31
0.0
  0
MTEXT
  5
173
330
163
100
AcDbEntity
  8
1
100
AcDbMText
 10
19.3730677368
 20
2.5681758281
 30
0.0039370079
 40
0.375
 41
0.0
 71
     1
 72
     1
  1
29
  7
SLDTEXTSTYLE0
 73
     1
 44
1.0
  0
MTEXT
  5
174
330
163
100
AcDbEntity
  8
1
100
AcDbMText
 10
20.0376510653
 20
2.8110910453
 30
0.0039370079
 40
0.375
 41
0.0
 71
     1
 72
     1
  1
1
  7
SLDTEXTSTYLE0
 73
     1
 44
1.0
  0
MTEXT
  5
175
330
163
100
AcDbEntity
  8
1
100
AcDbMText
 10
20.0376510653
 20
2.3000493857
 30
0.0039370079
 40
0.375
 41
0.0
 71
     1
 72
     1
  1
2
  7
SLDTEXTSTYLE0
 73
     1
 44
1.0
  0
MTEXT
  5
176
330
163
100
AcDbEntity
  8
1
100
AcDbMText
 10
20.4251510231
 20
2.5681758281
 30
0.0039370079
 40
0.375
 41
0.0
 71
     1
 72
     1
  1
"
  7
SLDTEXTSTYLE0
 73
     1
 44
1.0
  0
MTEXT
  5
177
330
163
100
AcDbEntity
  8
1
100
AcDbMText
 10
19.3668177924
 20
1.6281743904
 30
0.0039370079
 40
0.375
 41
0.0
 71
     1
 72
     1
  1
755.63
  7
SLDTEXTSTYLE0
 73
     1
 44
1.0
  0
ENDBLK
  5
165
330
163
100
AcDbEntity
  8
0
100
AcDbBlockEnd
  0
BLOCK
  5
17A
330
179
100
AcDbEntity
  8
0
100
AcDbBlockBegin
  2
_D_5
 70
     0
 10
0.0
 20
0.0
 30
0.0
  3
_D_5
  1

  0
SOLID
  5
17C
330
179
100
AcDbEntity
  8
1
100
AcDbTrace
 10
6.4663981534
 20
20.4664386019
 30
0.0
 11
6.3218912866
 21
20.817253607
 31
0.0
 12
6.2231264003
 22
20.7575953578
 32
0.0
 13
6.2231264003
 23
20.7575953578
 33
0.0
  0
LINE
  5
17D
330
179
100
AcDbEntity
  8
1
100
AcDbLine
 10
2.8967015091
 20
23.4153999161
 30
0.0
 11
3.2842015127
 21
23.4153999161
 31
0.0
  0
LINE
  5
17E
330
179
100
AcDbEntity
  8
1
100
AcDbLine
 10
2.2287329193
 20
22.7951915715
 30
0.0
 11
2.1526912515
 21
22.7951915715
 31
0.0
  0
LINE
  5
17F
330
179
100
AcDbEntity
  8
1
100
AcDbLine
 10
2.1526912515
 20
22.7951915715
 30
0.0
 11
2.1526912515
 21
22.1993582279
 31
0.0
  0
LINE
  5
180
330
179
100
AcDbEntity
  8
1
100
AcDbLine
 10
2.1526912515
 20
22.1993582279
 30
0.0
 11
2.2287329193
 21
22.1993582279
 31
0.0
  0
LINE
  5
181
330
179
100
AcDbEntity
  8
1
100
AcDbLine
 10
3.6653648424
 20
22.7951915715
 30
0.0
 11
3.7414065102
 21
22.7951915715
 31
0.0
  0
LINE
  5
182
330
179
100
AcDbEntity
  8
1
100
AcDbLine
 10
3.7414065102
 20
22.7951915715
 30
0.0
 11
3.7414065102
 21
22.1993582279
 31
0.0
  0
LINE
  5
183
330
179
100
AcDbEntity
  8
1
100
AcDbLine
 10
3.7414065102
 20
22.1993582279
 30
0.0
 11
3.6653648424
 21
22.1993582279
 31
0.0
  0
LINE
  5
184
330
179
100
AcDbEntity
  8
1
100
AcDbLine
 10
6.4663981534
 20
20.4664386019
 30
0.0
 11
4.9914931679
 21
22.9081599914
 31
0.0
  0
LINE
  5
185
330
179
100
AcDbEntity
  8
1
100
AcDbLine
 10
4.9914931679
 20
22.9081599914
 30
0.0
 11
4.7414931679
 21
22.9081599914
 31
0.0
  0
MTEXT
  5
186
330
179
100
AcDbEntity
  8
1
100
AcDbMText
 10
2.2609376369
 20
23.6227600863
 30
0.0039370079
 40
0.375
 41
0.0
 71
     1
 72
     1
  1
R3
  7
SLDTEXTSTYLE0
 73
     1
 44
1.0
  0
MTEXT
  5
187
330
179
100
AcDbEntity
  8
1
100
AcDbMText
 10
2.9519098439
 20
23.8656753035
 30
0.0039370079
 40
0.375
 41
0.0
 71
     1
 72
     1
  1
1
  7
SLDTEXTSTYLE0
 73
     1
 44
1.0
  0
MTEXT
  5
188
330
179
100
AcDbEntity
  8
1
100
AcDbMText
 10
2.9519098439
 20
23.354633644
 30
0.0039370079
 40
0.375
 41
0.0
 71
     1
 72
     1
  1
2
  7
SLDTEXTSTYLE0
 73
     1
 44
1.0
  0
MTEXT
  5
189
330
179
100
AcDbEntity
  8
1
100
AcDbMText
 10
3.3394098383
 20
23.6227600863
 30
0.0039370079
 40
0.375
 41
0.0
 71
     1
 72
     1
  1
"
  7
SLDTEXTSTYLE0
 73
     1
 44
1.0
  0
MTEXT
  5
18A
330
179
100
AcDbEntity
  8
1
100
AcDbMText
 10
2.3237850075
 20
22.6827586487
 30
0.0039370079
 40
0.375
 41
0.0
 71
     1
 72
     1
  1
88.90
  7
SLDTEXTSTYLE0
 73
     1
 44
1.0
  0
MTEXT
  5
18B
330
179
100
AcDbEntity
  8
1
100
AcDbMText
 10
3.9390626889
 20
23.6227600863
 30
0.0039370079
 40
0.375
 41
0.0
 71
     1
 72
     1
  1
TYP
  7
SLDTEXTSTYLE0
 73
     1
 44
1.0
  0
ENDBLK
  5
17B
330
179
100
AcDbEntity
  8
0
100
AcDbBlockEnd
  0
BLOCK
  5
18E
330
18D
100
AcDbEntity
  8
0
100
AcDbBlockBegin
  2
_D_6
 70
     0
 10
0.0
 20
0.0
 30
0.0
  3
_D_6
  1

  0
SOLID
  5
190
330
18D
100
AcDbEntity
  8
1
100
AcDbTrace
 10
6.3523319633
 20
19.6071573492
 30
0.0
 11
6.560374756
 21
19.2898694692
 31
0.0
 12
6.6461240474
 22
19.3670748349
 32
0.0
 13
6.6461240474
 23
19.3670748349
 33
0.0
  0
LINE
  5
191
330
18D
100
AcDbEntity
  8
1
100
AcDbLine
 10
7.0838208795
 20
18.0448266617
 30
0.0
 11
7.0077792117
 21
18.0448266617
 31
0.0
  0
LINE
  5
192
330
18D
100
AcDbEntity
  8
1
100
AcDbLine
 10
7.0077792117
 20
18.0448266617
 30
0.0
 11
7.0077792117
 21
17.4489933181
 31
0.0
  0
LINE
  5
193
330
18D
100
AcDbEntity
  8
1
100
AcDbLine
 10
7.0077792117
 20
17.4489933181
 30
0.0
 11
7.0838208795
 21
17.4489933181
 31
0.0
  0
LINE
  5
194
330
18D
100
AcDbEntity
  8
1
100
AcDbLine
 10
8.5204528026
 20
18.0448266617
 30
0.0
 11
8.5964944704
 21
18.0448266617
 31
0.0
  0
LINE
  5
195
330
18D
100
AcDbEntity
  8
1
100
AcDbLine
 10
8.5964944704
 20
18.0448266617
 30
0.0
 11
8.5964944704
 21
17.4489933181
 31
0.0
  0
LINE
  5
196
330
18D
100
AcDbEntity
  8
1
100
AcDbLine
 10
8.5964944704
 20
17.4489933181
 30
0.0
 11
8.5204528026
 21
17.4489933181
 31
0.0
  0
LINE
  5
197
330
18D
100
AcDbEntity
  8
1
100
AcDbLine
 10
6.3523319633
 20
19.6071573492
 30
0.0
 11
7.2403487082
 21
18.6208683005
 31
0.0
  0
MTEXT
  5
198
330
18D
100
AcDbEntity
  8
1
100
AcDbMText
 10
7.2823451424
 20
18.6042687273
 30
0.0039370079
 40
0.375
 41
0.0
 71
     1
 72
     1
  1
R3"
  7
SLDTEXTSTYLE0
 73
     1
 44
1.0
  0
MTEXT
  5
199
330
18D
100
AcDbEntity
  8
1
100
AcDbMText
 10
7.1788729677
 20
17.9323937389
 30
0.0039370079
 40
0.375
 41
0.0
 71
     1
 72
     1
  1
73.02
  7
SLDTEXTSTYLE0
 73
     1
 44
1.0
  0
ENDBLK
  5
18F
330
18D
100
AcDbEntity
  8
0
100
AcDbBlockEnd
  0
BLOCK
  5
19C
330
19B
100
AcDbEntity
  8
0
100
AcDbBlockBegin
  2
_D_7
 70
     0
 10
0.0
 20
0.0
 30
0.0
  3
_D_7
  1

  0
SOLID
  5
19E
330
19B
100
AcDbEntity
  8
1
100
AcDbTrace
 10
20.4944411317
 20
20.8159513839
 30
0.0
 11
20.6319781276
 21
20.4623457037
 31
0.0
 12
20.7319041358
 22
20.5200380114
 32
0.0
 13
20.7319041358
 23
20.5200380114
 33
0.0
  0
LINE
  5
19F
330
19B
100
AcDbEntity
  8
1
100
AcDbLine
 10
23.0357801538
 20
18.4095141158
 30
0.0
 11
23.4232801574
 21
18.4095141158
 31
0.0
  0
LINE
  5
1A0
330
19B
100
AcDbEntity
  8
1
100
AcDbLine
 10
22.4504503827
 20
17.7893057711
 30
0.0
 11
22.3744087149
 21
17.7893057711
 31
0.0
  0
LINE
  5
1A1
330
19B
100
AcDbEntity
  8
1
100
AcDbLine
 10
22.3744087149
 20
17.7893057711
 30
0.0
 11
22.3744087149
 21
17.1934724275
 31
0.0
  0
LINE
  5
1A2
330
19B
100
AcDbEntity
  8
1
100
AcDbLine
 10
22.3744087149
 20
17.1934724275
 30
0.0
 11
22.4504503827
 21
17.1934724275
 31
0.0
  0
LINE
  5
1A3
330
19B
100
AcDbEntity
  8
1
100
AcDbLine
 10
23.8870823058
 20
17.7893057711
 30
0.0
 11
23.9631239736
 21
17.7893057711
 31
0.0
  0
LINE
  5
1A4
330
19B
100
AcDbEntity
  8
1
100
AcDbLine
 10
23.9631239736
 20
17.7893057711
 30
0.0
 11
23.9631239736
 21
17.1934724275
 31
0.0
  0
LINE
  5
1A5
330
19B
100
AcDbEntity
  8
1
100
AcDbLine
 10
23.9631239736
 20
17.1934724275
 30
0.0
 11
23.8870823058
 21
17.1934724275
 31
0.0
  0
LINE
  5
1A6
330
19B
100
AcDbEntity
  8
1
100
AcDbLine
 10
20.4944411317
 20
20.8159513839
 30
0.0
 11
22.0673774629
 21
18.0915457413
 31
0.0
  0
LINE
  5
1A7
330
19B
100
AcDbEntity
  8
1
100
AcDbLine
 10
22.0673774629
 20
18.0915457413
 30
0.0
 11
22.3173774629
 21
18.0915457413
 31
0.0
  0
MTEXT
  5
1A8
330
19B
100
AcDbEntity
  8
1
100
AcDbMText
 10
22.4000162816
 20
18.616874286
 30
0.0039370079
 40
0.375
 41
0.0
 71
     1
 72
     1
  1
R3
  7
SLDTEXTSTYLE0
 73
     1
 44
1.0
  0
MTEXT
  5
1A9
330
19B
100
AcDbEntity
  8
1
100
AcDbMText
 10
23.0909884885
 20
18.8597895031
 30
0.0039370079
 40
0.375
 41
0.0
 71
     1
 72
     1
  1
1
  7
SLDTEXTSTYLE0
 73
     1
 44
1.0
  0
MTEXT
  5
1AA
330
19B
100
AcDbEntity
  8
1
100
AcDbMText
 10
23.0909884885
 20
18.3487478436
 30
0.0039370079
 40
0.375
 41
0.0
 71
     1
 72
     1
  1
2
  7
SLDTEXTSTYLE0
 73
     1
 44
1.0
  0
MTEXT
  5
1AB
330
19B
100
AcDbEntity
  8
1
100
AcDbMText
 10
23.4784884829
 20
18.616874286
 30
0.0039370079
 40
0.375
 41
0.0
 71
     1
 72
     1
  1
"
  7
SLDTEXTSTYLE0
 73
     1
 44
1.0
  0
MTEXT
  5
1AC
330
19B
100
AcDbEntity
  8
1
100
AcDbMText
 10
22.5455024709
 20
17.6768728483
 30
0.0039370079
 40
0.375
 41
0.0
 71
     1
 72
     1
  1
92.07
  7
SLDTEXTSTYLE0
 73
     1
 44
1.0
  0
ENDBLK
  5
19D
330
19B
100
AcDbEntity
  8
0
100
AcDbBlockEnd
  0
BLOCK
  5
1AF
330
1AE
100
AcDbEntity
  8
0
100
AcDbBlockBegin
  2
_D_8
 70
     0
 10
0.0
 20
0.0
 30
0.0
  3
_D_8
  1

  0
SOLID
  5
1B1
330
1AE
100
AcDbEntity
  8
1
100
AcDbTrace
 10
22.3963904799
 20
22.3655766753
 30
0.0
 11
22.4906622302
 21
21.9980630844
 31
0.0
 12
22.5967693557
 22
22.04339395
 32
0.0
 13
22.5967693557
 23
22.04339395
 33
0.0
  0
LINE
  5
1B2
330
1AE
100
AcDbEntity
  8
1
100
AcDbLine
 10
22.4363232533
 20
20.6386410938
 30
0.0
 11
22.3602815855
 21
20.6386410938
 31
0.0
  0
LINE
  5
1B3
330
1AE
100
AcDbEntity
  8
1
100
AcDbLine
 10
22.3602815855
 20
20.6386410938
 30
0.0
 11
22.3602815855
 21
20.0428077503
 31
0.0
  0
LINE
  5
1B4
330
1AE
100
AcDbEntity
  8
1
100
AcDbLine
 10
22.3602815855
 20
20.0428077503
 30
0.0
 11
22.4363232533
 21
20.0428077503
 31
0.0
  0
LINE
  5
1B5
330
1AE
100
AcDbEntity
  8
1
100
AcDbLine
 10
23.8729551764
 20
20.6386410938
 30
0.0
 11
23.9489968442
 21
20.6386410938
 31
0.0
  0
LINE
  5
1B6
330
1AE
100
AcDbEntity
  8
1
100
AcDbLine
 10
23.9489968442
 20
20.6386410938
 30
0.0
 11
23.9489968442
 21
20.0428077503
 31
0.0
  0
LINE
  5
1B7
330
1AE
100
AcDbEntity
  8
1
100
AcDbLine
 10
23.9489968442
 20
20.0428077503
 30
0.0
 11
23.8729551764
 21
20.0428077503
 31
0.0
  0
LINE
  5
1B8
330
1AE
100
AcDbEntity
  8
1
100
AcDbLine
 10
23.5258845479
 20
19.7217407937
 30
0.0
 11
23.4212053594
 21
19.9667660687
 31
0.0
  0
LINE
  5
1B9
330
1AE
100
AcDbEntity
  8
1
100
AcDbLine
 10
22.3963904799
 20
22.3655766753
 30
0.0
 11
22.888072997
 21
21.2146827327
 31
0.0
  0
MTEXT
  5
1BA
330
1AE
100
AcDbEntity
  8
1
100
AcDbMText
 10
22.6348475162
 20
21.1980831595
 30
0.0039370079
 40
0.375
 41
0.0
 71
     1
 72
     1
  1
R3"
  7
SLDTEXTSTYLE0
 73
     1
 44
1.0
  0
MTEXT
  5
1BB
330
1AE
100
AcDbEntity
  8
1
100
AcDbMText
 10
22.5313753415
 20
20.526208171
 30
0.0039370079
 40
0.375
 41
0.0
 71
     1
 72
     1
  1
73.03
  7
SLDTEXTSTYLE0
 73
     1
 44
1.0
  0
ENDBLK
  5
1B0
330
1AE
100
AcDbEntity
  8
0
100
AcDbBlockEnd
  0
BLOCK
  5
1BE
330
1BD
100
AcDbEntity
  8
0
100
AcDbBlockBegin
  2
_D_9
 70
     0
 10
0.0
 20
0.0
 30
0.0
  3
_D_9
  1

  0
SOLID
  5
1C0
330
1BD
100
AcDbEntity
  8
1
100
AcDbTrace
 10
29.8495171021
 20
22.5967407659
 30
0.0
 11
29.7918247942
 21
22.2217407659
 31
0.0
 12
29.9072094096
 22
22.2217407659
 32
0.0
 13
29.9072094096
 23
22.2217407659
 33
0.0
  0
SOLID
  5
1C1
330
1BD
100
AcDbEntity
  8
1
100
AcDbTrace
 10
29.849517096
 20
4.8467407639
 30
0.0
 11
29.9072094038
 21
5.2217407639
 31
0.0
 12
29.7918247885
 22
5.2217407639
 32
0.0
 13
29.7918247885
 23
5.2217407639
 33
0.0
  0
LINE
  5
1C2
330
1BD
100
AcDbEntity
  8
1
100
AcDbLine
 10
28.9926595361
 20
18.0448266596
 30
0.0
 11
28.9166178683
 21
18.0448266596
 31
0.0
  0
LINE
  5
1C3
330
1BD
100
AcDbEntity
  8
1
100
AcDbLine
 10
28.9166178683
 20
18.0448266596
 30
0.0
 11
28.9166178683
 21
17.4489933161
 31
0.0
  0
LINE
  5
1C4
330
1BD
100
AcDbEntity
  8
1
100
AcDbLine
 10
28.9166178683
 20
17.4489933161
 30
0.0
 11
28.9926595361
 21
17.4489933161
 31
0.0
  0
LINE
  5
1C5
330
1BD
100
AcDbEntity
  8
1
100
AcDbLine
 10
30.7063747382
 20
18.0448266596
 30
0.0
 11
30.7824164061
 21
18.0448266596
 31
0.0
  0
LINE
  5
1C6
330
1BD
100
AcDbEntity
  8
1
100
AcDbLine
 10
30.7824164061
 20
18.0448266596
 30
0.0
 11
30.7824164061
 21
17.4489933161
 31
0.0
  0
LINE
  5
1C7
330
1BD
100
AcDbEntity
  8
1
100
AcDbLine
 10
30.7824164061
 20
17.4489933161
 30
0.0
 11
30.7063747382
 21
17.4489933161
 31
0.0
  0
LINE
  5
1C8
330
1BD
100
AcDbEntity
  8
1
100
AcDbLine
 10
29.8495171021
 20
22.5967407659
 30
0.0
 11
29.8495171007
 21
18.6208682985
 31
0.0
  0
LINE
  5
1C9
330
1BD
100
AcDbEntity
  8
1
100
AcDbLine
 10
29.849517096
 20
4.8467407639
 30
0.0
 11
29.8495171003
 21
17.3729516345
 31
0.0
  0
MTEXT
  5
1CA
330
1BD
100
AcDbEntity
  8
1
100
AcDbMText
 10
29.3429198961
 20
18.6042687253
 30
0.0039370079
 40
0.375
 41
0.0
 71
     1
 72
     1
  1
18"
  7
SLDTEXTSTYLE0
 73
     1
 44
1.0
  0
MTEXT
  5
1CB
330
1BD
100
AcDbEntity
  8
1
100
AcDbMText
 10
29.0877116243
 20
17.9323937368
 30
0.0039370079
 40
0.375
 41
0.0
 71
     1
 72
     1
  1
450.85
  7
SLDTEXTSTYLE0
 73
     1
 44
1.0
  0
ENDBLK
  5
1BF
330
1BD
100
AcDbEntity
  8
0
100
AcDbBlockEnd
  0
BLOCK
  5
1CE
330
1CD
100
AcDbEntity
  8
0
100
AcDbBlockBegin
  2
_D_10
 70
     0
 10
0.0
 20
0.0
 30
0.0
  3
_D_10
  1

  0
SOLID
  5
1D0
330
1CD
100
AcDbEntity
  8
1
100
AcDbTrace
 10
11.4824742269
 20
20.3455697988
 30
0.0
 11
11.4247819192
 21
19.9705697988
 31
0.0
 12
11.5401665346
 22
19.9705697988
 32
0.0
 13
11.5401665346
 23
19.9705697988
 33
0.0
  0
SOLID
  5
1D1
330
1CD
100
AcDbEntity
  8
1
100
AcDbTrace
 10
11.482474226
 20
4.8467407633
 30
0.0
 11
11.5401665337
 21
5.2217407633
 31
0.0
 12
11.4247819184
 22
5.2217407633
 32
0.0
 13
11.4247819184
 23
5.2217407633
 33
0.0
  0
LINE
  5
1D2
330
1CD
100
AcDbEntity
  8
1
100
AcDbLine
 10
11.3362936887
 20
16.9724007132
 30
0.0
 11
11.7237936923
 21
16.9724007132
 31
0.0
  0
LINE
  5
1D3
330
1CD
100
AcDbEntity
  8
1
100
AcDbLine
 10
10.6256166623
 20
16.3521923685
 30
0.0
 11
10.5495749945
 21
16.3521923685
 31
0.0
  0
LINE
  5
1D4
330
1CD
100
AcDbEntity
  8
1
100
AcDbLine
 10
10.5495749945
 20
16.3521923685
 30
0.0
 11
10.5495749945
 21
15.756359025
 31
0.0
  0
LINE
  5
1D5
330
1CD
100
AcDbEntity
  8
1
100
AcDbLine
 10
10.5495749945
 20
15.756359025
 30
0.0
 11
10.6256166623
 21
15.756359025
 31
0.0
  0
LINE
  5
1D6
330
1CD
100
AcDbEntity
  8
1
100
AcDbLine
 10
12.3393318645
 20
16.3521923685
 30
0.0
 11
12.4153735323
 21
16.3521923685
 31
0.0
  0
LINE
  5
1D7
330
1CD
100
AcDbEntity
  8
1
100
AcDbLine
 10
12.4153735323
 20
16.3521923685
 30
0.0
 11
12.4153735323
 21
15.756359025
 31
0.0
  0
LINE
  5
1D8
330
1CD
100
AcDbEntity
  8
1
100
AcDbLine
 10
12.4153735323
 20
15.756359025
 30
0.0
 11
12.3393318645
 21
15.756359025
 31
0.0
  0
LINE
  5
1D9
330
1CD
100
AcDbEntity
  8
1
100
AcDbLine
 10
11.4824742269
 20
20.3455697988
 30
0.0
 11
11.4824742268
 21
17.4392757105
 31
0.0
  0
LINE
  5
1DA
330
1CD
100
AcDbEntity
  8
1
100
AcDbLine
 10
11.482474226
 20
4.8467407633
 30
0.0
 11
11.4824742267
 21
15.6803174168
 31
0.0
  0
MTEXT
  5
1DB
330
1CD
100
AcDbEntity
  8
1
100
AcDbMText
 10
10.726918695
 20
17.1797608834
 30
0.0039370079
 40
0.375
 41
0.0
 71
     1
 72
     1
  1
15
  7
SLDTEXTSTYLE0
 73
     1
 44
1.0
  0
MTEXT
  5
1DC
330
1CD
100
AcDbEntity
  8
1
100
AcDbMText
 10
11.3915020235
 20
17.4226761006
 30
0.0039370079
 40
0.375
 41
0.0
 71
     1
 72
     1
  1
1
  7
SLDTEXTSTYLE0
 73
     1
 44
1.0
  0
MTEXT
  5
1DD
330
1CD
100
AcDbEntity
  8
1
100
AcDbMText
 10
11.3915020235
 20
16.9116344411
 30
0.0039370079
 40
0.375
 41
0.0
 71
     1
 72
     1
  1
2
  7
SLDTEXTSTYLE0
 73
     1
 44
1.0
  0
MTEXT
  5
1DE
330
1CD
100
AcDbEntity
  8
1
100
AcDbMText
 10
11.7790019812
 20
17.1797608834
 30
0.0039370079
 40
0.375
 41
0.0
 71
     1
 72
     1
  1
"
  7
SLDTEXTSTYLE0
 73
     1
 44
1.0
  0
MTEXT
  5
1DF
330
1CD
100
AcDbEntity
  8
1
100
AcDbMText
 10
10.7206687505
 20
16.2397594457
 30
0.0039370079
 40
0.375
 41
0.0
 71
     1
 72
     1
  1
393.67
  7
SLDTEXTSTYLE0
 73
     1
 44
1.0
  0
ENDBLK
  5
1CF
330
1CD
100
AcDbEntity
  8
0
100
AcDbBlockEnd
  0
BLOCK
  5
1E2
330
1E1
100
AcDbEntity
  8
0
100
AcDbBlockBegin
  2
_D_11
 70
     0
 10
0.0
 20
0.0
 30
0.0
  3
_D_11
  1

  0
SOLID
  5
1E4
330
1E1
100
AcDbEntity
  8
1
100
AcDbTrace
 10
5.4012693186
 20
10.4608247423
 30
0.0
 11
5.7762693186
 21
10.4031324346
 31
0.0
 12
5.7762693186
 22
10.51851705
 32
0.0
 13
5.7762693186
 23
10.51851705
 33
0.0
  0
SOLID
  5
1E5
330
1E1
100
AcDbEntity
  8
1
100
AcDbTrace
 10
33.9004804975
 20
10.4608247423
 30
0.0
 11
33.5254804975
 21
10.51851705
 31
0.0
 12
33.5254804975
 22
10.4031324346
 32
0.0
 13
33.5254804975
 23
10.4031324346
 33
0.0
  0
LINE
  5
1E6
330
1E1
100
AcDbEntity
  8
1
100
AcDbLine
 10
27.1094895651
 20
10.8734288919
 30
0.0
 11
27.4969895687
 21
10.8734288919
 31
0.0
  0
LINE
  5
1E7
330
1E1
100
AcDbEntity
  8
1
100
AcDbLine
 10
26.3988125387
 20
10.2532205472
 30
0.0
 11
26.3227708709
 21
10.2532205472
 31
0.0
  0
LINE
  5
1E8
330
1E1
100
AcDbEntity
  8
1
100
AcDbLine
 10
26.3227708709
 20
10.2532205472
 30
0.0
 11
26.3227708709
 21
9.6573872036
 31
0.0
  0
LINE
  5
1E9
330
1E1
100
AcDbEntity
  8
1
100
AcDbLine
 10
26.3227708709
 20
9.6573872036
 30
0.0
 11
26.3988125387
 21
9.6573872036
 31
0.0
  0
LINE
  5
1EA
330
1E1
100
AcDbEntity
  8
1
100
AcDbLine
 10
28.1125277409
 20
10.2532205472
 30
0.0
 11
28.1885694087
 21
10.2532205472
 31
0.0
  0
LINE
  5
1EB
330
1E1
100
AcDbEntity
  8
1
100
AcDbLine
 10
28.1885694087
 20
10.2532205472
 30
0.0
 11
28.1885694087
 21
9.6573872036
 31
0.0
  0
LINE
  5
1EC
330
1E1
100
AcDbEntity
  8
1
100
AcDbLine
 10
28.1885694087
 20
9.6573872036
 30
0.0
 11
28.1125277409
 21
9.6573872036
 31
0.0
  0
LINE
  5
1ED
330
1E1
100
AcDbEntity
  8
1
100
AcDbLine
 10
5.4012693186
 20
10.4608247423
 30
0.0
 11
26.1896406674
 21
10.4608247423
 31
0.0
  0
LINE
  5
1EE
330
1E1
100
AcDbEntity
  8
1
100
AcDbLine
 10
33.9004804975
 20
10.4608247423
 30
0.0
 11
28.3216995388
 21
10.4608247423
 31
0.0
  0
MTEXT
  5
1EF
330
1E1
100
AcDbEntity
  8
1
100
AcDbMText
 10
26.5001145713
 20
11.0807890621
 30
0.0039370079
 40
0.375
 41
0.0
 71
     1
 72
     1
  1
28
  7
SLDTEXTSTYLE0
 73
     1
 44
1.0
  0
MTEXT
  5
1F0
330
1E1
100
AcDbEntity
  8
1
100
AcDbMText
 10
27.1646978999
 20
11.3237042792
 30
0.0039370079
 40
0.375
 41
0.0
 71
     1
 72
     1
  1
1
  7
SLDTEXTSTYLE0
 73
     1
 44
1.0
  0
MTEXT
  5
1F1
330
1E1
100
AcDbEntity
  8
1
100
AcDbMText
 10
27.1646978999
 20
10.8126626197
 30
0.0039370079
 40
0.375
 41
0.0
 71
     1
 72
     1
  1
2
  7
SLDTEXTSTYLE0
 73
     1
 44
1.0
  0
MTEXT
  5
1F2
330
1E1
100
AcDbEntity
  8
1
100
AcDbMText
 10
27.5521978576
 20
11.0807890621
 30
0.0039370079
 40
0.375
 41
0.0
 71
     1
 72
     1
  1
"
  7
SLDTEXTSTYLE0
 73
     1
 44
1.0
  0
MTEXT
  5
1F3
330
1E1
100
AcDbEntity
  8
1
100
AcDbMText
 10
26.4938646269
 20
10.1407876244
 30
0.0039370079
 40
0.375
 41
0.0
 71
     1
 72
     1
  1
723.88
  7
SLDTEXTSTYLE0
 73
     1
 44
1.0
  0
ENDBLK
  5
1E3
330
1E1
100
AcDbEntity
  8
0
100
AcDbBlockEnd
  0
BLOCK
  5
1F6
330
1F5
100
AcDbEntity
  8
0
100
AcDbBlockBegin
  2
SW_NOTE_0
 70
     0
 10
0.0
 20
0.0
 30
0.0
  3
SW_NOTE_0
  1

  0
MTEXT
  5
1F8
330
1F5
100
AcDbEntity
  8
1
 62
     0
100
AcDbMText
 10
0.0243004796
 20
0.6240817259
 30
0.0
 40
0.4814814815
 41
0.0
 71
     1
 72
     1
  1
TEMPLATE OUTLINE
  7
SLDTEXTSTYLE0
 73
     1
 44
1.0
  0
MTEXT
  5
1F9
330
1F5
100
AcDbEntity
  8
1
 62
     0
100
AcDbMText
 10
0.0243004796
 20
0.0014994047
 30
0.0
 40
0.4814814815
 41
0.0
 71
     1
 72
     1
  1
FOR 1/2" REVEAL
  7
SLDTEXTSTYLE0
 73
     1
 44
1.0
  0
ENDBLK
  5
1F7
330
1F5
100
AcDbEntity
  8
0
100
AcDbBlockEnd
  0
BLOCK
  5
1FE
330
1FD
100
AcDbEntity
  8
0
100
AcDbBlockBegin
  2
SW_NOTE_1
 70
     0
 10
0.0
 20
0.0
 30
0.0
  3
SW_NOTE_1
  1

  0
MTEXT
  5
200
330
1FD
100
AcDbEntity
  8
1
 62
     0
100
AcDbMText
 10
0.0203162075
 20
0.6247678684
 30
0.0
 40
0.4814814815
 41
0.0
 71
     1
 72
     1
  1
TEMPLATE OUTLINE
  7
SLDTEXTSTYLE0
 73
     1
 44
1.0
  0
MTEXT
  5
201
330
1FD
100
AcDbEntity
  8
1
 62
     0
100
AcDbMText
 10
0.0203162075
 20
0.0021855472
 30
0.0
 40
0.4814814815
 41
0.0
 71
     1
 72
     1
  1
FOR 1/8" REVEAL
  7
SLDTEXTSTYLE0
 73
     1
 44
1.0
  0
ENDBLK
  5
1FF
330
1FD
100
AcDbEntity
  8
0
100
AcDbBlockEnd
  0
ENDSEC
  0
SECTION
  2
ENTITIES
  0
LINE
  5
FA
330
1F
100
AcDbEntity
  8
1
  6
Continuous
 62
     7
370
     0
100
AcDbLine
 10
18.9843061231
 20
20.970569798
 30
0.0
 11
8.2762511388
 21
20.970569798
 31
0.0
  0
LINE
  5
FB
330
1F
100
AcDbEntity
  8
1
  6
Continuous
 62
     7
370
     0
100
AcDbLine
 10
4.7762693189
 20
17.5111889852
 30
0.0
 11
4.7762693189
 21
7.7217225837
 31
0.0
  0
LINE
  5
FC
330
1F
100
AcDbEntity
  8
1
  6
Continuous
 62
     7
370
     0
100
AcDbLine
 10
8.2762511388
 20
4.2217407639
 30
0.0
 11
31.0254698897
 21
4.2217407639
 31
0.0
  0
LINE
  5
FD
330
1F
100
AcDbEntity
  8
1
  6
Continuous
 62
     7
370
     0
100
AcDbLine
 10
34.5254804971
 20
7.7217225837
 30
0.0
 11
34.5254804971
 21
19.7217301578
 31
0.0
  0
LINE
  5
FE
330
1F
100
AcDbEntity
  8
1
  6
Continuous
 62
     7
370
     0
100
AcDbLine
 10
31.0254698897
 20
23.2217407651
 30
0.0
 11
23.5254373268
 21
23.2217407651
 31
0.0
  0
LINE
  5
FF
330
1F
100
AcDbEntity
  8
1
100
AcDbLine
 10
19.6508605142
 20
4.2217407639
 30
0.0
 11
19.6508605142
 21
6.2217407639
 31
0.0
  0
LINE
  5
100
330
1F
100
AcDbEntity
  8
1
100
AcDbLine
 10
32.5254804874
 20
12.6164557845
 30
0.0
 11
34.5254804971
 21
12.6164557845
 31
0.0
  0
LINE
  5
101
330
1F
100
AcDbEntity
  8
1
100
AcDbLine
 10
19.6508605142
 20
21.1160690658
 30
0.0
 11
19.6508605142
 21
19.0825812802
 31
0.0
  0
LINE
  5
102
330
1F
100
AcDbEntity
  8
1
100
AcDbLine
 10
4.7762693189
 20
12.6164557845
 30
0.0
 11
6.8111137339
 21
12.6164557845
 31
0.0
  0
LINE
  5
103
330
1F
100
AcDbEntity
  8
1
100
AcDbLine
 10
19.0143866086
 20
20.3455697984
 30
0.0
 11
8.2762313616
 21
20.345569799
 31
0.0
  0
LINE
  5
104
330
1F
100
AcDbEntity
  8
1
100
AcDbLine
 10
5.4012693186
 20
17.5073843007
 30
0.0
 11
5.4012693186
 21
7.7217225837
 31
0.0
  0
LINE
  5
105
330
1F
100
AcDbEntity
  8
1
100
AcDbLine
 10
8.2762511388
 20
4.8467407635
 30
0.0
 11
31.0254698897
 21
4.8467407635
 31
0.0
  0
LINE
  5
106
330
1F
100
AcDbEntity
  8
1
100
AcDbLine
 10
33.9004804975
 20
7.7217251869
 30
0.0
 11
33.9004804975
 21
19.7217301578
 31
0.0
  0
LINE
  5
107
330
1F
100
AcDbEntity
  8
1
100
AcDbLine
 10
31.0254698897
 20
22.5967407655
 30
0.0
 11
23.5254772572
 21
22.5967407681
 31
0.0
  0
ARC
  5
108
330
1F
100
AcDbEntity
  8
1
  6
Continuous
 62
     7
370
     0
100
AcDbCircle
 10
8.2760296348
 20
17.4705738251
 30
0.0
 40
3.49999597991351
100
AcDbArc
 50
89.9963739262
 51
179.3351050956
  0
ARC
  5
109
330
1F
100
AcDbEntity
  8
1
  6
Continuous
 62
     7
370
     0
100
AcDbCircle
 10
8.2762511388
 20
7.7217225837
 30
0.0
 40
3.499981819805863
100
AcDbArc
 50
180.0
 51
270.0
  0
ARC
  5
10A
330
1F
100
AcDbEntity
  8
1
  6
Continuous
 62
     7
370
     0
100
AcDbCircle
 10
31.0254695213
 20
7.7217517398
 30
0.0
 40
3.500010975873706
100
AcDbArc
 50
270.0000060311
 51
359.9995227102
  0
ARC
  5
10B
330
1F
100
AcDbEntity
  8
1
  6
Continuous
 62
     7
370
     0
100
AcDbCircle
 10
31.0254698897
 20
19.7217301578
 30
0.0
 40
3.500010607333703
100
AcDbArc
 50
0.0
 51
90.0
  0
ARC
  5
10C
330
1F
100
AcDbEntity
  8
1
  6
Continuous
 62
     7
370
     0
100
AcDbCircle
 10
23.5258845479
 20
19.7217407937
 30
0.0
 40
3.500000000000005
100
AcDbArc
 50
90.0073211101
 51
146.4510650227
  0
ARC
  5
10D
330
1F
100
AcDbEntity
  8
1
  6
Continuous
 62
     7
370
     0
100
AcDbCircle
 10
18.6819411319
 20
23.9552934723
 30
0.0
 40
3.000000000000037
100
AcDbArc
 50
275.7845678425
 51
309.9658814008
  0
ARC
  5
10E
330
1F
100
AcDbEntity
  8
1
100
AcDbCircle
 10
8.2760296348
 20
17.4705738251
 30
0.0
 40
2.874995981003669
100
AcDbArc
 50
89.9959797872
 51
179.2663841831
  0
ARC
  5
10F
330
1F
100
AcDbEntity
  8
1
100
AcDbCircle
 10
8.2762511388
 20
7.7217225837
 30
0.0
 40
2.874981820202181
100
AcDbArc
 50
180.0
 51
270.0
  0
ARC
  5
110
330
1F
100
AcDbEntity
  8
1
100
AcDbCircle
 10
31.0254695213
 20
7.7217517398
 30
0.0
 40
2.875010976282045
100
AcDbArc
 50
270.0000073422
 51
359.999470831
  0
ARC
  5
111
330
1F
100
AcDbEntity
  8
1
100
AcDbCircle
 10
31.0254698897
 20
19.7217301578
 30
0.0
 40
2.875010607730015
100
AcDbArc
 50
0.0
 51
90.0
  0
ARC
  5
112
330
1F
100
AcDbEntity
  8
1
100
AcDbCircle
 10
23.5258845479
 20
19.7217407937
 30
0.0
 40
2.875000003224723
100
AcDbArc
 50
90.0081168829
 51
148.0817993182
  0
ARC
  5
113
330
1F
100
AcDbEntity
  8
1
100
AcDbCircle
 10
18.6819411319
 20
23.9552934723
 30
0.0
 40
3.624999999603722
100
AcDbArc
 50
275.2619378288
 51
311.5345110644
  0
DIMENSION
  5
114
330
1F
100
AcDbEntity
  8
1
100
AcDbDimension
  2
_D
 10
1.4855027541
 20
4.2217407639
 30
0.0
 11
1.4855027541
 21
12.0380918568
 31
0.0
 70
   160
  1
<>
 71
     2
 42
-1.0
  3
SLDDIMSTYLE0
100
AcDbAlignedDimension
 13
8.2762511388
 23
20.970569798
 33
0.0
 14
8.2762511388
 24
4.2217407639
 34
0.0
 50
90.0
100
AcDbRotatedDimension
  0
DIMENSION
  5
12C
330
1F
100
AcDbEntity
  8
1
100
AcDbDimension
  2
_D_1
 10
37.1629268922
 20
4.2217407639
 30
0.0
 11
37.1629268922
 21
13.4749768321
 31
0.0
 70
   160
  1
<>
 71
     2
 42
-1.0
  3
SLDDIMSTYLE0
100
AcDbAlignedDimension
 13
31.0254698897
 23
23.2217407651
 33
0.0
 14
31.0254698897
 24
4.2217407639
 34
0.0
 50
90.0
100
AcDbRotatedDimension
  0
DIMENSION
  5
13E
330
1F
100
AcDbEntity
  8
1
100
AcDbDimension
  2
_D_2
 10
23.5258845479
 20
19.7217407937
 30
0.0
 11
20.1285844213
 21
25.6330526087
 31
0.0
 70
   164
  1
<>
 71
     1
 42
-1.0
  3
SLDDIMSTYLE1
100
AcDbRadialDimension
 15
22.2761315864
 25
22.9910094482
 35
0.0
 40
0.0
  0
DIMENSION
  5
152
330
1F
100
AcDbEntity
  8
1
100
AcDbDimension
  2
_D_3
 10
18.6819411319
 20
23.9552934723
 30
0.0
 11
19.3050189504
 21
23.0027961578
 31
0.0
 70
   164
  1
<>
 71
     1
 42
-1.0
  3
SLDDIMSTYLE2
100
AcDbRadialDimension
 15
20.324225492
 25
21.444735351
 35
0.0
 40
0.0
  0
DIMENSION
  5
162
330
1F
100
AcDbEntity
  8
1
100
AcDbDimension
  2
_D_4
 10
34.5254804971
 20
1.9482115083
 30
0.0
 11
20.1286232686
 21
1.9482115083
 31
0.0
 70
   160
  1
<>
 71
     2
 42
-1.0
  3
SLDDIMSTYLE0
100
AcDbAlignedDimension
 13
4.7762693189
 23
7.7217225837
 33
0.0
 14
34.5254804971
 24
7.7217225837
 34
0.0
 50
0.0
100
AcDbRotatedDimension
  0
DIMENSION
  5
178
330
1F
100
AcDbEntity
  8
1
100
AcDbDimension
  2
_D_5
 10
8.2760296348
 20
17.4705738251
 30
0.0
 11
3.4185765837
 21
23.0027957665
 31
0.0
 70
   164
  1
<> TYP
 71
     1
 42
-1.0
  3
SLDDIMSTYLE2
100
AcDbRadialDimension
 15
6.4663981534
 25
20.4664386019
 35
0.0
 40
0.0
  0
DIMENSION
  5
18C
330
1F
100
AcDbEntity
  8
1
100
AcDbDimension
  2
_D_6
 10
8.2760296348
 20
17.4705738251
 30
0.0
 11
7.8021371981
 21
17.9969103623
 31
0.0
 70
   164
  1
<>
 71
     1
 42
-1.0
  3
SLDDIMSTYLE2
100
AcDbRadialDimension
 15
6.3523319633
 25
19.6071573492
 35
0.0
 40
0.0
  0
DIMENSION
  5
19A
330
1F
100
AcDbEntity
  8
1
100
AcDbDimension
  2
_D_7
 10
18.6819411319
 20
23.9552934723
 30
0.0
 11
23.1687663076
 21
17.9969099662
 31
0.0
 70
   164
  1
<>
 71
     1
 42
-1.0
  3
SLDDIMSTYLE1
100
AcDbRadialDimension
 15
20.4944411317
 25
20.8159513839
 35
0.0
 40
0.0
  0
DIMENSION
  5
1AD
330
1F
100
AcDbEntity
  8
1
100
AcDbDimension
  2
_D_8
 10
23.5258845479
 20
19.7217407937
 30
0.0
 11
23.1546395719
 21
20.5907247944
 31
0.0
 70
   164
  1
<>
 71
     1
 42
-1.0
  3
SLDDIMSTYLE2
100
AcDbRadialDimension
 15
22.3963904799
 25
22.3655766753
 35
0.0
 40
0.0
  0
DIMENSION
  5
1BC
330
1F
100
AcDbEntity
  8
1
100
AcDbDimension
  2
_D_9
 10
29.849517096
 20
4.8467407639
 30
0.0
 11
29.8495171005
 21
17.9969099665
 31
0.0
 70
   160
  1
<>
 71
     2
 42
-1.0
  3
SLDDIMSTYLE0
100
AcDbAlignedDimension
 13
31.0254698897
 23
22.5967407655
 33
0.0
 14
31.0254698897
 24
4.8467407635
 34
0.0
 50
90.0
100
AcDbRotatedDimension
  0
DIMENSION
  5
1CC
330
1F
100
AcDbEntity
  8
1
100
AcDbDimension
  2
_D_10
 10
11.482474226
 20
4.8467407633
 30
0.0
 11
11.4824742267
 21
16.5597965636
 31
0.0
 70
   160
  1
<>
 71
     2
 42
-1.0
  3
SLDDIMSTYLE0
100
AcDbAlignedDimension
 13
8.2762313616
 23
20.345569799
 33
0.0
 14
8.2762511388
 24
4.8467407635
 34
0.0
 50
90.0
100
AcDbRotatedDimension
  0
DIMENSION
  5
1E0
330
1F
100
AcDbEntity
  8
1
100
AcDbDimension
  2
_D_11
 10
33.9004804975
 20
10.4608247423
 30
0.0
 11
27.2556701031
 21
10.4608247423
 31
0.0
 70
   160
  1
<>
 71
     2
 42
-1.0
  3
SLDDIMSTYLE0
100
AcDbAlignedDimension
 13
5.4012693186
 23
7.7217225837
 33
0.0
 14
33.9004804975
 24
7.7217251869
 34
0.0
 50
0.0
100
AcDbRotatedDimension
  0
MTEXT
  5
1F4
330
1F
100
AcDbEntity
  8
1
100
AcDbMText
 10
16.9851157829
 20
13.2511736517
 30
0.0
 40
0.7291666667
 41
0.0
 71
     1
 72
     1
  1
0000000789
  7
SLDTEXTSTYLE0
 73
     1
 44
1.0
  0
INSERT
  5
1FA
102
{ACAD_REACTORS
330
1FC
102
}
330
1F
100
AcDbEntity
  8
1
100
AcDbBlockReference
  2
SW_NOTE_0
 10
29.0022032796
 20
26.1117016336
 30
0.0
  0
LEADER
  5
1FC
330
1F
100
AcDbEntity
  8
1
100
AcDbLeader
  3
SLDDIMSTYLE3
 73
     2
 76
     3
 10
26.9291060923
 20
23.2217407651
 30
0.0
 10
28.7522032796
 20
26.1117016336
 30
0.0
 10
29.0022032796
 20
26.1117016336
 30
0.0
340
1FA
  0
INSERT
  5
202
102
{ACAD_REACTORS
330
203
102
}
330
1F
100
AcDbEntity
  8
1
100
AcDbBlockReference
  2
SW_NOTE_1
 10
23.0992714213
 20
6.6794976316
 30
0.0
  0
LEADER
  5
203
330
1F
100
AcDbEntity
  8
1
100
AcDbLeader
  3
SLDDIMSTYLE3
 73
     2
 76
     3
 10
22.2783505155
 20
4.8467407635
 30
0.0
 10
22.8492714213
 20
6.6794976316
 30
0.0
 10
23.0992714213
 20
6.6794976316
 30
0.0
340
202
  0
ENDSEC
  0
SECTION
  2
OBJECTS
  0
DICTIONARY
  5
C
330
0
100
AcDbDictionary
281
     1
  3
ACAD_GROUP
350
D
  3
ACAD_LAYOUT
350
1A
  3
ACAD_MLINESTYLE
350
17
  3
ACAD_PLOTSETTINGS
350
19
  3
ACAD_PLOTSTYLENAME
350
E
  0
DICTIONARY
  5
D
102
{ACAD_REACTORS
330
C
102
}
330
C
100
AcDbDictionary
281
     1
  0
DICTIONARY
  5
1A
102
{ACAD_REACTORS
330
C
102
}
330
C
100
AcDbDictionary
281
     1
  3
Layout1
350
1E
  3
Layout2
350
26
  3
Model
350
22
  0
DICTIONARY
  5
17
102
{ACAD_REACTORS
330
C
102
}
330
C
100
AcDbDictionary
281
     1
  3
Standard
350
18
  0
DICTIONARY
  5
19
102
{ACAD_REACTORS
330
C
102
}
330
C
100
AcDbDictionary
281
     1
  0
ACDBDICTIONARYWDFLT
  5
E
102
{ACAD_REACTORS
330
C
102
}
330
C
100
AcDbDictionary
281
     1
  3
Normal
350
F
100
AcDbDictionaryWithDefault
340
F
  0
LAYOUT
  5
1E
102
{ACAD_REACTORS
330
1A
102
}
330
1A
100
AcDbPlotSettings
  1

  2
none_device
  4

  6

 40
0.0
 41
0.0
 42
0.0
 43
0.0
 44
0.0
 45
0.0
 46
0.0
 47
0.0
 48
0.0
 49
0.0
140
0.0
141
0.0
142
1.0
143
1.0
 70
   688
 72
     0
 73
     0
 74
     5
  7

 75
    16
147
1.0
148
0.0
149
0.0
100
AcDbLayout
  1
Layout1
 70
     1
 71
     1
 10
0.0
 20
0.0
 11
12.0
 21
9.0
 12
0.0
 22
0.0
 32
0.0
 14
1.0000000000E+20
 24
1.0000000000E+20
 34
1.0000000000E+20
 15
-1.0000000000E+20
 25
-1.0000000000E+20
 35
-1.0000000000E+20
146
0.0
 13
0.0
 23
0.0
 33
0.0
 16
1.0
 26
0.0
 36
0.0
 17
0.0
 27
1.0
 37
0.0
 76
     0
330
1B
  0
LAYOUT
  5
26
102
{ACAD_REACTORS
330
1A
102
}
330
1A
100
AcDbPlotSettings
  1

  2
none_device
  4

  6

 40
0.0
 41
0.0
 42
0.0
 43
0.0
 44
0.0
 45
0.0
 46
0.0
 47
0.0
 48
0.0
 49
0.0
140
0.0
141
0.0
142
1.0
143
1.0
 70
   688
 72
     0
 73
     0
 74
     5
  7

 75
    16
147
1.0
148
0.0
149
0.0
100
AcDbLayout
  1
Layout2
 70
     1
 71
     2
 10
0.0
 20
0.0
 11
0.0
 21
0.0
 12
0.0
 22
0.0
 32
0.0
 14
0.0
 24
0.0
 34
0.0
 15
0.0
 25
0.0
 35
0.0
146
0.0
 13
0.0
 23
0.0
 33
0.0
 16
1.0
 26
0.0
 36
0.0
 17
0.0
 27
1.0
 37
0.0
 76
     0
330
23
  0
LAYOUT
  5
22
102
{ACAD_REACTORS
330
1A
102
}
330
1A
100
AcDbPlotSettings
  1

  2
none_device
  4

  6

 40
0.0
 41
0.0
 42
0.0
 43
0.0
 44
0.0
 45
0.0
 46
0.0
 47
0.0
 48
0.0
 49
0.0
140
0.0
141
0.0
142
1.0
143
1.0
 70
  1712
 72
     0
 73
     0
 74
     0
  7

 75
     0
147
1.0
148
0.0
149
0.0
100
AcDbLayout
  1
Model
 70
     1
 71
     0
 10
0.0
 20
0.0
 11
40.0
 21
30.0
 12
0.0
 22
0.0
 32
0.0
 14
0.0
 24
0.0
 34
0.0
 15
40.0
 25
30.0
 35
0.0
146
0.0
 13
0.0
 23
0.0
 33
0.0
 16
1.0
 26
0.0
 36
0.0
 17
0.0
 27
1.0
 37
0.0
 76
     0
330
1F
331
29
  0
MLINESTYLE
  5
18
102
{ACAD_REACTORS
330
17
102
}
330
17
100
AcDbMlineStyle
  2
Standard
 70
     0
  3

 62
   256
 51
90.0
 52
90.0
 71
     2
 49
0.5
 62
   256
  6
BYLAYER
 49
-0.5
 62
   256
  6
BYLAYER
  0
ACDBPLACEHOLDER
  5
F
102
{ACAD_REACTORS
330
E
102
}
330
E
  0
ENDSEC
  0
EOF
