  0
SECTION
  2
HEADER
  9
$ACADVER
  1
AC1009
999
I-DEAS Drafting Master Series 7m1 Not Encoded
  9
$EXTMIN
 10
0.0
 20
0.0
  9
$EXTMAX
 10
3.6E+001
 20
2.4E+001
  9
$TEXTSIZE
 40
1.25E-001
  9
$LTSCALE
 40
1.0
  9
$CLAYER
  8
1
  9
$CECOLOR
 62
3
  9
$DIMASZ
 40
1.25E-001
  9
$DIMEXO
 40
6.25E-002
  9
$DIMDLI
 40
2.5E-001
  9
$DIMEXE
 40
1.25E-001
  9
$DIMTP
 40
5.0E-003
  9
$DIMTM
 40
-5.0E-003
  9
$DIMTXT
 40
1.25E-001
  9
$DIMLIM
 70
0
  9
$DIMTIH
 70
1
  9
$DIMTOH
 70
1
  9
$DIMSE1
 70
0
  9
$DIMSE2
 70
0
  9
$DIMTAD
 70
0
  9
$DIMASO
 70
1
  9
$DIMALT
 70
0
  9
$DIMALTD
 70
0
  9
$DIMTOFL
 70
1
  9
$DIMTIX
 70
0
  9
$DIMSAH
 70
0
  9
$DIMTFAC
 40
1.0
  9
$DIMGAP
 40
6.25E-002
  9
$LUNITS
 70
2
  9
$LUPREC
 70
3
  9
$FILLETRAD
 40
2.5E-001
  9
$AUNITS
 70
0
  9
$AUPREC
 70
1
  9
$CHAMFERA
 40
2.5E-001
  9
$CHAMFERB
 40
2.5E-001
  9
$ANGBASE
 50
0.0
  9
$ANGDIR
 70
0
  9
$PDMODE
 70
2
  9
$PDSIZE
 40
-1.0E-002
  9
$SPLINETYPE
 70
6
  0
ENDSEC
  0
SECTION
  2
TABLES
  0
TABLE
  2
LTYPE
 70
7
  0
LTYPE
  2
HIDDENNEW00
  3
_ 
 70
64
 72
65
 73
2
 40
1.875E-001
 49
1.25E-001
 49
-6.25E-002
  0
LTYPE
  2
HIDDENNEW01
  3
_ 
 70
64
 72
65
 73
2
 40
1.875E-001
 49
1.25E-001
 49
-6.25E-002
  0
LTYPE
  2
HIDDEN
  3
_ 
 70
64
 72
65
 73
2
 40
1.875E-001
 49
1.25E-001
 49
-6.25E-002
  0
LTYPE
  2
CENTERLINE
  3
_ 
 70
64
 72
65
 73
4
 40
1.25
 49
1.0
 49
-6.25E-002
 49
1.25E-001
 49
-6.25E-002
  0
LTYPE
  2
PHANTOM
  3
_ 
 70
64
 72
65
 73
6
 40
1.1875
 49
7.5E-001
 49
-6.25E-002
 49
1.25E-001
 49
-6.25E-002
 49
1.25E-001
 49
-6.25E-002
  0
LTYPE
  2
SHORT_DASH
  3
_ 
 70
64
 72
65
 73
2
 40
1.25E-001
 49
6.25E-002
 49
-6.25E-002
  0
LTYPE
  2
LONG_DASH
  3
_ 
 70
64
 72
65
 73
2
 40
3.75E-001
 49
1.875E-001
 49
-1.875E-001
  0
ENDTAB
  0
TABLE
  2
LAYER
 70
258
  0
LAYER
  2
1
 70
0
 62
7
  6
CONTINUOUS
  0
LAYER
  2
2
 70
0
 62
7
  6
CONTINUOUS
  0
LAYER
  2
3
 70
0
 62
7
  6
CONTINUOUS
  0
LAYER
  2
4
 70
0
 62
7
  6
CONTINUOUS
  0
LAYER
  2
5
 70
0
 62
7
  6
CONTINUOUS
  0
LAYER
  2
6
 70
0
 62
7
  6
CONTINUOUS
  0
LAYER
  2
7
 70
0
 62
7
  6
CONTINUOUS
  0
LAYER
  2
8
 70
0
 62
7
  6
CONTINUOUS
  0
LAYER
  2
9
 70
0
 62
7
  6
CONTINUOUS
  0
LAYER
  2
10
 70
0
 62
7
  6
CONTINUOUS
  0
LAYER
  2
11
 70
0
 62
7
  6
CONTINUOUS
  0
LAYER
  2
12
 70
0
 62
7
  6
CONTINUOUS
  0
LAYER
  2
13
 70
0
 62
7
  6
CONTINUOUS
  0
LAYER
  2
14
 70
0
 62
7
  6
CONTINUOUS
  0
LAYER
  2
15
 70
0
 62
7
  6
CONTINUOUS
  0
LAYER
  2
16
 70
0
 62
7
  6
CONTINUOUS
  0
LAYER
  2
17
 70
0
 62
7
  6
CONTINUOUS
  0
LAYER
  2
18
 70
0
 62
7
  6
CONTINUOUS
  0
LAYER
  2
19
 70
0
 62
7
  6
CONTINUOUS
  0
LAYER
  2
20
 70
0
 62
7
  6
CONTINUOUS
  0
LAYER
  2
21
 70
0
 62
7
  6
CONTINUOUS
  0
LAYER
  2
22
 70
0
 62
7
  6
CONTINUOUS
  0
LAYER
  2
23
 70
0
 62
7
  6
CONTINUOUS
  0
LAYER
  2
24
 70
0
 62
7
  6
CONTINUOUS
  0
LAYER
  2
25
 70
0
 62
7
  6
CONTINUOUS
  0
LAYER
  2
26
 70
0
 62
7
  6
CONTINUOUS
  0
LAYER
  2
27
 70
0
 62
7
  6
CONTINUOUS
  0
LAYER
  2
28
 70
0
 62
7
  6
CONTINUOUS
  0
LAYER
  2
29
 70
0
 62
7
  6
CONTINUOUS
  0
LAYER
  2
30
 70
0
 62
7
  6
CONTINUOUS
  0
LAYER
  2
31
 70
0
 62
7
  6
CONTINUOUS
  0
LAYER
  2
32
 70
0
 62
7
  6
CONTINUOUS
  0
LAYER
  2
33
 70
0
 62
7
  6
CONTINUOUS
  0
LAYER
  2
34
 70
0
 62
7
  6
CONTINUOUS
  0
LAYER
  2
35
 70
0
 62
7
  6
CONTINUOUS
  0
LAYER
  2
36
 70
0
 62
7
  6
CONTINUOUS
  0
LAYER
  2
37
 70
0
 62
7
  6
CONTINUOUS
  0
LAYER
  2
38
 70
0
 62
7
  6
CONTINUOUS
  0
LAYER
  2
39
 70
0
 62
7
  6
CONTINUOUS
  0
LAYER
  2
40
 70
0
 62
7
  6
CONTINUOUS
  0
LAYER
  2
41
 70
0
 62
7
  6
CONTINUOUS
  0
LAYER
  2
42
 70
0
 62
7
  6
CONTINUOUS
  0
LAYER
  2
43
 70
0
 62
7
  6
CONTINUOUS
  0
LAYER
  2
44
 70
0
 62
7
  6
CONTINUOUS
  0
LAYER
  2
45
 70
0
 62
7
  6
CONTINUOUS
  0
LAYER
  2
46
 70
0
 62
7
  6
CONTINUOUS
  0
LAYER
  2
47
 70
0
 62
7
  6
CONTINUOUS
  0
LAYER
  2
48
 70
0
 62
7
  6
CONTINUOUS
  0
LAYER
  2
49
 70
0
 62
7
  6
CONTINUOUS
  0
LAYER
  2
50
 70
0
 62
7
  6
CONTINUOUS
  0
LAYER
  2
51
 70
0
 62
7
  6
CONTINUOUS
  0
LAYER
  2
52
 70
0
 62
7
  6
CONTINUOUS
  0
LAYER
  2
53
 70
0
 62
7
  6
CONTINUOUS
  0
LAYER
  2
54
 70
0
 62
7
  6
CONTINUOUS
  0
LAYER
  2
55
 70
0
 62
7
  6
CONTINUOUS
  0
LAYER
  2
56
 70
0
 62
7
  6
CONTINUOUS
  0
LAYER
  2
57
 70
0
 62
7
  6
CONTINUOUS
  0
LAYER
  2
58
 70
0
 62
7
  6
CONTINUOUS
  0
LAYER
  2
59
 70
0
 62
7
  6
CONTINUOUS
  0
LAYER
  2
60
 70
0
 62
7
  6
CONTINUOUS
  0
LAYER
  2
61
 70
0
 62
7
  6
CONTINUOUS
  0
LAYER
  2
62
 70
0
 62
7
  6
CONTINUOUS
  0
LAYER
  2
63
 70
0
 62
7
  6
CONTINUOUS
  0
LAYER
  2
64
 70
0
 62
7
  6
CONTINUOUS
  0
LAYER
  2
65
 70
0
 62
7
  6
CONTINUOUS
  0
LAYER
  2
66
 70
0
 62
7
  6
CONTINUOUS
  0
LAYER
  2
67
 70
0
 62
7
  6
CONTINUOUS
  0
LAYER
  2
68
 70
0
 62
7
  6
CONTINUOUS
  0
LAYER
  2
69
 70
0
 62
7
  6
CONTINUOUS
  0
LAYER
  2
70
 70
0
 62
7
  6
CONTINUOUS
  0
LAYER
  2
71
 70
0
 62
7
  6
CONTINUOUS
  0
LAYER
  2
72
 70
0
 62
7
  6
CONTINUOUS
  0
LAYER
  2
73
 70
0
 62
7
  6
CONTINUOUS
  0
LAYER
  2
74
 70
0
 62
7
  6
CONTINUOUS
  0
LAYER
  2
75
 70
0
 62
7
  6
CONTINUOUS
  0
LAYER
  2
76
 70
0
 62
7
  6
CONTINUOUS
  0
LAYER
  2
77
 70
0
 62
7
  6
CONTINUOUS
  0
LAYER
  2
78
 70
0
 62
7
  6
CONTINUOUS
  0
LAYER
  2
79
 70
0
 62
7
  6
CONTINUOUS
  0
LAYER
  2
80
 70
0
 62
7
  6
CONTINUOUS
  0
LAYER
  2
81
 70
0
 62
7
  6
CONTINUOUS
  0
LAYER
  2
82
 70
0
 62
7
  6
CONTINUOUS
  0
LAYER
  2
83
 70
0
 62
7
  6
CONTINUOUS
  0
LAYER
  2
84
 70
0
 62
7
  6
CONTINUOUS
  0
LAYER
  2
85
 70
0
 62
7
  6
CONTINUOUS
  0
LAYER
  2
86
 70
0
 62
7
  6
CONTINUOUS
  0
LAYER
  2
87
 70
0
 62
7
  6
CONTINUOUS
  0
LAYER
  2
88
 70
0
 62
7
  6
CONTINUOUS
  0
LAYER
  2
89
 70
0
 62
7
  6
CONTINUOUS
  0
LAYER
  2
90
 70
0
 62
7
  6
CONTINUOUS
  0
LAYER
  2
91
 70
0
 62
7
  6
CONTINUOUS
  0
LAYER
  2
92
 70
0
 62
7
  6
CONTINUOUS
  0
LAYER
  2
93
 70
0
 62
7
  6
CONTINUOUS
  0
LAYER
  2
94
 70
0
 62
7
  6
CONTINUOUS
  0
LAYER
  2
95
 70
0
 62
7
  6
CONTINUOUS
  0
LAYER
  2
96
 70
0
 62
7
  6
CONTINUOUS
  0
LAYER
  2
97
 70
0
 62
7
  6
CONTINUOUS
  0
LAYER
  2
98
 70
0
 62
7
  6
CONTINUOUS
  0
LAYER
  2
99
 70
0
 62
7
  6
CONTINUOUS
  0
LAYER
  2
100
 70
0
 62
7
  6
CONTINUOUS
  0
LAYER
  2
101
 70
0
 62
7
  6
CONTINUOUS
  0
LAYER
  2
102
 70
0
 62
7
  6
CONTINUOUS
  0
LAYER
  2
103
 70
0
 62
7
  6
CONTINUOUS
  0
LAYER
  2
104
 70
0
 62
7
  6
CONTINUOUS
  0
LAYER
  2
105
 70
0
 62
7
  6
CONTINUOUS
  0
LAYER
  2
106
 70
0
 62
7
  6
CONTINUOUS
  0
LAYER
  2
107
 70
0
 62
7
  6
CONTINUOUS
  0
LAYER
  2
108
 70
0
 62
7
  6
CONTINUOUS
  0
LAYER
  2
109
 70
0
 62
7
  6
CONTINUOUS
  0
LAYER
  2
110
 70
0
 62
7
  6
CONTINUOUS
  0
LAYER
  2
111
 70
0
 62
7
  6
CONTINUOUS
  0
LAYER
  2
112
 70
0
 62
7
  6
CONTINUOUS
  0
LAYER
  2
113
 70
0
 62
7
  6
CONTINUOUS
  0
LAYER
  2
114
 70
0
 62
7
  6
CONTINUOUS
  0
LAYER
  2
115
 70
0
 62
7
  6
CONTINUOUS
  0
LAYER
  2
116
 70
0
 62
7
  6
CONTINUOUS
  0
LAYER
  2
117
 70
0
 62
7
  6
CONTINUOUS
  0
LAYER
  2
118
 70
0
 62
7
  6
CONTINUOUS
  0
LAYER
  2
119
 70
0
 62
7
  6
CONTINUOUS
  0
LAYER
  2
120
 70
0
 62
7
  6
CONTINUOUS
  0
LAYER
  2
121
 70
0
 62
7
  6
CONTINUOUS
  0
LAYER
  2
122
 70
0
 62
7
  6
CONTINUOUS
  0
LAYER
  2
123
 70
0
 62
7
  6
CONTINUOUS
  0
LAYER
  2
124
 70
0
 62
7
  6
CONTINUOUS
  0
LAYER
  2
125
 70
0
 62
7
  6
CONTINUOUS
  0
LAYER
  2
126
 70
0
 62
7
  6
CONTINUOUS
  0
LAYER
  2
127
 70
0
 62
7
  6
CONTINUOUS
  0
LAYER
  2
128
 70
0
 62
7
  6
CONTINUOUS
  0
LAYER
  2
129
 70
0
 62
7
  6
CONTINUOUS
  0
LAYER
  2
130
 70
0
 62
7
  6
CONTINUOUS
  0
LAYER
  2
131
 70
0
 62
7
  6
CONTINUOUS
  0
LAYER
  2
132
 70
0
 62
7
  6
CONTINUOUS
  0
LAYER
  2
133
 70
0
 62
7
  6
CONTINUOUS
  0
LAYER
  2
134
 70
0
 62
7
  6
CONTINUOUS
  0
LAYER
  2
135
 70
0
 62
7
  6
CONTINUOUS
  0
LAYER
  2
136
 70
0
 62
7
  6
CONTINUOUS
  0
LAYER
  2
137
 70
0
 62
7
  6
CONTINUOUS
  0
LAYER
  2
138
 70
0
 62
7
  6
CONTINUOUS
  0
LAYER
  2
139
 70
0
 62
7
  6
CONTINUOUS
  0
LAYER
  2
140
 70
0
 62
7
  6
CONTINUOUS
  0
LAYER
  2
141
 70
0
 62
7
  6
CONTINUOUS
  0
LAYER
  2
142
 70
0
 62
7
  6
CONTINUOUS
  0
LAYER
  2
143
 70
0
 62
7
  6
CONTINUOUS
  0
LAYER
  2
144
 70
0
 62
7
  6
CONTINUOUS
  0
LAYER
  2
145
 70
0
 62
7
  6
CONTINUOUS
  0
LAYER
  2
146
 70
0
 62
7
  6
CONTINUOUS
  0
LAYER
  2
147
 70
0
 62
7
  6
CONTINUOUS
  0
LAYER
  2
148
 70
0
 62
7
  6
CONTINUOUS
  0
LAYER
  2
149
 70
0
 62
7
  6
CONTINUOUS
  0
LAYER
  2
150
 70
0
 62
7
  6
CONTINUOUS
  0
LAYER
  2
151
 70
0
 62
7
  6
CONTINUOUS
  0
LAYER
  2
152
 70
0
 62
7
  6
CONTINUOUS
  0
LAYER
  2
153
 70
0
 62
7
  6
CONTINUOUS
  0
LAYER
  2
154
 70
0
 62
7
  6
CONTINUOUS
  0
LAYER
  2
155
 70
0
 62
7
  6
CONTINUOUS
  0
LAYER
  2
156
 70
0
 62
7
  6
CONTINUOUS
  0
LAYER
  2
157
 70
0
 62
7
  6
CONTINUOUS
  0
LAYER
  2
158
 70
0
 62
7
  6
CONTINUOUS
  0
LAYER
  2
159
 70
0
 62
7
  6
CONTINUOUS
  0
LAYER
  2
160
 70
0
 62
7
  6
CONTINUOUS
  0
LAYER
  2
161
 70
0
 62
7
  6
CONTINUOUS
  0
LAYER
  2
162
 70
0
 62
7
  6
CONTINUOUS
  0
LAYER
  2
163
 70
0
 62
7
  6
CONTINUOUS
  0
LAYER
  2
164
 70
0
 62
7
  6
CONTINUOUS
  0
LAYER
  2
165
 70
0
 62
7
  6
CONTINUOUS
  0
LAYER
  2
166
 70
0
 62
7
  6
CONTINUOUS
  0
LAYER
  2
167
 70
0
 62
7
  6
CONTINUOUS
  0
LAYER
  2
168
 70
0
 62
7
  6
CONTINUOUS
  0
LAYER
  2
169
 70
0
 62
7
  6
CONTINUOUS
  0
LAYER
  2
170
 70
0
 62
7
  6
CONTINUOUS
  0
LAYER
  2
171
 70
0
 62
7
  6
CONTINUOUS
  0
LAYER
  2
172
 70
0
 62
7
  6
CONTINUOUS
  0
LAYER
  2
173
 70
0
 62
7
  6
CONTINUOUS
  0
LAYER
  2
174
 70
0
 62
7
  6
CONTINUOUS
  0
LAYER
  2
175
 70
0
 62
7
  6
CONTINUOUS
  0
LAYER
  2
176
 70
0
 62
7
  6
CONTINUOUS
  0
LAYER
  2
177
 70
0
 62
7
  6
CONTINUOUS
  0
LAYER
  2
178
 70
0
 62
7
  6
CONTINUOUS
  0
LAYER
  2
179
 70
0
 62
7
  6
CONTINUOUS
  0
LAYER
  2
180
 70
0
 62
7
  6
CONTINUOUS
  0
LAYER
  2
Drafting_Hidden_Entities
 70
1
 62
7
  6
CONTINUOUS
  0
ENDTAB
  0
TABLE
  2
STYLE
 70
1
  0
STYLE
  2
STANDARD
 70
64
 40
0.0
 41
1.0
 50
0.0
 71
0
 42
1.0
  3
monotxt.shx
  4
bigfont.shx
  0
ENDTAB
  0
TABLE
  2
VIEW
 70
0
  0
ENDTAB
  0
TABLE
  2
DIMSTYLE
 70
15
  0
DIMSTYLE
  2
DSTYLE1
 70
0
  3

  4

  5

  6

  7

 40
1.0
 41
7.5E-001
 42
1.25E-001
 43
3.8E-001
 44
6.25E-002
 45
1.0E-003
 46
0.0
 47
3.1E-002
 48
6.2E-002
 71
1
 72
0
 73
1
 74
1
 75
0
 76
0
 77
0
 78
7
140
2.5E-001
141
9.0E-002
142
0.0
143
1.0
144
1.0
145
0.0
146
1.0
147
6.25E-002
170
0
171
2
172
0
173
0
174
0
175
0
176
0
177
0
178
0
  0
DIMSTYLE
  2
DSTYLE2
 70
0
  3

  4

  5

  6

  7

 40
1.0
 41
1.25E-001
 42
6.25E-002
 43
3.8E-001
 44
1.25E-001
 45
1.0E-003
 46
0.0
 47
3.125E-002
 48
6.25E-002
 71
1
 72
0
 73
1
 74
1
 75
1
 76
0
 77
0
 78
7
140
2.5E-001
141
9.0E-002
142
0.0
143
1.0
144
1.0
145
0.0
146
1.0
147
6.25E-002
170
0
171
2
172
0
173
0
174
0
175
0
176
0
177
0
178
0
  0
DIMSTYLE
  2
DSTYLE3
 70
0
  3

  4

  5

  6

  7

 40
1.0
 41
1.25E-001
 42
7.5E-002
 43
3.8E-001
 44
2.0E-001
 45
1.0E-003
 46
0.0
 47
5.0E-003
 48
5.0E-003
 71
0
 72
0
 73
1
 74
1
 75
1
 76
1
 77
0
 78
7
140
2.0E-001
141
9.0E-002
142
0.0
143
2.54E+001
144
1.0
145
0.0
146
1.0
147
7.5E-002
170
0
171
2
172
0
173
0
174
0
175
0
176
0
177
0
178
0
  0
DIMSTYLE
  2
DSTYLE4
 70
0
  3

  4

  5

  6

  7

 40
1.0
 41
1.25E-001
 42
7.5E-002
 43
3.8E-001
 44
7.0E-002
 45
1.0E-003
 46
0.0
 47
5.0E-003
 48
5.0E-003
 71
0
 72
0
 73
1
 74
1
 75
1
 76
1
 77
0
 78
7
140
7.0E-002
141
9.0E-002
142
0.0
143
2.54E+001
144
1.0
145
0.0
146
1.0
147
7.5E-002
170
0
171
2
172
0
173
0
174
0
175
0
176
0
177
0
178
0
  0
DIMSTYLE
  2
DSTYLE5
 70
0
  3

  4

  5

  6

  7

 40
1.0
 41
1.25E-001
 42
7.5E-002
 43
3.8E-001
 44
1.25E-001
 45
1.0E-003
 46
0.0
 47
5.0E-003
 48
5.0E-003
 71
0
 72
0
 73
1
 74
1
 75
1
 76
1
 77
0
 78
7
140
1.25E-001
141
9.0E-002
142
0.0
143
2.54E+001
144
1.0
145
0.0
146
1.0
147
7.5E-002
170
0
171
2
172
0
173
0
174
0
175
0
176
0
177
0
178
0
  0
DIMSTYLE
  2
DSTYLE6
 70
0
  3

  4

  5

  6

  7

 40
1.0
 41
3.0E-001
 42
6.25E-002
 43
3.8E-001
 44
1.25E-001
 45
1.0E-003
 46
0.0
 47
5.0E-003
 48
5.0E-003
 71
0
 72
0
 73
1
 74
1
 75
1
 76
0
 77
0
 78
7
140
2.5E-001
141
9.0E-002
142
0.0
143
2.54E+001
144
1.0
145
0.0
146
1.0
147
6.25E-002
170
0
171
2
172
0
173
0
174
0
175
0
176
0
177
0
178
0
  0
DIMSTYLE
  2
DSTYLE7
 70
0
  3

  4

  5

  6

  7

 40
1.0
 41
1.25E-001
 42
6.25E-002
 43
3.8E-001
 44
1.25E-001
 45
1.0E-003
 46
0.0
 47
3.1E-002
 48
6.2E-002
 71
1
 72
0
 73
1
 74
1
 75
1
 76
0
 77
0
 78
7
140
2.5E-001
141
9.0E-002
142
0.0
143
2.54E+001
144
1.0
145
0.0
146
1.0
147
6.25E-002
170
0
171
2
172
1
173
0
174
0
175
0
176
0
177
0
178
0
  0
DIMSTYLE
  2
DSTYLE8
 70
0
  3

  4

  5

  6

  7

 40
1.0
 41
5.0E-001
 42
6.25E-002
 43
3.8E-001
 44
1.25E-001
 45
1.0E-003
 46
0.0
 47
5.0E-003
 48
5.0E-003
 71
0
 72
0
 73
1
 74
1
 75
1
 76
0
 77
0
 78
7
140
2.5E-001
141
9.0E-002
142
0.0
143
2.54E+001
144
1.0
145
0.0
146
1.0
147
6.25E-002
170
0
171
2
172
0
173
0
174
0
175
0
176
0
177
0
178
0
  0
DIMSTYLE
  2
DSTYLE9
 70
0
  3

  4

  5

  6

  7

 40
1.0
 41
3.75E-001
 42
1.25E-001
 43
3.8E-001
 44
6.25E-002
 45
1.0E-003
 46
0.0
 47
1.0
 48
-1.0
 71
0
 72
0
 73
1
 74
1
 75
1
 76
0
 77
0
 78
7
140
1.875E-001
141
9.0E-002
142
0.0
143
1.0
144
1.0
145
0.0
146
1.0
147
6.25E-002
170
0
171
2
172
0
173
0
174
0
175
0
176
0
177
0
178
0
  0
DIMSTYLE
  2
DSTYLE10
 70
0
  3

  4

  5

  6

  7

 40
1.0
 41
3.75E-001
 42
1.25E-001
 43
3.8E-001
 44
6.25E-002
 45
1.0E-003
 46
0.0
 47
1.0
 48
-1.0
 71
0
 72
0
 73
1
 74
1
 75
1
 76
0
 77
0
 78
7
140
2.5E-001
141
9.0E-002
142
0.0
143
1.0
144
1.0
145
0.0
146
1.0
147
6.25E-002
170
0
171
2
172
0
173
0
174
0
175
0
176
0
177
0
178
0
  0
DIMSTYLE
  2
DSTYLE11
 70
0
  3

  4

  5

  6

  7

 40
1.0
 41
1.875E-001
 42
1.25E-001
 43
3.8E-001
 44
6.25E-002
 45
1.0E-003
 46
0.0
 47
0.0
 48
6.25E-002
 71
1
 72
0
 73
1
 74
1
 75
0
 76
0
 77
0
 78
7
140
2.5E-001
141
9.0E-002
142
0.0
143
1.0
144
1.0
145
0.0
146
1.0
147
6.25E-002
170
0
171
2
172
0
173
0
174
0
175
0
176
0
177
0
178
0
  0
DIMSTYLE
  2
DSTYLE12
 70
0
  3

  4

  5

  6

  7

 40
1.0
 41
1.875E-001
 42
1.25E-001
 43
3.8E-001
 44
6.25E-002
 45
1.0E-003
 46
0.0
 47
5.0E-003
 48
5.0E-003
 71
0
 72
0
 73
1
 74
1
 75
0
 76
0
 77
0
 78
7
140
2.5E-001
141
9.0E-002
142
0.0
143
1.0
144
1.0
145
0.0
146
1.0
147
6.25E-002
170
0
171
2
172
0
173
0
174
0
175
0
176
0
177
0
178
0
  0
DIMSTYLE
  2
DSTYLE13
 70
0
  3

  4

  5

  6

  7

 40
1.0
 41
3.75E-001
 42
1.25E-001
 43
3.8E-001
 44
6.25E-002
 45
1.0E-003
 46
0.0
 47
1.0
 48
-1.0
 71
0
 72
0
 73
1
 74
1
 75
1
 76
0
 77
0
 78
7
140
2.5E-001
141
9.0E-002
142
0.0
143
1.0
144
1.0
145
0.0
146
1.0
147
6.25E-002
170
0
171
2
172
1
173
0
174
0
175
0
176
0
177
0
178
0
  0
DIMSTYLE
  2
DSTYLE14
 70
0
  3

  4

  5

  6

  7

 40
1.0
 41
1.875E-001
 42
1.25E-001
 43
3.8E-001
 44
6.25E-002
 45
1.0E-002
 46
0.0
 47
1.0
 48
-1.0
 71
0
 72
0
 73
1
 74
1
 75
1
 76
1
 77
0
 78
7
140
2.5E-001
141
9.0E-002
142
0.0
143
1.0
144
1.0
145
0.0
146
1.0
147
6.25E-002
170
0
171
2
172
0
173
0
174
0
175
0
176
0
177
0
178
0
  0
DIMSTYLE
  2
DSTYLE15
 70
0
  3

  4

  5

  6

  7

 40
1.0
 41
1.7857143E-001
 42
1.3392857E-002
 43
3.8E-001
 44
2.6785714E-002
 45
1.0E-003
 46
0.0
 47
5.0E-003
 48
5.0E-003
 71
0
 72
0
 73
1
 74
1
 75
1
 76
0
 77
0
 78
7
140
1.7857143E-001
141
9.0E-002
142
0.0
143
2.54E+001
144
1.0
145
0.0
146
1.0
147
1.3392857E-002
170
0
171
2
172
0
173
0
174
0
175
0
176
0
177
0
178
0
  0
ENDTAB
  0
ENDSEC
  0
SECTION
  2
BLOCKS
  0
BLOCK
  2
3621R
 10
0.0
 20
0.0
 70
0
  0
INSERT
  2
*D732
  8
1
 10
0.0
 20
0.0
  0
DIMENSION
  8
4
  6
CONTINUOUS
 62
3
  2
*D734
  3
DSTYLE11
 10
-2.2313988E+001
 20
-1.7018455E+001
 11
-4.9714127
 21
-1.7018455E+001
 70
128
 13
1.2371163E+001
 23
-7.1266014
 14
-2.2313988E+001
 24
-5.8504329
 40
0.0
 50
0.0
  0
DIMENSION
  8
4
  6
CONTINUOUS
 62
3
  2
*D735
  3
DSTYLE12
 10
1.4611025E+001
 20
-3.4101436E-002
 11
1.4611025E+001
 21
-7.1140513
 70
128
 13
6.0146624
 23
-1.4194001E+001
 14
6.0146624
 24
-3.4101436E-002
 40
0.0
 50
9.0E+001
  0
DIMENSION
  8
4
  6
CONTINUOUS
 62
3
  2
*D736
  3
DSTYLE12
 10
-2.5281816E+001
 20
5.3234525
 11
-2.5281816E+001
 21
-4.435301
 70
128
 13
-1.1298413E+001
 23
-1.4194055E+001
 14
-1.1298413E+001
 24
5.3234525
 40
0.0
 50
9.0E+001
  0
ARC
  8
126
  6
CONTINUOUS
 62
1
 10
8.3544998
 20
-1.0250977E+001
 40
3.7735
 50
2.7851762E+002
 51
3.5109956E+002
  0
ARC
  8
126
  6
CONTINUOUS
 62
1
 10
6.0146624
 20
-1.9406601E+001
 40
1.93725E+001
 50
8.1274025E+001
 51
8.99024E+001
  0
ARC
  8
126
  6
CONTINUOUS
 62
1
 10
-1.1596338E+001
 20
-7.1266014
 40
2.39675E+001
 50
3.5109956E+002
 51
3.6903876E+002
  0
LINE
  8
126
  6
CONTINUOUS
 62
1
 10
-1.1612335E+001
 20
-1.4194079E+001
 11
6.0476624
 21
-1.4194079E+001
  0
ARC
  8
126
  6
CONTINUOUS
 62
1
 10
-7.9689141
 20
-1.3839656
 40
6.5451881
 50
3.7516236E+001
 51
8.5788762E+001
  0
ARC
  8
126
  6
CONTINUOUS
 62
1
 10
8.3873901
 20
-3.9476311
 40
3.7325
 50
9.0387583
 51
8.1274026E+001
  0
LINE
  8
126
  6
CONTINUOUS
 62
1
 10
7.2150784E-001
 20
-3.4129543E-002
 11
4.2191858E-001
 21
-3.4129543E-002
  0
ARC
  8
126
  6
CONTINUOUS
 62
1
 10
-1.1298413E+001
 20
-3.5114048E+001
 40
4.04375E+001
 50
8.4593408E+001
 51
9.6243041E+001
  0
ARC
  8
126
  6
CONTINUOUS
 62
1
 10
-1.4690411E+001
 20
-1.3839656
 40
6.5452881
 50
9.8836207E+001
 51
1.3238822E+002
  0
ARC
  8
126
  6
CONTINUOUS
 62
1
 10
-1.1805858E+001
 20
-4.0331072
 40
1.0452234E+001
 50
1.3431906E+002
 51
1.7328933E+002
  0
ARC
  8
126
  6
CONTINUOUS
 62
1
 10
1.4029762E+001
 20
-5.850433
 40
3.634375E+001
 50
1.7522715E+002
 51
1.8754678E+002
  0
ARC
  8
126
  6
CONTINUOUS
 62
1
 10
-1.828176E+001
 20
-1.0131146E+001
 40
3.75
 50
1.8754677E+002
 51
2.6482216E+002
  0
ARC
  8
126
  6
CONTINUOUS
 62
1
 10
-1.1360913E+001
 20
6.6243421E+001
 40
8.04375E+001
 50
2.6482216E+002
 51
2.7E+002
  0
LINE
  8
126
  6
CONTINUOUS
 62
1
 10
4.8453455E-001
 20
-3.4129543E-002
 11
6.0476624
 21
-3.4129543E-002
  0
ARC
  8
126
  6
CONTINUOUS
 62
1
 10
-1.0853468E+001
 20
-4.0331072
 40
1.0452134E+001
 50
3.0433057E+001
 51
3.9405554E+001
  0
ARC
  8
126
  6
CONTINUOUS
 62
1
 10
4.2191858E-001
 20
2.5908705
 40
2.625
 50
2.1043306E+002
 51
2.7E+002
  0
ARC
  8
126
  6
CONTINUOUS
 62
1
 10
6.0146624
 20
5.1533986
 40
1.93725E+001
 50
2.700976E+002
 51
2.7872597E+002
  0
DIMENSION
  8
1
  6
CONTINUOUS
 62
3
  2
*D754
  3
DSTYLE13
 10
8.3544998
 20
-1.0250977E+001
 11
6.9756097
 21
-9.9222969
 70
4
 15
1.0971457E+001
 25
-1.2969586E+001
 40
-4.2297161
  0
INSERT
  2
*D755
  8
1
 10
0.0
 20
0.0
  0
DIMENSION
  8
1
  6
CONTINUOUS
 62
3
  2
*D756
  3
DSTYLE10
 10
8.3873901
 20
-3.9476311
 11
7.1407129
 21
-4.1436853
 70
4
 15
1.0942979E+001
 25
-1.2272407
 40
-4.0014953
  0
INSERT
  2
*D757
  8
1
 10
0.0
 20
0.0
  0
LINE
  8
1
  6
CONTINUOUS
 62
3
 10
0.0
 20
-2.2248464E-001
 11
0.0
 21
-2.5339293
  0
DIMENSION
  8
1
  6
CONTINUOUS
 62
3
  1
<>
  2
*D759
  3
DSTYLE14
 10
0.0
 20
-1.1110937E+001
 11
-2.1359166
 21
-1.2058162E+001
 70
130
 13
-3.0831422
 23
-1.4194079E+001
 14
-1.1737335E+001
 24
-1.4194079E+001
 15
0.0
 25
-9.7484636E-002
 16
-3.0206422
 26
-1.4194079E+001
  0
DIMENSION
  8
1
  6
CONTINUOUS
 62
3
  2
*D760
  3
DSTYLE10
 10
4.2191858E-001
 20
2.5908705
 11
1.5684803
 21
2.7493728
 70
4
 15
-8.0798607E-001
 25
2.7182764E-001
 40
-2.8044139
  0
TEXT
  8
1
  6
CONTINUOUS
 62
3
 10
3.4376172
 20
2.1302359
 40
2.5E-001
  1
(REF)
 72
2
 11
2.1876172
 21
2.1302359
  0
LINE
  8
1
  6
CONTINUOUS
 62
3
 10
0.0
 20
-1.0500158E+001
 11
0.0
 21
-1.4194079E+001
  0
INSERT
  2
*D763
  8
1
 10
0.0
 20
0.0
  0
TEXT
  8
1
  6
CONTINUOUS
 62
3
 10
2.0608028
 20
-3.4614863
 40
2.5E-001
  1
TYP. 2 PLACES
 72
2
 11
-1.1891972
 21
-3.4614863
  0
INSERT
  2
*D765
  8
1
 10
0.0
 20
0.0
  0
INSERT
  2
*D766
  8
1
 10
0.0
 20
0.0
  0
INSERT
  2
*D767
  8
1
 10
0.0
 20
0.0
  0
INSERT
  2
*D768
  8
1
 10
0.0
 20
0.0
  0
TEXT
  8
1
  6
CONTINUOUS
 62
3
 10
-3.1665104
 20
-1.3993304E-001
 40
2.5E-001
  1
(REF)
 72
2
 11
-4.4165104
 21
-1.3993304E-001
  0
TEXT
  8
1
  6
CONTINUOUS
 62
3
 10
-5.5605067
 20
1.0570651
 40
2.5E-001
  1
(REF)
 72
2
 11
-6.8105067
 21
1.0570651
  0
TEXT
  8
1
  6
CONTINUOUS
 62
3
 10
-8.7800189
 20
8.9196196E-001
 40
2.5E-001
  1
(REF)
 72
2
 11
-1.0030019E+001
 21
8.9196196E-001
  0
TEXT
  8
1
  6
CONTINUOUS
 62
3
 10
-1.2866323E+001
 20
8.9196196E-001
 40
2.5E-001
  1
(REF)
 72
2
 11
-1.4116323E+001
 21
8.9196196E-001
  0
INSERT
  2
*D773
  8
1
 10
0.0
 20
0.0
  0
TEXT
  8
1
  6
CONTINUOUS
 62
3
 10
-1.5177767E+001
 20
-1.0892763
 40
2.5E-001
  1
(REF)
 72
2
 11
-1.6427767E+001
 21
-1.0892763
  0
INSERT
  2
*D775
  8
1
 10
0.0
 20
0.0
  0
TEXT
  8
1
  6
CONTINUOUS
 62
3
 10
-1.6085835E+001
 20
-5.3819592
 40
2.5E-001
  1
(REF)
 72
2
 11
-1.7335835E+001
 21
-5.3819592
  0
TEXT
  8
1
  6
CONTINUOUS
 62
3
 10
-1.5012087E+001
 20
-8.8211481
 40
3.75E-001
  1
TOP
 41
1.0
 72
2
 11
-1.6137086E+001
 21
-8.8211481
  0
TEXT
  8
1
  6
CONTINUOUS
 62
3
 10
-1.2236053E+001
 20
-9.4454866
 40
3.75E-001
  1
ELU3621R
 72
2
 11
-1.5236053E+001
 21
-9.4454866
  0
TEXT
  8
1
  6
CONTINUOUS
 62
3
 10
-1.0705464E+001
 20
-1.0157847E+001
 40
5.0E-001
  1
74180180
 72
2
 11
-1.4705464E+001
 21
-1.0157847E+001
  0
INSERT
  2
*D780
  8
1
 10
0.0
 20
0.0
  0
TEXT
  8
1
  6
CONTINUOUS
 62
3
 10
-1.6828799E+001
 20
-1.2068638E+001
 40
2.5E-001
  1
(REF)
 72
2
 11
-1.8078799E+001
 21
-1.2068638E+001
  0
INSERT
  2
*D782
  8
1
 10
0.0
 20
0.0
  0
TEXT
  8
1
  6
CONTINUOUS
 62
3
 10
-1.1710601E+001
 20
-1.2481396E+001
 40
2.5E-001
  1
(REF)
 72
2
 11
-1.2960601E+001
 21
-1.2481396E+001
  0
POINT
  8
1
  6
CONTINUOUS
 62
1
 10
0.0
 20
0.0
  0
ENDBLK
  0
BLOCK
  2
*TX29
  3
*TX
 10
0.0
 20
0.0
 70
65
  0
TEXT
  8
1
  6
CONTINUOUS
 62
3
 10
2.4
 20
2.5E-001
 40
5.0E-001
  1
THIS SIDE UP
 41
8.0E-001
 72
1
 73
2
 11
0.0
 21
0.0
  0
TEXT
  8
1
  6
CONTINUOUS
 62
3
 10
4.0E-001
 20
-5.0E-001
 40
5.0E-001
  1
  
 41
8.0E-001
 72
1
 73
2
 11
0.0
 21
-7.5E-001
  0
TEXT
  8
1
  6
CONTINUOUS
 62
3
 10
4.0E-001
 20
-1.25
 40
5.0E-001
  1
  
 41
8.0E-001
 72
1
 73
2
 11
0.0
 21
-1.5
  0
ENDBLK
  0
BLOCK
  2
*TX30
  3
*TX
 10
0.0
 20
0.0
 70
65
  0
TEXT
  8
1
  6
CONTINUOUS
 62
1
 10
0.0
 20
0.0
 40
1.25E-001
  1
WARNING: This cutout template will create a countertop opening that
 41
8.0E-001
  0
TEXT
  8
1
  6
CONTINUOUS
 62
1
 10
0.0
 20
-1.875E-001
 40
1.25E-001
  1
will expose 7/16" to 9/16" of sink rim ledge.  it is recommended that you
 41
8.0E-001
  0
TEXT
  8
1
  6
CONTINUOUS
 62
1
 10
0.0
 20
-3.75E-001
 40
1.25E-001
  1
discuss this with your customer and agree that this finished appearance
 41
8.0E-001
  0
TEXT
  8
1
  6
CONTINUOUS
 62
1
 10
0.0
 20
-5.625E-001
 40
1.25E-001
  1
is the desired one.  Please refer to the installation instructions forr
 41
8.0E-001
  0
TEXT
  8
1
  6
CONTINUOUS
 62
1
 10
0.0
 20
-7.5E-001
 40
1.25E-001
  1
details.  Elkay Manufacturing Company is not responsible for improper
 41
8.0E-001
  0
TEXT
  8
1
  6
CONTINUOUS
 62
1
 10
0.0
 20
-9.375E-001
 40
1.25E-001
  1
sink or countertop installations.
 41
8.0E-001
  0
ENDBLK
  0
BLOCK
  2
LABEL
 10
0.0
 20
0.0
 70
0
  0
LINE
  8
1
  6
CONTINUOUS
 62
1
 10
-8.5
 20
-4.5
 11
-8.5
 21
0.0
  0
LINE
  8
1
  6
CONTINUOUS
 62
1
 10
-8.5
 20
0.0
 11
0.0
 21
0.0
  0
LINE
  8
1
  6
CONTINUOUS
 62
1
 10
-8.5
 20
-4.5
 11
0.0
 21
-4.5
  0
LINE
  8
1
  6
CONTINUOUS
 62
1
 10
0.0
 20
-4.5
 11
0.0
 21
0.0
  0
TEXT
  8
1
  6
CONTINUOUS
 62
3
 10
-2.6473396
 20
-2.0000157
 40
5.0E-001
  1
ELU3119L
 41
8.0E-001
 72
1
 73
2
 11
-4.2473396
 21
-2.2500157
  0
TEXT
  8
1
  6
CONTINUOUS
 62
3
 10
-2.9607301
 20
-1.3277659
 40
2.5E-001
  1
for sink model
 41
8.0E-001
 72
1
 73
2
 11
-4.3607301
 21
-1.4527659
  0
TEXT
  8
1
  6
CONTINUOUS
 62
1
 10
-7.5129844
 20
-4.2421708
 40
1.25E-001
  1
Position this side of template towards cabinet/countertop front
 41
8.0E-001
  0
INSERT
  2
*TX29
  8
1
 10
-4.2473396
 20
-6.2501571E-001
  0
INSERT
  2
*TX30
  8
1
 10
-7.7851215
 20
-3.006215
  0
POINT
  8
1
  6
CONTINUOUS
 62
1
 10
0.0
 20
0.0
  0
ENDBLK
  0
BLOCK
  2
*TX34
  3
*TX
 10
0.0
 20
0.0
 70
65
  0
TEXT
  8
1
  6
CONTINUOUS
 62
1
 10
0.0
 20
0.0
 40
1.0E-001
  1
WARNING: This cutout template will create a countertop opening that
  0
TEXT
  8
1
  6
CONTINUOUS
 62
1
 10
0.0
 20
-1.5E-001
 40
1.0E-001
  1
will expose 7/16" to 9/16" of sink rim ledge.  It is recommended that you
  0
TEXT
  8
1
  6
CONTINUOUS
 62
1
 10
0.0
 20
-3.0E-001
 40
1.0E-001
  1
discuss this with your customer and agree that this finished appearance
  0
TEXT
  8
1
  6
CONTINUOUS
 62
1
 10
0.0
 20
-4.5E-001
 40
1.0E-001
  1
is the desired one.  Please refer to the installation instructions for
  0
TEXT
  8
1
  6
CONTINUOUS
 62
1
 10
0.0
 20
-6.0E-001
 40
1.0E-001
  1
details.  Elkay Manufacturing Company is not responsible for improper
  0
TEXT
  8
1
  6
CONTINUOUS
 62
1
 10
0.0
 20
-7.5E-001
 40
1.0E-001
  1
sink or countertop installations.
  0
ENDBLK
  0
BLOCK
  2
NOTE
 10
0.0
 20
0.0
 70
0
  0
TEXT
  8
1
  6
CONTINUOUS
 62
1
 10
-7.5129844
 20
2.5782919E-001
 40
1.0E-001
  1
Position this side of template towards cabinet/countertop front
  0
INSERT
  2
*D827
  8
1
 10
0.0
 20
0.0
  0
INSERT
  2
*D828
  8
1
 10
0.0
 20
0.0
  0
INSERT
  2
*TX34
  8
1
 10
-7.7851215
 20
1.493785
  0
POINT
  8
1
  6
CONTINUOUS
 62
1
 10
0.0
 20
0.0
  0
ENDBLK
  0
BLOCK
  2
*TX41
  3
*TX
 10
0.0
 20
0.0
 70
65
  0
TEXT
  8
1
  6
CONTINUOUS
 62
3
 10
2.4
 20
2.5E-001
 40
5.0E-001
  1
THIS SIDE UP
 41
8.0E-001
 72
1
 73
2
 11
0.0
 21
0.0
  0
TEXT
  8
1
  6
CONTINUOUS
 62
3
 10
4.0E-001
 20
-5.0E-001
 40
5.0E-001
  1
  
 41
8.0E-001
 72
1
 73
2
 11
0.0
 21
-7.5E-001
  0
TEXT
  8
1
  6
CONTINUOUS
 62
3
 10
4.0E-001
 20
-1.25
 40
5.0E-001
  1
  
 41
8.0E-001
 72
1
 73
2
 11
0.0
 21
-1.5
  0
ENDBLK
  0
BLOCK
  2
*TX42
  3
*TX
 10
0.0
 20
0.0
 70
65
  0
TEXT
  8
1
  6
CONTINUOUS
 62
1
 10
0.0
 20
0.0
 40
1.25E-001
  1
WARNING: This cutout template will create a countertop opening that
 41
8.0E-001
  0
TEXT
  8
1
  6
CONTINUOUS
 62
1
 10
0.0
 20
-1.875E-001
 40
1.25E-001
  1
will expose 7/16" to 9/16" of sink rim ledge.  it is recommended that you
 41
8.0E-001
  0
TEXT
  8
1
  6
CONTINUOUS
 62
1
 10
0.0
 20
-3.75E-001
 40
1.25E-001
  1
discuss this with your customer and agree that this finished appearance
 41
8.0E-001
  0
TEXT
  8
1
  6
CONTINUOUS
 62
1
 10
0.0
 20
-5.625E-001
 40
1.25E-001
  1
is the desired one.  Please refer to the installation instructions forr
 41
8.0E-001
  0
TEXT
  8
1
  6
CONTINUOUS
 62
1
 10
0.0
 20
-7.5E-001
 40
1.25E-001
  1
details.  Elkay Manufacturing Company is not responsible for improper
 41
8.0E-001
  0
TEXT
  8
1
  6
CONTINUOUS
 62
1
 10
0.0
 20
-9.375E-001
 40
1.25E-001
  1
sink or countertop installations.
 41
8.0E-001
  0
ENDBLK
  0
BLOCK
  2
LABELS
 10
0.0
 20
0.0
 70
0
  0
TEXT
  8
1
  6
CONTINUOUS
 62
3
 10
-3.5607301
 20
-2.3692702
 40
2.5E-001
  1
74180232
 41
8.0E-001
 72
1
 73
2
 11
-4.3607301
 21
-2.4942702
  0
LINE
  8
1
  6
CONTINUOUS
 62
1
 10
-8.5
 20
-4.5
 11
-8.5
 21
0.0
  0
LINE
  8
1
  6
CONTINUOUS
 62
1
 10
-8.5
 20
0.0
 11
0.0
 21
0.0
  0
LINE
  8
1
  6
CONTINUOUS
 62
1
 10
-8.5
 20
-4.5
 11
0.0
 21
-4.5
  0
LINE
  8
1
  6
CONTINUOUS
 62
1
 10
0.0
 20
-4.5
 11
0.0
 21
0.0
  0
TEXT
  8
1
  6
CONTINUOUS
 62
3
 10
-2.6473396
 20
-1.6196926
 40
5.0E-001
  1
ELU3119L
 41
8.0E-001
 72
1
 73
2
 11
-4.2473396
 21
-1.8696926
  0
TEXT
  8
1
  6
CONTINUOUS
 62
3
 10
-2.9607301
 20
-1.0919493
 40
2.5E-001
  1
for sink model
 41
8.0E-001
 72
1
 73
2
 11
-4.3607301
 21
-1.2169493
  0
TEXT
  8
1
  6
CONTINUOUS
 62
1
 10
-7.5129844
 20
-4.2421708
 40
1.25E-001
  1
Position this side of template towards cabinet/countertop front
 41
8.0E-001
  0
INSERT
  2
*TX41
  8
1
 10
-4.2473396
 20
-6.2501571E-001
  0
INSERT
  2
*TX42
  8
1
 10
-7.7851215
 20
-3.006215
  0
POINT
  8
1
  6
CONTINUOUS
 62
1
 10
0.0
 20
0.0
  0
ENDBLK
  0
BLOCK
  2
*TX45
  3
*TX
 10
0.0
 20
0.0
 70
65
  0
TEXT
  8
126
  6
CONTINUOUS
 62
3
 10
0.0
 20
0.0
 40
8.0E-002
  1
RL - ECNBV06100 13APR06
  0
TEXT
  8
126
  6
CONTINUOUS
 62
3
 10
0.0
 20
-1.2E-001
 40
8.0E-002
  1
 A - ECNBV07085 25MAY07
  0
ENDBLK
  0
BLOCK
  2
*TX46
  3
*TX
 10
0.0
 20
0.0
 70
65
  0
TEXT
  8
126
  6
CONTINUOUS
 62
3
 10
0.0
 20
0.0
 40
1.75E-001
  1
NOTE:
 41
1.047619
 51
-4.1943E-006
  0
TEXT
  8
126
  6
CONTINUOUS
 62
3
 10
0.0
 20
-2.625E-001
 40
1.75E-001
  1
DIMENSIONS ARE FOR COSTING ONLY
 41
1.047619
 51
-4.1943E-006
  0
TEXT
  8
126
  6
CONTINUOUS
 62
3
 10
0.0
 20
-5.25E-001
 40
1.75E-001
  1
SAMPLES SHOULD BE CHECKED FOR
 41
1.047619
 51
-4.1943E-006
  0
TEXT
  8
126
  6
CONTINUOUS
 62
3
 10
0.0
 20
-7.875E-001
 40
1.75E-001
  1
FINAL FIT.
 41
1.047619
 51
-4.1943E-006
  0
ENDBLK
  0
BLOCK
  2
LK-LUMB
 10
0.0
 20
0.0
 70
0
  0
LINE
  8
1
  6
CONTINUOUS
 62
3
 10
1.4900172
 20
-2.3173986E-001
 11
1.4850421
 21
-2.354542E-001
  0
LINE
  8
1
  6
CONTINUOUS
 62
3
 10
1.6282697
 20
-1.202749E-001
 11
1.6329923
 21
-1.249975E-001
  0
LINE
  8
1
  6
CONTINUOUS
 62
3
 10
1.6172211
 20
-1.202749E-001
 11
1.6266666
 21
-1.297203E-001
  0
LINE
  8
1
  6
CONTINUOUS
 62
3
 10
1.6061726
 20
-1.202749E-001
 11
1.6203408
 21
-1.344429E-001
  0
LINE
  8
1
  6
CONTINUOUS
 62
3
 10
1.595124
 20
-1.202749E-001
 11
1.6140149
 21
-1.391658E-001
  0
LINE
  8
1
  6
CONTINUOUS
 62
3
 10
1.5840755
 20
-1.202749E-001
 11
1.6076892
 21
-1.438886E-001
  0
TEXT
  8
180
  6
CONTINUOUS
 62
1
 10
3.817902
 20
-1.657576E-001
 40
1.0E-001
  1
SOUTHERN CORPORATION
 72
1
 73
2
 11
2.817902
 21
-2.157576E-001
  0
TEXT
  8
126
  6
CONTINUOUS
 62
3
 10
3.6389597
 20
-3.2460379E-001
 40
7.0E-002
  1
LUMBERTON, NORTH CAROLINA
 72
1
 73
2
 11
2.7639597
 21
-3.596038E-001
  0
LINE
  8
1
  6
CONTINUOUS
 62
3
 10
1.5751944
 20
-1.224421E-001
 11
1.6013632
 21
-1.486112E-001
  0
LINE
  8
1
  6
CONTINUOUS
 62
3
 10
1.5688684
 20
-1.27165E-001
 11
1.5950375
 21
-1.53334E-001
  0
LINE
  8
1
  6
CONTINUOUS
 62
3
 10
1.5625427
 20
-1.318878E-001
 11
1.5887117
 21
-1.5805659E-001
  0
LINE
  8
1
  6
CONTINUOUS
 62
3
 10
1.556217
 20
-1.366104E-001
 11
1.5823858
 21
-1.6277939E-001
  0
LINE
  8
1
  6
CONTINUOUS
 62
3
 10
1.549891
 20
-1.4133319E-001
 11
1.5760601
 21
-1.6750199E-001
  0
LINE
  8
1
  6
CONTINUOUS
 62
3
 10
1.5435653
 20
-1.4605579E-001
 11
1.5697341
 21
-1.7222489E-001
  0
LINE
  8
1
  6
CONTINUOUS
 62
3
 10
1.5372393
 20
-1.5077859E-001
 11
1.5634084
 21
-1.769475E-001
  0
LINE
  8
1
  6
CONTINUOUS
 62
3
 10
1.5309136
 20
-1.555012E-001
 11
1.5570827
 21
-1.816703E-001
  0
LINE
  8
1
  6
CONTINUOUS
 62
3
 10
1.5245879
 20
-1.602241E-001
 11
1.5507567
 21
-1.863929E-001
  0
LINE
  8
1
  6
CONTINUOUS
 62
3
 10
1.5182619
 20
-1.649467E-001
 11
1.544431
 21
-1.911157E-001
  0
LINE
  8
1
  6
CONTINUOUS
 62
3
 10
1.5119362
 20
-1.696695E-001
 11
1.538105
 21
-1.958386E-001
  0
LINE
  8
1
  6
CONTINUOUS
 62
3
 10
1.5056102
 20
-1.743923E-001
 11
1.5317793
 21
-2.005612E-001
  0
LINE
  8
1
  6
CONTINUOUS
 62
3
 10
1.4992845
 20
-1.791149E-001
 11
1.5254536
 21
-2.05284E-001
  0
LINE
  8
1
  6
CONTINUOUS
 62
3
 10
1.4929588
 20
-1.838378E-001
 11
1.5191276
 21
-2.1000659E-001
  0
LINE
  8
1
  6
CONTINUOUS
 62
3
 10
1.4866328
 20
-1.8856039E-001
 11
1.5128019
 21
-2.1472939E-001
  0
LINE
  8
1
  6
CONTINUOUS
 62
3
 10
1.3741531
 20
-1.202749E-001
 11
1.4874985
 21
-2.336203E-001
  0
LINE
  8
1
  6
CONTINUOUS
 62
3
 10
1.3631046
 20
-1.202749E-001
 11
1.4840291
 21
-2.411994E-001
  0
LINE
  8
1
  6
CONTINUOUS
 62
3
 10
1.352056
 20
-1.202749E-001
 11
1.482373
 21
-2.505919E-001
  0
LINE
  8
1
  6
CONTINUOUS
 62
3
 10
1.3410075
 20
-1.202749E-001
 11
1.480717
 21
-2.599841E-001
  0
LINE
  8
1
  6
CONTINUOUS
 62
3
 10
1.3299589
 20
-1.202749E-001
 11
1.4790607
 21
-2.693766E-001
  0
LINE
  8
1
  6
CONTINUOUS
 62
3
 10
1.3189104
 20
-1.202749E-001
 11
1.4774046
 21
-2.787691E-001
  0
LINE
  8
1
  6
CONTINUOUS
 62
3
 10
1.337281
 20
-1.496941E-001
 11
1.4757485
 21
-2.8816139E-001
  0
LINE
  8
1
  6
CONTINUOUS
 62
3
 10
1.4267233
 20
-2.501846E-001
 11
1.4740923
 21
-2.975539E-001
  0
LINE
  8
1
  6
CONTINUOUS
 62
3
 10
1.4250672
 20
-2.5957709E-001
 11
1.4724362
 21
-3.0694619E-001
  0
LINE
  8
1
  6
CONTINUOUS
 62
3
 10
1.2747161
 20
-1.202749E-001
 11
1.2831123
 21
-1.28671E-001
  0
LINE
  8
1
  6
CONTINUOUS
 62
3
 10
1.4234109
 20
-2.689696E-001
 11
1.4631455
 21
-3.087042E-001
  0
LINE
  8
1
  6
CONTINUOUS
 62
3
 10
1.2636676
 20
-1.202749E-001
 11
1.2935698
 21
-1.501769E-001
  0
LINE
  8
1
  6
CONTINUOUS
 62
3
 10
1.4217548
 20
-2.783619E-001
 11
1.4520969
 21
-3.087042E-001
  0
LINE
  8
1
  6
CONTINUOUS
 62
3
 10
1.2526193
 20
-1.202749E-001
 11
1.3040271
 21
-1.716829E-001
  0
LINE
  8
1
  6
CONTINUOUS
 62
3
 10
1.4200988
 20
-2.877544E-001
 11
1.4410486
 21
-3.087042E-001
  0
LINE
  8
1
  6
CONTINUOUS
 62
3
 10
1.2415707
 20
-1.202749E-001
 11
1.3144846
 21
-1.931888E-001
  0
LINE
  8
1
  6
CONTINUOUS
 62
3
 10
1.4184425
 20
-2.971469E-001
 11
1.4300001
 21
-3.087042E-001
  0
LINE
  8
1
  6
CONTINUOUS
 62
3
 10
1.2305222
 20
-1.202749E-001
 11
1.3249421
 21
-2.146949E-001
  0
LINE
  8
1
  6
CONTINUOUS
 62
3
 10
1.4167864
 20
-3.0653919E-001
 11
1.4189515
 21
-3.087042E-001
  0
LINE
  8
1
  6
CONTINUOUS
 62
3
 10
1.2194736
 20
-1.202749E-001
 11
1.3353994
 21
-2.3620069E-001
  0
LINE
  8
1
  6
CONTINUOUS
 62
3
 10
1.2084251
 20
-1.202749E-001
 11
1.2232361
 21
-1.350859E-001
  0
LINE
  8
1
  6
CONTINUOUS
 62
3
 10
1.2270844
 20
-1.389342E-001
 11
1.3458569
 21
-2.5770679E-001
  0
LINE
  8
1
  6
CONTINUOUS
 62
3
 10
1.1973765
 20
-1.202749E-001
 11
1.2180801
 21
-1.409784E-001
  0
LINE
  8
1
  6
CONTINUOUS
 62
3
 10
1.2375417
 20
-1.604401E-001
 11
1.3563142
 21
-2.792126E-001
  0
LINE
  8
1
  6
CONTINUOUS
 62
3
 10
1.1869688
 20
-1.209158E-001
 11
1.2129243
 21
-1.46871E-001
  0
LINE
  8
1
  6
CONTINUOUS
 62
3
 10
1.2479992
 20
-1.819462E-001
 11
1.3667717
 21
-3.0071869E-001
  0
LINE
  8
1
  6
CONTINUOUS
 62
3
 10
1.181813
 20
-1.2680829E-001
 11
1.2077682
 21
-1.527637E-001
  0
LINE
  8
1
  6
CONTINUOUS
 62
3
 10
1.2584567
 20
-2.03452E-001
 11
1.3637087
 21
-3.087042E-001
  0
LINE
  8
1
  6
CONTINUOUS
 62
3
 10
1.176657
 20
-1.3270099E-001
 11
1.2026122
 21
-1.586562E-001
  0
LINE
  8
1
  6
CONTINUOUS
 62
3
 10
1.268914
 20
-2.249581E-001
 11
1.3526602
 21
-3.087042E-001
  0
LINE
  8
1
  6
CONTINUOUS
 62
3
 10
1.1715009
 20
-1.385935E-001
 11
1.1974561
 21
-1.6454869E-001
  0
LINE
  8
1
  6
CONTINUOUS
 62
3
 10
1.2786117
 20
-2.4570429E-001
 11
1.3416116
 21
-3.087042E-001
  0
LINE
  8
1
  6
CONTINUOUS
 62
3
 10
1.1663449
 20
-1.444861E-001
 11
1.1923003
 21
-1.7044129E-001
  0
LINE
  8
1
  6
CONTINUOUS
 62
3
 10
1.2675631
 20
-2.4570429E-001
 11
1.3305631
 21
-3.087042E-001
  0
LINE
  8
1
  6
CONTINUOUS
 62
3
 10
1.1611891
 20
-1.503786E-001
 11
1.1871443
 21
-1.7633399E-001
  0
LINE
  8
1
  6
CONTINUOUS
 62
3
 10
1.2565146
 20
-2.4570429E-001
 11
1.2828896
 21
-2.7207909E-001
  0
LINE
  8
1
  6
CONTINUOUS
 62
3
 10
1.3002863
 20
-2.8947579E-001
 11
1.3195145
 21
-3.087042E-001
  0
LINE
  8
1
  6
CONTINUOUS
 62
3
 10
1.156033
 20
-1.562711E-001
 11
1.1819882
 21
-1.8222649E-001
  0
LINE
  8
1
  6
CONTINUOUS
 62
3
 10
1.245466
 20
-2.4570429E-001
 11
1.2718411
 21
-2.7207909E-001
  0
LINE
  8
1
  6
CONTINUOUS
 62
3
 10
1.150877
 20
-1.621638E-001
 11
1.1768322
 21
-1.88119E-001
  0
LINE
  8
1
  6
CONTINUOUS
 62
3
 10
1.2344174
 20
-2.4570429E-001
 11
1.2607925
 21
-2.7207909E-001
  0
LINE
  8
1
  6
CONTINUOUS
 62
3
 10
1.145721
 20
-1.680564E-001
 11
1.1716764
 21
-1.940116E-001
  0
LINE
  8
1
  6
CONTINUOUS
 62
3
 10
1.2233689
 20
-2.4570429E-001
 11
1.2497439
 21
-2.7207909E-001
  0
LINE
  8
1
  6
CONTINUOUS
 62
3
 10
1.1405652
 20
-1.7394889E-001
 11
1.1665204
 21
-1.999041E-001
  0
LINE
  8
1
  6
CONTINUOUS
 62
3
 10
1.2123203
 20
-2.4570429E-001
 11
1.2386954
 21
-2.7207909E-001
  0
LINE
  8
1
  6
CONTINUOUS
 62
3
 10
1.1354091
 20
-1.7984139E-001
 11
1.1613643
 21
-2.057968E-001
  0
LINE
  8
1
  6
CONTINUOUS
 62
3
 10
1.2012718
 20
-2.4570429E-001
 11
1.2276468
 21
-2.7207909E-001
  0
LINE
  8
1
  6
CONTINUOUS
 62
3
 10
1.1302531
 20
-1.8573409E-001
 11
1.1562085
 21
-2.116893E-001
  0
LINE
  8
1
  6
CONTINUOUS
 62
3
 10
1.1902232
 20
-2.4570429E-001
 11
1.2165983
 21
-2.7207909E-001
  0
LINE
  8
1
  6
CONTINUOUS
 62
3
 10
1.1250973
 20
-1.916267E-001
 11
1.1510525
 21
-2.175819E-001
  0
LINE
  8
1
  6
CONTINUOUS
 62
3
 10
1.1791747
 20
-2.4570429E-001
 11
1.2055497
 21
-2.7207909E-001
  0
LINE
  8
1
  6
CONTINUOUS
 62
3
 10
1.1199412
 20
-1.975192E-001
 11
1.1458964
 21
-2.2347439E-001
  0
LINE
  8
1
  6
CONTINUOUS
 62
3
 10
1.1681261
 20
-2.4570429E-001
 11
1.1945012
 21
-2.7207909E-001
  0
LINE
  8
1
  6
CONTINUOUS
 62
3
 10
1.0316484
 20
-1.202749E-001
 11
1.0346322
 21
-1.232587E-001
  0
LINE
  8
1
  6
CONTINUOUS
 62
3
 10
1.1147852
 20
-2.034117E-001
 11
1.1407404
 21
-2.2936709E-001
  0
LINE
  8
1
  6
CONTINUOUS
 62
3
 10
1.1570776
 20
-2.4570429E-001
 11
1.1834526
 21
-2.7207909E-001
  0
LINE
  8
1
  6
CONTINUOUS
 62
3
 10
1.0205999
 20
-1.202749E-001
 11
1.0275827
 21
-1.272577E-001
  0
LINE
  8
1
  6
CONTINUOUS
 62
3
 10
1.1096292
 20
-2.093042E-001
 11
1.1355846
 21
-2.3525959E-001
  0
LINE
  8
1
  6
CONTINUOUS
 62
3
 10
1.146029
 20
-2.4570429E-001
 11
1.1724041
 21
-2.7207909E-001
  0
LINE
  8
1
  6
CONTINUOUS
 62
3
 10
1.0095513
 20
-1.202749E-001
 11
1.0205331
 21
-1.312567E-001
  0
LINE
  8
1
  6
CONTINUOUS
 62
3
 10
1.1044734
 20
-2.15197E-001
 11
1.1304286
 21
-2.411522E-001
  0
LINE
  8
1
  6
CONTINUOUS
 62
3
 10
1.1349807
 20
-2.4570429E-001
 11
1.1613555
 21
-2.7207909E-001
  0
LINE
  8
1
  6
CONTINUOUS
 62
3
 10
9.9850265E-001
 20
-1.202749E-001
 11
1.0134838
 21
-1.3525589E-001
  0
LINE
  8
1
  6
CONTINUOUS
 62
3
 10
1.0993173
 20
-2.210895E-001
 11
1.1503069
 21
-2.7207909E-001
  0
LINE
  8
1
  6
CONTINUOUS
 62
3
 10
9.8745415E-001
 20
-1.202749E-001
 11
1.0064342
 21
-1.3925489E-001
  0
LINE
  8
1
  6
CONTINUOUS
 62
3
 10
1.0941613
 20
-2.2698199E-001
 11
1.1392584
 21
-2.7207909E-001
  0
LINE
  8
1
  6
CONTINUOUS
 62
3
 10
9.7640555E-001
 20
-1.202749E-001
 11
9.9938455E-001
 21
-1.4325389E-001
  0
LINE
  8
1
  6
CONTINUOUS
 62
3
 10
1.0890052
 20
-2.3287449E-001
 11
1.1282098
 21
-2.7207909E-001
  0
LINE
  8
1
  6
CONTINUOUS
 62
3
 10
9.6546835E-001
 20
-1.203862E-001
 11
9.9233505E-001
 21
-1.4725289E-001
  0
LINE
  8
1
  6
CONTINUOUS
 62
3
 10
1.0838494
 20
-2.3876729E-001
 11
1.1171613
 21
-2.7207909E-001
  0
LINE
  8
1
  6
CONTINUOUS
 62
3
 10
9.5841905E-001
 20
-1.243852E-001
 11
9.8528575E-001
 21
-1.512521E-001
  0
LINE
  8
1
  6
CONTINUOUS
 62
3
 10
1.0786934
 20
-2.446598E-001
 11
1.106113
 21
-2.7207909E-001
  0
LINE
  8
1
  6
CONTINUOUS
 62
3
 10
9.5136945E-001
 20
-1.2838449E-001
 11
9.7823615E-001
 21
-1.552511E-001
  0
LINE
  8
1
  6
CONTINUOUS
 62
3
 10
1.0735374
 20
-2.5055229E-001
 11
1.0994928
 21
-2.7650749E-001
  0
LINE
  8
1
  6
CONTINUOUS
 62
3
 10
9.4431995E-001
 20
-1.3238349E-001
 11
9.7118655E-001
 21
-1.592501E-001
  0
LINE
  8
1
  6
CONTINUOUS
 62
3
 10
1.0683813
 20
-2.564448E-001
 11
1.0943368
 21
-2.824002E-001
  0
LINE
  8
1
  6
CONTINUOUS
 62
3
 10
9.3727035E-001
 20
-1.3638249E-001
 11
9.6413725E-001
 21
-1.632491E-001
  0
LINE
  8
1
  6
CONTINUOUS
 62
3
 10
1.0632255
 20
-2.623373E-001
 11
1.0891807
 21
-2.8829279E-001
  0
LINE
  8
1
  6
CONTINUOUS
 62
3
 10
9.3022105E-001
 20
-1.4038139E-001
 11
9.5708775E-001
 21
-1.672481E-001
  0
LINE
  8
1
  6
CONTINUOUS
 62
3
 10
1.0580695
 20
-2.682301E-001
 11
1.0840247
 21
-2.941853E-001
  0
LINE
  8
1
  6
CONTINUOUS
 62
3
 10
9.2317145E-001
 20
-1.4438039E-001
 11
9.5003815E-001
 21
-1.712474E-001
  0
LINE
  8
1
  6
CONTINUOUS
 62
3
 10
1.0529134
 20
-2.741226E-001
 11
1.0788689
 21
-3.0007779E-001
  0
LINE
  8
1
  6
CONTINUOUS
 62
3
 10
9.1612195E-001
 20
-1.483797E-001
 11
9.4298855E-001
 21
-1.752464E-001
  0
LINE
  8
1
  6
CONTINUOUS
 62
3
 10
1.0477576
 20
-2.8001509E-001
 11
1.0737128
 21
-3.059703E-001
  0
LINE
  8
1
  6
CONTINUOUS
 62
3
 10
9.0907235E-001
 20
-1.523787E-001
 11
9.3593925E-001
 21
-1.792453E-001
  0
LINE
  8
1
  6
CONTINUOUS
 62
3
 10
1.0426016
 20
-2.859076E-001
 11
1.065398
 21
-3.087042E-001
  0
LINE
  8
1
  6
CONTINUOUS
 62
3
 10
9.0202305E-001
 20
-1.563777E-001
 11
9.2888975E-001
 21
-1.832443E-001
  0
LINE
  8
1
  6
CONTINUOUS
 62
3
 10
1.0374456
 20
-2.9180039E-001
 11
1.0543494
 21
-3.087042E-001
  0
LINE
  8
1
  6
CONTINUOUS
 62
3
 10
8.9497345E-001
 20
-1.603767E-001
 11
9.2184015E-001
 21
-1.872436E-001
  0
LINE
  8
1
  6
CONTINUOUS
 62
3
 10
1.0322895
 20
-2.976929E-001
 11
1.0433009
 21
-3.087042E-001
  0
LINE
  8
1
  6
CONTINUOUS
 62
3
 10
8.8792395E-001
 20
-1.6437589E-001
 11
9.1479085E-001
 21
-1.9124259E-001
  0
LINE
  8
1
  6
CONTINUOUS
 62
3
 10
1.0271337
 20
-3.0358539E-001
 11
1.0322523
 21
-3.087042E-001
  0
LINE
  8
1
  6
CONTINUOUS
 62
3
 10
8.8087455E-001
 20
-1.683749E-001
 11
9.0774125E-001
 21
-1.9524159E-001
  0
LINE
  8
1
  6
CONTINUOUS
 62
3
 10
8.7382505E-001
 20
-1.723739E-001
 11
9.0069175E-001
 21
-1.9924059E-001
  0
LINE
  8
1
  6
CONTINUOUS
 62
3
 10
9.7243445E-001
 20
-2.709833E-001
 11
1.0101554
 21
-3.087042E-001
  0
LINE
  8
1
  6
CONTINUOUS
 62
3
 10
8.6677545E-001
 20
-1.763729E-001
 11
9.9910685E-001
 21
-3.087042E-001
  0
LINE
  8
1
  6
CONTINUOUS
 62
3
 10
8.5972595E-001
 20
-1.803719E-001
 11
9.8805825E-001
 21
-3.087042E-001
  0
LINE
  8
1
  6
CONTINUOUS
 62
3
 10
7.8858035E-001
 20
-1.202749E-001
 11
7.9748885E-001
 21
-1.291834E-001
  0
LINE
  8
1
  6
CONTINUOUS
 62
3
 10
8.5267655E-001
 20
-1.843711E-001
 11
9.7700975E-001
 21
-3.087042E-001
  0
LINE
  8
1
  6
CONTINUOUS
 62
3
 10
7.7753185E-001
 20
-1.202749E-001
 11
7.9583255E-001
 21
-1.385757E-001
  0
LINE
  8
1
  6
CONTINUOUS
 62
3
 10
8.4562705E-001
 20
-1.8837009E-001
 11
9.6596115E-001
 21
-3.087042E-001
  0
LINE
  8
1
  6
CONTINUOUS
 62
3
 10
7.6648325E-001
 20
-1.202749E-001
 11
7.9417655E-001
 21
-1.479682E-001
  0
LINE
  8
1
  6
CONTINUOUS
 62
3
 10
8.3857745E-001
 20
-1.9236909E-001
 11
9.5491265E-001
 21
-3.087042E-001
  0
LINE
  8
1
  6
CONTINUOUS
 62
3
 10
7.5543475E-001
 20
-1.202749E-001
 11
7.9252045E-001
 21
-1.5736039E-001
  0
LINE
  8
1
  6
CONTINUOUS
 62
3
 10
8.3152795E-001
 20
-1.9636809E-001
 11
9.4386405E-001
 21
-3.087042E-001
  0
LINE
  8
1
  6
CONTINUOUS
 62
3
 10
7.4651645E-001
 20
-1.2240519E-001
 11
7.9086415E-001
 21
-1.667529E-001
  0
LINE
  8
1
  6
CONTINUOUS
 62
3
 10
8.2447855E-001
 20
-2.003673E-001
 11
9.3281555E-001
 21
-3.087042E-001
  0
LINE
  8
1
  6
CONTINUOUS
 62
3
 10
7.4486035E-001
 20
-1.317974E-001
 11
7.8920815E-001
 21
-1.761454E-001
  0
LINE
  8
1
  6
CONTINUOUS
 62
3
 10
8.1742905E-001
 20
-2.043663E-001
 11
8.4429565E-001
 21
-2.31233E-001
  0
LINE
  8
1
  6
CONTINUOUS
 62
3
 10
7.4320405E-001
 20
-1.411899E-001
 11
7.8755205E-001
 21
-1.855377E-001
  0
LINE
  8
1
  6
CONTINUOUS
 62
3
 10
8.1037945E-001
 20
-2.083653E-001
 11
8.3724635E-001
 21
-2.35232E-001
  0
LINE
  8
1
  6
CONTINUOUS
 62
3
 10
7.4154805E-001
 20
-1.505824E-001
 11
7.8589575E-001
 21
-1.949302E-001
  0
LINE
  8
1
  6
CONTINUOUS
 62
3
 10
8.0333015E-001
 20
-2.123643E-001
 11
8.3019685E-001
 21
-2.392312E-001
  0
LINE
  8
1
  6
CONTINUOUS
 62
3
 10
7.3989195E-001
 20
-1.599747E-001
 11
7.8423975E-001
 21
-2.043227E-001
  0
LINE
  8
1
  6
CONTINUOUS
 62
3
 10
7.9628055E-001
 20
-2.163633E-001
 11
8.2314725E-001
 21
-2.432302E-001
  0
LINE
  8
1
  6
CONTINUOUS
 62
3
 10
7.3823565E-001
 20
-1.693672E-001
 11
7.8258365E-001
 21
-2.1371499E-001
  0
LINE
  8
1
  6
CONTINUOUS
 62
3
 10
7.8923105E-001
 20
-2.2036249E-001
 11
8.1609765E-001
 21
-2.472292E-001
  0
LINE
  8
1
  6
CONTINUOUS
 62
3
 10
7.3657965E-001
 20
-1.787597E-001
 11
7.8092735E-001
 21
-2.2310749E-001
  0
LINE
  8
1
  6
CONTINUOUS
 62
3
 10
7.8218145E-001
 20
-2.2436149E-001
 11
8.0904835E-001
 21
-2.5122819E-001
  0
LINE
  8
1
  6
CONTINUOUS
 62
3
 10
7.3492355E-001
 20
-1.881519E-001
 11
8.0199885E-001
 21
-2.552272E-001
  0
LINE
  8
1
  6
CONTINUOUS
 62
3
 10
7.3326725E-001
 20
-1.975444E-001
 11
7.9494925E-001
 21
-2.592264E-001
  0
LINE
  8
1
  6
CONTINUOUS
 62
3
 10
7.3161125E-001
 20
-2.069367E-001
 11
7.8789965E-001
 21
-2.6322539E-001
  0
LINE
  8
1
  6
CONTINUOUS
 62
3
 10
7.2995515E-001
 20
-2.163292E-001
 11
7.8085035E-001
 21
-2.672244E-001
  0
LINE
  8
1
  6
CONTINUOUS
 62
3
 10
7.2829885E-001
 20
-2.257217E-001
 11
7.7380085E-001
 21
-2.7122339E-001
  0
LINE
  8
1
  6
CONTINUOUS
 62
3
 10
7.2664285E-001
 20
-2.3511399E-001
 11
7.7099055E-001
 21
-2.794617E-001
  0
LINE
  8
1
  6
CONTINUOUS
 62
3
 10
7.2498675E-001
 20
-2.4450649E-001
 11
7.6933455E-001
 21
-2.8885419E-001
  0
LINE
  8
1
  6
CONTINUOUS
 62
3
 10
7.2333045E-001
 20
-2.538987E-001
 11
7.6767845E-001
 21
-2.982467E-001
  0
LINE
  8
1
  6
CONTINUOUS
 62
3
 10
7.2167445E-001
 20
-2.6329119E-001
 11
7.6602215E-001
 21
-3.07639E-001
  0
LINE
  8
1
  6
CONTINUOUS
 62
3
 10
7.2001835E-001
 20
-2.726837E-001
 11
7.5603885E-001
 21
-3.087042E-001
  0
LINE
  8
1
  6
CONTINUOUS
 62
3
 10
7.1836205E-001
 20
-2.82076E-001
 11
7.4499035E-001
 21
-3.087042E-001
  0
LINE
  8
1
  6
CONTINUOUS
 62
3
 10
7.1670595E-001
 20
-2.9146849E-001
 11
7.3394175E-001
 21
-3.087042E-001
  0
LINE
  8
1
  6
CONTINUOUS
 62
3
 10
7.1504995E-001
 20
-3.00861E-001
 11
7.2289315E-001
 21
-3.087042E-001
  0
LINE
  8
1
  6
CONTINUOUS
 62
3
 10
5.2341525E-001
 20
-1.202749E-001
 11
5.2883125E-001
 21
-1.2569079E-001
  0
LINE
  8
1
  6
CONTINUOUS
 62
3
 10
6.8446965E-001
 20
-2.8132929E-001
 11
6.9003725E-001
 21
-2.8689659E-001
  0
LINE
  8
1
  6
CONTINUOUS
 62
3
 10
5.1236675E-001
 20
-1.202749E-001
 11
5.2717495E-001
 21
-1.3508309E-001
  0
LINE
  8
1
  6
CONTINUOUS
 62
3
 10
6.7342115E-001
 20
-2.8132929E-001
 11
6.8838095E-001
 21
-2.962891E-001
  0
LINE
  8
1
  6
CONTINUOUS
 62
3
 10
5.0131815E-001
 20
-1.202749E-001
 11
5.2551885E-001
 21
-1.444756E-001
  0
LINE
  8
1
  6
CONTINUOUS
 62
3
 10
6.6237255E-001
 20
-2.8132929E-001
 11
6.8672485E-001
 21
-3.0568159E-001
  0
LINE
  8
1
  6
CONTINUOUS
 62
3
 10
4.9026965E-001
 20
-1.202749E-001
 11
5.2386275E-001
 21
-1.538681E-001
  0
LINE
  8
1
  6
CONTINUOUS
 62
3
 10
6.5132395E-001
 20
-2.8132929E-001
 11
6.7869895E-001
 21
-3.087042E-001
  0
LINE
  8
1
  6
CONTINUOUS
 62
3
 10
4.7922105E-001
 20
-1.202749E-001
 11
5.2220655E-001
 21
-1.632603E-001
  0
LINE
  8
1
  6
CONTINUOUS
 62
3
 10
6.4027545E-001
 20
-2.8132929E-001
 11
6.6765045E-001
 21
-3.087042E-001
  0
LINE
  8
1
  6
CONTINUOUS
 62
3
 10
4.7620265E-001
 20
-1.283051E-001
 11
5.2055045E-001
 21
-1.726528E-001
  0
LINE
  8
1
  6
CONTINUOUS
 62
3
 10
6.2922685E-001
 20
-2.8132929E-001
 11
6.5660185E-001
 21
-3.087042E-001
  0
LINE
  8
1
  6
CONTINUOUS
 62
3
 10
4.7454665E-001
 20
-1.376973E-001
 11
5.1889435E-001
 21
-1.8204509E-001
  0
LINE
  8
1
  6
CONTINUOUS
 62
3
 10
6.1817835E-001
 20
-2.8132929E-001
 11
6.4555335E-001
 21
-3.087042E-001
  0
LINE
  8
1
  6
CONTINUOUS
 62
3
 10
4.7289035E-001
 20
-1.470898E-001
 11
5.1723805E-001
 21
-1.9143759E-001
  0
LINE
  8
1
  6
CONTINUOUS
 62
3
 10
6.0712975E-001
 20
-2.8132929E-001
 11
6.3450475E-001
 21
-3.087042E-001
  0
LINE
  8
1
  6
CONTINUOUS
 62
3
 10
4.3502685E-001
 20
-1.202749E-001
 11
4.3693325E-001
 21
-1.221813E-001
  0
LINE
  8
1
  6
CONTINUOUS
 62
3
 10
4.7123425E-001
 20
-1.5648209E-001
 11
5.1558205E-001
 21
-2.0083009E-001
  0
LINE
  8
1
  6
CONTINUOUS
 62
3
 10
5.9608125E-001
 20
-2.8132929E-001
 11
6.2345615E-001
 21
-3.087042E-001
  0
LINE
  8
1
  6
CONTINUOUS
 62
3
 10
4.2397825E-001
 20
-1.202749E-001
 11
4.3527715E-001
 21
-1.3157379E-001
  0
LINE
  8
1
  6
CONTINUOUS
 62
3
 10
4.6957825E-001
 20
-1.658746E-001
 11
5.1392595E-001
 21
-2.102224E-001
  0
LINE
  8
1
  6
CONTINUOUS
 62
3
 10
5.8503265E-001
 20
-2.8132929E-001
 11
6.1240765E-001
 21
-3.087042E-001
  0
LINE
  8
1
  6
CONTINUOUS
 62
3
 10
4.1292975E-001
 20
-1.202749E-001
 11
4.3362115E-001
 21
-1.409661E-001
  0
LINE
  8
1
  6
CONTINUOUS
 62
3
 10
4.6792195E-001
 20
-1.752671E-001
 11
5.1226965E-001
 21
-2.196149E-001
  0
LINE
  8
1
  6
CONTINUOUS
 62
3
 10
5.7398415E-001
 20
-2.8132929E-001
 11
6.0135905E-001
 21
-3.087042E-001
  0
LINE
  8
1
  6
CONTINUOUS
 62
3
 10
4.0188115E-001
 20
-1.202749E-001
 11
4.2925615E-001
 21
-1.476499E-001
  0
LINE
  8
1
  6
CONTINUOUS
 62
3
 10
4.6626585E-001
 20
-1.846594E-001
 11
5.1061365E-001
 21
-2.2900709E-001
  0
LINE
  8
1
  6
CONTINUOUS
 62
3
 10
5.6293555E-001
 20
-2.8132929E-001
 11
5.9031055E-001
 21
-3.087042E-001
  0
LINE
  8
1
  6
CONTINUOUS
 62
3
 10
3.9083265E-001
 20
-1.202749E-001
 11
4.1820785E-001
 21
-1.476499E-001
  0
LINE
  8
1
  6
CONTINUOUS
 62
3
 10
4.6460985E-001
 20
-1.940519E-001
 11
5.0895755E-001
 21
-2.3839959E-001
  0
LINE
  8
1
  6
CONTINUOUS
 62
3
 10
5.5188695E-001
 20
-2.8132929E-001
 11
5.7926195E-001
 21
-3.087042E-001
  0
LINE
  8
1
  6
CONTINUOUS
 62
3
 10
3.7978405E-001
 20
-1.202749E-001
 11
4.0715925E-001
 21
-1.476499E-001
  0
LINE
  8
1
  6
CONTINUOUS
 62
3
 10
4.6295355E-001
 20
-2.0344409E-001
 11
5.0730125E-001
 21
-2.4779209E-001
  0
LINE
  8
1
  6
CONTINUOUS
 62
3
 10
5.4083845E-001
 20
-2.8132929E-001
 11
5.6821345E-001
 21
-3.087042E-001
  0
LINE
  8
1
  6
CONTINUOUS
 62
3
 10
3.6873555E-001
 20
-1.202749E-001
 11
3.9611075E-001
 21
-1.476499E-001
  0
LINE
  8
1
  6
CONTINUOUS
 62
3
 10
4.6129745E-001
 20
-2.1283659E-001
 11
5.0564525E-001
 21
-2.571844E-001
  0
LINE
  8
1
  6
CONTINUOUS
 62
3
 10
5.2978985E-001
 20
-2.8132929E-001
 11
5.5716515E-001
 21
-3.087042E-001
  0
LINE
  8
1
  6
CONTINUOUS
 62
3
 10
3.5768695E-001
 20
-1.202749E-001
 11
3.8506215E-001
 21
-1.476499E-001
  0
LINE
  8
1
  6
CONTINUOUS
 62
3
 10
4.5964145E-001
 20
-2.2222909E-001
 11
5.0398915E-001
 21
-2.6657689E-001
  0
LINE
  8
1
  6
CONTINUOUS
 62
3
 10
5.1874155E-001
 20
-2.8132929E-001
 11
5.4611655E-001
 21
-3.087042E-001
  0
LINE
  8
1
  6
CONTINUOUS
 62
3
 10
3.4663865E-001
 20
-1.202749E-001
 11
3.7401365E-001
 21
-1.476499E-001
  0
LINE
  8
1
  6
CONTINUOUS
 62
3
 10
4.5798515E-001
 20
-2.316214E-001
 11
5.0233285E-001
 21
-2.759694E-001
  0
LINE
  8
1
  6
CONTINUOUS
 62
3
 10
5.0769305E-001
 20
-2.8132929E-001
 11
5.3506795E-001
 21
-3.087042E-001
  0
LINE
  8
1
  6
CONTINUOUS
 62
3
 10
3.3559005E-001
 20
-1.202749E-001
 11
3.6296505E-001
 21
-1.476499E-001
  0
LINE
  8
1
  6
CONTINUOUS
 62
3
 10
4.5632905E-001
 20
-2.410139E-001
 11
5.2401945E-001
 21
-3.087042E-001
  0
LINE
  8
1
  6
CONTINUOUS
 62
3
 10
3.2454155E-001
 20
-1.202749E-001
 11
3.5191655E-001
 21
-1.476499E-001
  0
LINE
  8
1
  6
CONTINUOUS
 62
3
 10
4.0500615E-001
 20
-2.0073949E-001
 11
4.0958185E-001
 21
-2.053152E-001
  0
LINE
  8
1
  6
CONTINUOUS
 62
3
 10
4.5467305E-001
 20
-2.504064E-001
 11
5.1297085E-001
 21
-3.087042E-001
  0
LINE
  8
1
  6
CONTINUOUS
 62
3
 10
3.1349295E-001
 20
-1.202749E-001
 11
3.4086795E-001
 21
-1.476499E-001
  0
LINE
  8
1
  6
CONTINUOUS
 62
3
 10
3.9395755E-001
 20
-2.0073949E-001
 11
4.0792555E-001
 21
-2.147075E-001
  0
LINE
  8
1
  6
CONTINUOUS
 62
3
 10
4.5301675E-001
 20
-2.597986E-001
 11
5.0192235E-001
 21
-3.087042E-001
  0
LINE
  8
1
  6
CONTINUOUS
 62
3
 10
3.0244445E-001
 20
-1.202749E-001
 11
3.2981935E-001
 21
-1.476499E-001
  0
LINE
  8
1
  6
CONTINUOUS
 62
3
 10
3.8290905E-001
 20
-2.0073949E-001
 11
4.0626955E-001
 21
-2.241E-001
  0
LINE
  8
1
  6
CONTINUOUS
 62
3
 10
4.5136065E-001
 20
-2.6919109E-001
 11
4.9087375E-001
 21
-3.087042E-001
  0
LINE
  8
1
  6
CONTINUOUS
 62
3
 10
2.9139585E-001
 20
-1.202749E-001
 11
3.1877085E-001
 21
-1.476499E-001
  0
LINE
  8
1
  6
CONTINUOUS
 62
3
 10
3.7186045E-001
 20
-2.0073949E-001
 11
3.9936035E-001
 21
-2.282394E-001
  0
LINE
  8
1
  6
CONTINUOUS
 62
3
 10
4.4970465E-001
 20
-2.785834E-001
 11
4.7982525E-001
 21
-3.087042E-001
  0
LINE
  8
1
  6
CONTINUOUS
 62
3
 10
2.8034735E-001
 20
-1.202749E-001
 11
3.0772225E-001
 21
-1.476499E-001
  0
LINE
  8
1
  6
CONTINUOUS
 62
3
 10
3.6081195E-001
 20
-2.0073949E-001
 11
3.8831205E-001
 21
-2.282394E-001
  0
LINE
  8
1
  6
CONTINUOUS
 62
3
 10
4.4804835E-001
 20
-2.8797589E-001
 11
4.6877665E-001
 21
-3.087042E-001
  0
LINE
  8
1
  6
CONTINUOUS
 62
3
 10
2.6929875E-001
 20
-1.202749E-001
 11
2.9667375E-001
 21
-1.476499E-001
  0
LINE
  8
1
  6
CONTINUOUS
 62
3
 10
3.4976335E-001
 20
-2.0073949E-001
 11
3.7726355E-001
 21
-2.282394E-001
  0
LINE
  8
1
  6
CONTINUOUS
 62
3
 10
4.4639225E-001
 20
-2.973684E-001
 11
4.5772815E-001
 21
-3.087042E-001
  0
LINE
  8
1
  6
CONTINUOUS
 62
3
 10
2.5825015E-001
 20
-1.202749E-001
 11
2.8562515E-001
 21
-1.476499E-001
  0
LINE
  8
1
  6
CONTINUOUS
 62
3
 10
3.3871475E-001
 20
-2.0073949E-001
 11
3.6621495E-001
 21
-2.282394E-001
  0
LINE
  8
1
  6
CONTINUOUS
 62
3
 10
4.1930455E-001
 20
-2.8132929E-001
 11
4.2122555E-001
 21
-2.8324999E-001
  0
LINE
  8
1
  6
CONTINUOUS
 62
3
 10
4.4473625E-001
 20
-3.067607E-001
 11
4.4667955E-001
 21
-3.087042E-001
  0
LINE
  8
1
  6
CONTINUOUS
 62
3
 10
2.4720165E-001
 20
-1.202749E-001
 11
2.7457665E-001
 21
-1.476499E-001
  0
LINE
  8
1
  6
CONTINUOUS
 62
3
 10
3.2766625E-001
 20
-2.0073949E-001
 11
3.5516635E-001
 21
-2.282394E-001
  0
LINE
  8
1
  6
CONTINUOUS
 62
3
 10
4.0825605E-001
 20
-2.8132929E-001
 11
4.1956925E-001
 21
-2.926425E-001
  0
LINE
  8
1
  6
CONTINUOUS
 62
3
 10
2.3615305E-001
 20
-1.202749E-001
 11
2.6352805E-001
 21
-1.476499E-001
  0
LINE
  8
1
  6
CONTINUOUS
 62
3
 10
3.1661765E-001
 20
-2.0073949E-001
 11
3.4411785E-001
 21
-2.282394E-001
  0
LINE
  8
1
  6
CONTINUOUS
 62
3
 10
3.9720745E-001
 20
-2.8132929E-001
 11
4.1791315E-001
 21
-3.020347E-001
  0
LINE
  8
1
  6
CONTINUOUS
 62
3
 10
2.2510455E-001
 20
-1.202749E-001
 11
2.5247955E-001
 21
-1.476499E-001
  0
LINE
  8
1
  6
CONTINUOUS
 62
3
 10
3.0556915E-001
 20
-2.0073949E-001
 11
3.3306925E-001
 21
-2.282394E-001
  0
LINE
  8
1
  6
CONTINUOUS
 62
3
 10
3.8615895E-001
 20
-2.8132929E-001
 11
4.1353385E-001
 21
-3.087042E-001
  0
LINE
  8
1
  6
CONTINUOUS
 62
3
 10
2.1405595E-001
 20
-1.202749E-001
 11
2.4143095E-001
 21
-1.476499E-001
  0
LINE
  8
1
  6
CONTINUOUS
 62
3
 10
2.9452055E-001
 20
-2.0073949E-001
 11
3.2202075E-001
 21
-2.282394E-001
  0
LINE
  8
1
  6
CONTINUOUS
 62
3
 10
3.7511035E-001
 20
-2.8132929E-001
 11
4.0248535E-001
 21
-3.087042E-001
  0
LINE
  8
1
  6
CONTINUOUS
 62
3
 10
2.0300765E-001
 20
-1.202749E-001
 11
2.3038245E-001
 21
-1.476499E-001
  0
LINE
  8
1
  6
CONTINUOUS
 62
3
 10
2.8347225E-001
 20
-2.0073949E-001
 11
3.1097215E-001
 21
-2.282394E-001
  0
LINE
  8
1
  6
CONTINUOUS
 62
3
 10
3.6406175E-001
 20
-2.8132929E-001
 11
3.9143675E-001
 21
-3.087042E-001
  0
LINE
  8
1
  6
CONTINUOUS
 62
3
 10
1.9195885E-001
 20
-1.202749E-001
 11
2.2183535E-001
 21
-1.501511E-001
  0
LINE
  8
1
  6
CONTINUOUS
 62
3
 10
2.7242375E-001
 20
-2.0073949E-001
 11
2.9992365E-001
 21
-2.282394E-001
  0
LINE
  8
1
  6
CONTINUOUS
 62
3
 10
3.5301325E-001
 20
-2.8132929E-001
 11
3.8038825E-001
 21
-3.087042E-001
  0
LINE
  8
1
  6
CONTINUOUS
 62
3
 10
1.8091055E-001
 20
-1.202749E-001
 11
2.2017905E-001
 21
-1.595436E-001
  0
LINE
  8
1
  6
CONTINUOUS
 62
3
 10
2.6137515E-001
 20
-2.0073949E-001
 11
2.8887505E-001
 21
-2.282394E-001
  0
LINE
  8
1
  6
CONTINUOUS
 62
3
 10
3.4196465E-001
 20
-2.8132929E-001
 11
3.6933965E-001
 21
-3.087042E-001
  0
LINE
  8
1
  6
CONTINUOUS
 62
3
 10
1.7419765E-001
 20
-1.246108E-001
 11
2.1852295E-001
 21
-1.689361E-001
  0
LINE
  8
1
  6
CONTINUOUS
 62
3
 10
2.5032655E-001
 20
-2.0073949E-001
 11
2.7782655E-001
 21
-2.282394E-001
  0
LINE
  8
1
  6
CONTINUOUS
 62
3
 10
3.3091615E-001
 20
-2.8132929E-001
 11
3.5829115E-001
 21
-3.087042E-001
  0
LINE
  8
1
  6
CONTINUOUS
 62
3
 10
1.7254155E-001
 20
-1.3400329E-001
 11
2.1686695E-001
 21
-1.783284E-001
  0
LINE
  8
1
  6
CONTINUOUS
 62
3
 10
2.3927805E-001
 20
-2.0073949E-001
 11
2.6677795E-001
 21
-2.282394E-001
  0
LINE
  8
1
  6
CONTINUOUS
 62
3
 10
3.1986755E-001
 20
-2.8132929E-001
 11
3.4724255E-001
 21
-3.087042E-001
  0
LINE
  8
1
  6
CONTINUOUS
 62
3
 10
1.7088555E-001
 20
-1.433955E-001
 11
2.1521065E-001
 21
-1.877209E-001
  0
LINE
  8
1
  6
CONTINUOUS
 62
3
 10
2.2822945E-001
 20
-2.0073949E-001
 11
2.5572935E-001
 21
-2.282394E-001
  0
LINE
  8
1
  6
CONTINUOUS
 62
3
 10
3.0881905E-001
 20
-2.8132929E-001
 11
3.3619395E-001
 21
-3.087042E-001
  0
LINE
  8
1
  6
CONTINUOUS
 62
3
 10
1.6922945E-001
 20
-1.52788E-001
 11
2.1355455E-001
 21
-1.9711309E-001
  0
LINE
  8
1
  6
CONTINUOUS
 62
3
 10
2.1718095E-001
 20
-2.0073949E-001
 11
2.4468085E-001
 21
-2.282394E-001
  0
LINE
  8
1
  6
CONTINUOUS
 62
3
 10
2.9777045E-001
 20
-2.8132929E-001
 11
3.2514545E-001
 21
-3.087042E-001
  0
LINE
  8
1
  6
CONTINUOUS
 62
3
 10
1.6757345E-001
 20
-1.621803E-001
 11
2.3363225E-001
 21
-2.282394E-001
  0
LINE
  8
1
  6
CONTINUOUS
 62
3
 10
2.8672195E-001
 20
-2.8132929E-001
 11
3.1409715E-001
 21
-3.087042E-001
  0
LINE
  8
1
  6
CONTINUOUS
 62
3
 10
1.6591685E-001
 20
-1.715728E-001
 11
2.2258375E-001
 21
-2.282394E-001
  0
LINE
  8
1
  6
CONTINUOUS
 62
3
 10
2.7567355E-001
 20
-2.8132929E-001
 11
3.0304855E-001
 21
-3.087042E-001
  0
LINE
  8
1
  6
CONTINUOUS
 62
3
 10
1.6426085E-001
 20
-1.809653E-001
 11
2.1163005E-001
 21
-2.2833429E-001
  0
LINE
  8
1
  6
CONTINUOUS
 62
3
 10
2.6462505E-001
 20
-2.8132929E-001
 11
2.9200005E-001
 21
-3.087042E-001
  0
LINE
  8
1
  6
CONTINUOUS
 62
3
 10
1.6260475E-001
 20
-1.9035759E-001
 11
2.0997405E-001
 21
-2.3772679E-001
  0
LINE
  8
1
  6
CONTINUOUS
 62
3
 10
2.5357645E-001
 20
-2.8132929E-001
 11
2.8095145E-001
 21
-3.087042E-001
  0
LINE
  8
1
  6
CONTINUOUS
 62
3
 10
1.6094875E-001
 20
-1.9975009E-001
 11
2.0831775E-001
 21
-2.471191E-001
  0
LINE
  8
1
  6
CONTINUOUS
 62
3
 10
2.4252795E-001
 20
-2.8132929E-001
 11
2.6990295E-001
 21
-3.087042E-001
  0
LINE
  8
1
  6
CONTINUOUS
 62
3
 10
1.5929265E-001
 20
-2.0914259E-001
 11
2.0666165E-001
 21
-2.5651159E-001
  0
LINE
  8
1
  6
CONTINUOUS
 62
3
 10
2.3147935E-001
 20
-2.8132929E-001
 11
2.5885435E-001
 21
-3.087042E-001
  0
LINE
  8
1
  6
CONTINUOUS
 62
3
 10
1.5763665E-001
 20
-2.185348E-001
 11
2.0500565E-001
 21
-2.659038E-001
  0
LINE
  8
1
  6
CONTINUOUS
 62
3
 10
2.2043085E-001
 20
-2.8132929E-001
 11
2.4780575E-001
 21
-3.087042E-001
  0
LINE
  8
1
  6
CONTINUOUS
 62
3
 10
1.5598005E-001
 20
-2.279273E-001
 11
2.0334955E-001
 21
-2.752963E-001
  0
LINE
  8
1
  6
CONTINUOUS
 62
3
 10
2.0938225E-001
 20
-2.8132929E-001
 11
2.3675725E-001
 21
-3.087042E-001
  0
LINE
  8
1
  6
CONTINUOUS
 62
3
 10
1.5432405E-001
 20
-2.3731959E-001
 11
2.2570865E-001
 21
-3.087042E-001
  0
LINE
  8
1
  6
CONTINUOUS
 62
3
 10
1.5266795E-001
 20
-2.4671209E-001
 11
2.1466015E-001
 21
-3.087042E-001
  0
LINE
  8
1
  6
CONTINUOUS
 62
3
 10
1.5101195E-001
 20
-2.5610459E-001
 11
2.0361185E-001
 21
-3.087042E-001
  0
LINE
  8
1
  6
CONTINUOUS
 62
3
 10
1.4935585E-001
 20
-2.654968E-001
 11
1.9256305E-001
 21
-3.087042E-001
  0
LINE
  8
1
  6
CONTINUOUS
 62
3
 10
1.4769975E-001
 20
-2.7488929E-001
 11
1.8151465E-001
 21
-3.087042E-001
  0
LINE
  8
1
  6
CONTINUOUS
 62
3
 10
1.4604325E-001
 20
-2.842816E-001
 11
1.7046595E-001
 21
-3.087042E-001
  0
LINE
  8
1
  6
CONTINUOUS
 62
3
 10
1.4438725E-001
 20
-2.936741E-001
 11
1.5941755E-001
 21
-3.087042E-001
  0
LINE
  8
1
  6
CONTINUOUS
 62
3
 10
1.4273115E-001
 20
-3.0306659E-001
 11
1.4836875E-001
 21
-3.087042E-001
  0
LINE
  8
1
  6
CONTINUOUS
 62
3
 10
5.0138775E-001
 20
-2.8132929E-001
 11
6.9101875E-001
 21
-2.8132929E-001
  0
LINE
  8
1
  6
CONTINUOUS
 62
3
 10
1.7496245E-001
 20
-1.202749E-001
 11
4.3726945E-001
 21
-1.202749E-001
  0
LINE
  8
1
  6
CONTINUOUS
 62
3
 10
1.4173695E-001
 20
-3.087042E-001
 11
4.1673705E-001
 21
-3.087042E-001
  0
LINE
  8
1
  6
CONTINUOUS
 62
3
 10
1.4173695E-001
 20
-3.087042E-001
 11
1.7496245E-001
 21
-1.202749E-001
  0
LINE
  8
1
  6
CONTINUOUS
 62
3
 10
2.2227645E-001
 20
-1.476499E-001
 11
4.3244265E-001
 21
-1.476499E-001
  0
LINE
  8
1
  6
CONTINUOUS
 62
3
 10
4.4439335E-001
 20
-3.087042E-001
 11
4.7761865E-001
 21
-1.202749E-001
  0
LINE
  8
1
  6
CONTINUOUS
 62
3
 10
4.7761865E-001
 20
-1.202749E-001
 11
5.2978605E-001
 21
-1.202749E-001
  0
LINE
  8
1
  6
CONTINUOUS
 62
3
 10
4.4439335E-001
 20
-3.087042E-001
 11
6.8619175E-001
 21
-3.087042E-001
  0
LINE
  8
1
  6
CONTINUOUS
 62
3
 10
5.0138775E-001
 20
-2.8132929E-001
 11
5.2978605E-001
 21
-1.202749E-001
  0
LINE
  8
1
  6
CONTINUOUS
 62
3
 10
2.1291515E-001
 20
-2.0073949E-001
 11
2.2227645E-001
 21
-1.476499E-001
  0
LINE
  8
1
  6
CONTINUOUS
 62
3
 10
4.3244265E-001
 20
-1.476499E-001
 11
4.3726945E-001
 21
-1.202749E-001
  0
LINE
  8
1
  6
CONTINUOUS
 62
3
 10
4.0553945E-001
 20
-2.282394E-001
 11
4.1038865E-001
 21
-2.0073949E-001
  0
LINE
  8
1
  6
CONTINUOUS
 62
3
 10
1.6393182
 20
-1.202749E-001
 11
1.5128018
 21
-2.1472935E-001
  0
LINE
  8
1
  6
CONTINUOUS
 62
3
 10
1.6393182
 20
-1.202749E-001
 11
1.5780974
 21
-1.202749E-001
  0
LINE
  8
1
  6
CONTINUOUS
 62
3
 10
1.5780974
 20
-1.202749E-001
 11
1.4866327
 21
-1.8856039E-001
  0
LINE
  8
1
  6
CONTINUOUS
 62
3
 10
4.1673705E-001
 20
-3.087042E-001
 11
4.2156405E-001
 21
-2.8132929E-001
  0
LINE
  8
1
  6
CONTINUOUS
 62
3
 10
2.0228575E-001
 20
-2.8132929E-001
 11
2.1164675E-001
 21
-2.282394E-001
  0
LINE
  8
1
  6
CONTINUOUS
 62
3
 10
4.1038865E-001
 20
-2.0073949E-001
 11
2.1291515E-001
 21
-2.0073949E-001
  0
LINE
  8
1
  6
CONTINUOUS
 62
3
 10
2.1164675E-001
 20
-2.282394E-001
 11
4.0553945E-001
 21
-2.282394E-001
  0
LINE
  8
1
  6
CONTINUOUS
 62
3
 10
1.0398922
 20
-1.202749E-001
 11
8.9676805E-001
 21
-2.0146639E-001
  0
LINE
  8
1
  6
CONTINUOUS
 62
3
 10
2.0228575E-001
 20
-2.8132929E-001
 11
4.2156405E-001
 21
-2.8132929E-001
  0
LINE
  8
1
  6
CONTINUOUS
 62
3
 10
6.8619175E-001
 20
-3.087042E-001
 11
6.9101875E-001
 21
-2.8132929E-001
  0
LINE
  8
1
  6
CONTINUOUS
 62
3
 10
9.6566485E-001
 20
-1.202749E-001
 11
1.0398922
 21
-1.202749E-001
  0
LINE
  8
1
  6
CONTINUOUS
 62
3
 10
9.3227125E-001
 20
-3.087042E-001
 11
1.0134921
 21
-3.087042E-001
  0
LINE
  8
1
  6
CONTINUOUS
 62
3
 10
7.7229235E-001
 20
-2.7207909E-001
 11
7.6583455E-001
 21
-3.087042E-001
  0
LINE
  8
1
  6
CONTINUOUS
 62
3
 10
7.9905955E-001
 20
-1.202749E-001
 11
7.8054235E-001
 21
-2.252914E-001
  0
LINE
  8
1
  6
CONTINUOUS
 62
3
 10
1.1875298
 20
-1.202749E-001
 11
1.2790296
 21
-1.202749E-001
  0
LINE
  8
1
  6
CONTINUOUS
 62
3
 10
1.3096361
 20
-3.087042E-001
 11
1.3706546
 21
-3.087042E-001
  0
LINE
  8
1
  6
CONTINUOUS
 62
3
 10
8.4655285E-001
 20
-2.299524E-001
 11
7.7229235E-001
 21
-2.7207909E-001
  0
LINE
  8
1
  6
CONTINUOUS
 62
3
 10
9.6566485E-001
 20
-1.202749E-001
 11
7.8054235E-001
 21
-2.252914E-001
  0
LINE
  8
1
  6
CONTINUOUS
 62
3
 10
7.9905955E-001
 20
-1.202749E-001
 11
7.4689195E-001
 21
-1.202749E-001
  0
LINE
  8
1
  6
CONTINUOUS
 62
3
 10
7.1366685E-001
 20
-3.087042E-001
 11
7.4689195E-001
 21
-1.202749E-001
  0
LINE
  8
1
  6
CONTINUOUS
 62
3
 10
1.0134921
 20
-3.087042E-001
 11
8.9676805E-001
 21
-2.0146639E-001
  0
LINE
  8
1
  6
CONTINUOUS
 62
3
 10
9.3227125E-001
 20
-3.087042E-001
 11
8.4655285E-001
 21
-2.299524E-001
  0
LINE
  8
1
  6
CONTINUOUS
 62
3
 10
7.6583455E-001
 20
-3.087042E-001
 11
7.1366685E-001
 21
-3.087042E-001
  0
LINE
  8
1
  6
CONTINUOUS
 62
3
 10
1.0226548
 20
-3.087042E-001
 11
1.0713208
 21
-3.087042E-001
  0
LINE
  8
1
  6
CONTINUOUS
 62
3
 10
1.1264455
 20
-2.4570429E-001
 11
1.2245069
 21
-1.3363349E-001
  0
LINE
  8
1
  6
CONTINUOUS
 62
3
 10
1.279002
 20
-2.4570429E-001
 11
1.2245069
 21
-1.3363349E-001
  0
LINE
  8
1
  6
CONTINUOUS
 62
3
 10
1.0226548
 20
-3.087042E-001
 11
1.1875298
 21
-1.202749E-001
  0
LINE
  8
1
  6
CONTINUOUS
 62
3
 10
1.1033676
 20
-2.7207909E-001
 11
1.291827
 21
-2.7207909E-001
  0
LINE
  8
1
  6
CONTINUOUS
 62
3
 10
1.3706546
 20
-3.087042E-001
 11
1.2790296
 21
-1.202749E-001
  0
LINE
  8
1
  6
CONTINUOUS
 62
3
 10
1.1264455
 20
-2.4570429E-001
 11
1.279002
 21
-2.4570429E-001
  0
LINE
  8
1
  6
CONTINUOUS
 62
3
 10
1.0713208
 20
-3.087042E-001
 11
1.1033676
 21
-2.7207909E-001
  0
LINE
  8
1
  6
CONTINUOUS
 62
3
 10
1.3096361
 20
-3.087042E-001
 11
1.291827
 21
-2.7207909E-001
  0
LINE
  8
1
  6
CONTINUOUS
 62
3
 10
1.5780974
 20
-1.202749E-001
 11
1.6393182
 21
-1.202749E-001
  0
LINE
  8
1
  6
CONTINUOUS
 62
3
 10
1.4164047
 20
-3.087042E-001
 11
1.4721263
 21
-3.087042E-001
  0
LINE
  8
1
  6
CONTINUOUS
 62
3
 10
1.4164047
 20
-3.087042E-001
 11
1.4275398
 21
-2.455534E-001
  0
LINE
  8
1
  6
CONTINUOUS
 62
3
 10
1.4721263
 20
-3.087042E-001
 11
1.4850421
 21
-2.354542E-001
  0
LINE
  8
1
  6
CONTINUOUS
 62
3
 10
1.3850644
 20
-1.202749E-001
 11
1.4897721
 21
-2.3147952E-001
  0
LINE
  8
1
  6
CONTINUOUS
 62
3
 10
1.4275398
 20
-2.455534E-001
 11
1.3095806
 21
-1.202749E-001
  0
LINE
  8
1
  6
CONTINUOUS
 62
3
 10
1.3095806
 20
-1.202749E-001
 11
1.3850644
 21
-1.202749E-001
  0
POINT
  8
1
  6
CONTINUOUS
 62
1
 10
0.0
 20
0.0
  0
ENDBLK
  0
BLOCK
  2
*TX50
  3
*TX
 10
0.0
 20
0.0
 70
65
  0
TEXT
  8
126
  6
CONTINUOUS
 62
3
 10
8.8E-001
 20
4.0E-002
 40
8.0E-002
  1
B - ECNBV07201 22JUN07
 50
9.0E+001
 72
1
 73
2
 11
0.0
 21
0.0
  0
TEXT
  8
126
  6
CONTINUOUS
 62
3
 10
1.0
 20
4.0E-002
 40
8.0E-002
  1
C - ECNBV07229 25JUL07
 50
9.0E+001
 72
1
 73
2
 11
1.2E-001
 21
0.0
  0
TEXT
  8
126
  6
CONTINUOUS
 62
3
 10
1.12
 20
4.0E-002
 40
8.0E-002
  1
D - ECNBV07331 29OCT07
 50
9.0E+001
 72
1
 73
2
 11
2.4E-001
 21
0.0
  0
TEXT
  8
126
  6
CONTINUOUS
 62
3
 10
1.24
 20
4.0E-002
 40
8.0E-002
  1
E - ECNBV09043 20FEB09
 50
9.0E+001
 72
1
 73
2
 11
3.6E-001
 21
0.0
  0
ENDBLK
  0
BLOCK
  2
*TX58
  3
*TX
 10
0.0
 20
0.0
 70
65
  0
TEXT
  8
1
  6
CONTINUOUS
 62
3
 10
1.5
 20
0.0
 40
3.75E-001
  1
RCFU3118
 72
1
 11
0.0
 21
0.0
  0
TEXT
  8
1
  6
CONTINUOUS
 62
3
 10
1.3125
 20
-5.625E-001
 40
3.75E-001
  1
DPU3118
 72
1
 11
0.0
 21
-5.625E-001
  0
ENDBLK
  0
BLOCK
  2
*TX59
  3
*TX
 10
0.0
 20
0.0
 70
65
  0
TEXT
  8
126
  6
CONTINUOUS
 62
3
 10
7.0E-001
 20
0.0
 40
1.0E-001
  1
32-ECT E-FLUTE
 72
1
 11
0.0
 21
0.0
  0
TEXT
  8
126
  6
CONTINUOUS
 62
3
 10
8.0E-001
 20
-1.5E-001
 40
1.0E-001
  1
KRAFT BOTH SIDES
 72
1
 11
0.0
 21
-1.5E-001
  0
ENDBLK
  0
BLOCK
  2
*TX63
  3
*TX
 10
0.0
 20
0.0
 70
65
  0
TEXT
  8
1
  6
CONTINUOUS
 62
1
 10
1.375
 20
6.25E-002
 40
1.25E-001
  1
CARDBOARD TEMPLATE FOR
 72
1
 73
2
 11
0.0
 21
0.0
  0
TEXT
  8
1
  6
CONTINUOUS
 62
1
 10
1.125
 20
-1.25E-001
 40
1.25E-001
  1
RCFU3118 & DUP3118
 72
1
 73
2
 11
0.0
 21
-1.875E-001
  0
ENDBLK
  0
BLOCK
  2
*TX65
  3
*TX
 10
0.0
 20
0.0
 70
65
  0
TEXT
  8
126
  6
CONTINUOUS
 62
3
 10
0.0
 20
0.0
 40
6.0E-002
  1
THIS PRINT IS THE PROPERTY OF ELKAY MANUFACTURING COMPANY
 41
1.047619
 51
-4.1943E-006
  0
TEXT
  8
126
  6
CONTINUOUS
 62
3
 10
0.0
 20
-1.0E-001
 40
6.0E-002
  1
AND IS LOANED SUBJECT TO RETURN UPON DEMAND AND UPON THE
 41
1.047619
 51
-4.1943E-006
  0
TEXT
  8
126
  6
CONTINUOUS
 62
3
 10
0.0
 20
-2.0E-001
 40
6.0E-002
  1
EXPRESS CONDITION THAT IT IS NOT TO BE USED DIRECTLY OR
 41
1.047619
 51
-4.1943E-006
  0
TEXT
  8
126
  6
CONTINUOUS
 62
3
 10
0.0
 20
-3.0E-001
 40
6.0E-002
  1
INDIRECTLY WITHOUT OUR PERMISSION FOR PURPOSES OTHER THAN
 41
1.047619
 51
-4.1943E-006
  0
TEXT
  8
126
  6
CONTINUOUS
 62
3
 10
0.0
 20
-4.0E-001
 40
6.0E-002
  1
THOSE FOR WHICH IT WAS FURNISHED.
 41
1.047619
 51
-4.1943E-006
  0
ENDBLK
  0
BLOCK
  2
*D44
  3
*D
 10
0.0
 20
0.0
 70
65
  0
LINE
  8
1
  6
CONTINUOUS
 62
3
 10
3.4397217E+001
 20
8.1137573
 11
3.4397217E+001
 21
3.6813968
  0
LINE
  8
1
  6
CONTINUOUS
 62
3
 10
4.147217
 20
8.1137573
 11
4.147217
 21
3.6813968
  0
LINE
  8
1
  6
CONTINUOUS
 62
3
 10
3.4397217E+001
 20
3.7438968
 11
3.3647217E+001
 21
3.8688968
  0
LINE
  8
1
  6
CONTINUOUS
 62
3
 10
3.4397217E+001
 20
3.7438968
 11
3.3647217E+001
 21
3.6188968
  0
LINE
  8
1
  6
CONTINUOUS
 62
3
 10
3.3647217E+001
 20
3.8688968
 11
3.3647217E+001
 21
3.6188968
  0
LINE
  8
1
  6
CONTINUOUS
 62
3
 10
4.147217
 20
3.7438968
 11
4.897217
 21
3.8688968
  0
LINE
  8
1
  6
CONTINUOUS
 62
3
 10
4.147217
 20
3.7438968
 11
4.897217
 21
3.6188968
  0
LINE
  8
1
  6
CONTINUOUS
 62
3
 10
4.897217
 20
3.8688968
 11
4.897217
 21
3.6188968
  0
LINE
  8
1
  6
CONTINUOUS
 62
3
 10
3.4397217E+001
 20
3.7438968
 11
2.0740967E+001
 21
3.7438968
  0
LINE
  8
1
  6
CONTINUOUS
 62
3
 10
4.147217
 20
3.7438968
 11
1.7803467E+001
 21
3.7438968
  0
TEXT
  8
1
  6
CONTINUOUS
 62
3
 10
1.7865967E+001
 20
3.6188968
 40
2.5E-001
  1
30.250
  0
TEXT
  8
1
  6
CONTINUOUS
 62
3
 10
1.9428467E+001
 20
3.8063968
 40
2.5E-001
  1
+.031
  0
TEXT
  8
1
  6
CONTINUOUS
 62
3
 10
1.9428467E+001
 20
3.4313968
 40
2.5E-001
  1
-.062
  0
ENDBLK
  0
BLOCK
  2
*D45
  3
*D
 10
0.0
 20
0.0
 70
65
  0
LINE
  8
1
  6
CONTINUOUS
 62
3
 10
3.0772217E+001
 20
4.7387573
 11
3.0477671E+001
 21
4.7387573
  0
LINE
  8
1
  6
CONTINUOUS
 62
3
 10
3.0772217E+001
 20
2.1488757E+001
 11
3.0477671E+001
 21
2.1488757E+001
  0
LINE
  8
1
  6
CONTINUOUS
 62
3
 10
3.0540171E+001
 20
4.7387573
 11
3.0665171E+001
 21
5.4887573
  0
LINE
  8
1
  6
CONTINUOUS
 62
3
 10
3.0540171E+001
 20
4.7387573
 11
3.0415171E+001
 21
5.4887573
  0
LINE
  8
1
  6
CONTINUOUS
 62
3
 10
3.0665171E+001
 20
5.4887573
 11
3.0415171E+001
 21
5.4887573
  0
LINE
  8
1
  6
CONTINUOUS
 62
3
 10
3.0540171E+001
 20
2.1488757E+001
 11
3.0665171E+001
 21
2.0738757E+001
  0
LINE
  8
1
  6
CONTINUOUS
 62
3
 10
3.0540171E+001
 20
2.1488757E+001
 11
3.0415171E+001
 21
2.0738757E+001
  0
LINE
  8
1
  6
CONTINUOUS
 62
3
 10
3.0665171E+001
 20
2.0738757E+001
 11
3.0415171E+001
 21
2.0738757E+001
  0
LINE
  8
1
  6
CONTINUOUS
 62
3
 10
3.0540171E+001
 20
4.7387573
 11
3.0540171E+001
 21
1.2738757E+001
  0
LINE
  8
1
  6
CONTINUOUS
 62
3
 10
3.0540171E+001
 20
2.1488757E+001
 11
3.0540171E+001
 21
1.3488757E+001
  0
TEXT
  8
1
  6
CONTINUOUS
 62
3
 10
2.9133921E+001
 20
1.2988757E+001
 40
2.5E-001
  1
16.750
  0
TEXT
  8
1
  6
CONTINUOUS
 62
3
 10
3.0696421E+001
 20
1.3176257E+001
 40
2.5E-001
  1
+.031
  0
TEXT
  8
1
  6
CONTINUOUS
 62
3
 10
3.0696421E+001
 20
1.2801257E+001
 40
2.5E-001
  1
-.062
  0
ENDBLK
  0
BLOCK
  2
*D46
  3
*D
 10
0.0
 20
0.0
 70
65
  0
LINE
  8
1
  6
CONTINUOUS
 62
3
 10
5.2242532
 20
2.0514474E+001
 11
8.3349796
 21
1.7271828E+001
  0
LINE
  8
1
  6
CONTINUOUS
 62
3
 10
5.2242532
 20
2.0514474E+001
 11
5.2957536
 21
2.0409848E+001
  0
LINE
  8
1
  6
CONTINUOUS
 62
3
 10
5.2242532
 20
2.0514474E+001
 11
5.3258217
 21
2.0438693E+001
  0
LINE
  8
1
  6
CONTINUOUS
 62
3
 10
5.2957536
 20
2.0409848E+001
 11
5.3258217
 21
2.0438693E+001
  0
LINE
  8
1
  6
CONTINUOUS
 62
3
 10
8.4599796
 20
1.7271828E+001
 11
8.3349796
 21
1.7271828E+001
  0
TEXT
  8
1
  6
CONTINUOUS
 62
3
 10
8.5224796
 20
1.7146828E+001
 40
2.5E-001
  1
3 1/2
  0
TEXT
  8
1
  6
CONTINUOUS
 62
3
 10
9.7724796
 20
1.7334328E+001
 40
2.5E-001
  1
+.031
  0
TEXT
  8
1
  6
CONTINUOUS
 62
3
 10
9.7724796
 20
1.6959328E+001
 40
2.5E-001
  1
-.062
  0
TEXT
  8
1
  6
CONTINUOUS
 62
3
 10
1.108498E+001
 20
1.7146828E+001
 40
2.5E-001
  1
 R
  0
ENDBLK
  0
BLOCK
  2
*D49
  3
*D
 10
0.0
 20
0.0
 70
65
  0
CIRCLE
  8
1
  6
CONTINUOUS
 62
3
 10
2.1639239E+001
 20
1.4444221E+001
 40
2.0E-001
  0
TEXT
  8
1
  6
CONTINUOUS
 62
3
 10
2.1539239E+001
 20
1.4344221E+001
 40
2.0E-001
  1
B
  0
ENDBLK
  0
BLOCK
  2
*D50
  3
*D
 10
0.0
 20
0.0
 70
65
  0
CIRCLE
  8
1
  6
CONTINUOUS
 62
3
 10
3.4597299E+001
 20
1.935864
 40
7.0E-002
  0
TEXT
  8
1
  6
CONTINUOUS
 62
3
 10
3.4562299E+001
 20
1.900864
 40
7.0E-002
  1
B
  0
ENDBLK
  0
BLOCK
  2
*D384
  3
*D
 10
0.0
 20
0.0
 70
65
  0
CIRCLE
  8
1
  6
CONTINUOUS
 62
3
 10
2.2422385E+001
 20
1.4444221E+001
 40
2.0E-001
  0
TEXT
  8
1
  6
CONTINUOUS
 62
3
 10
2.2322385E+001
 20
1.4344221E+001
 40
2.0E-001
  1
C
  0
ENDBLK
  0
BLOCK
  2
*D387
  3
*D
 10
0.0
 20
0.0
 70
65
  0
CIRCLE
  8
1
  6
CONTINUOUS
 62
3
 10
3.4795663E+001
 20
1.935864
 40
7.0E-002
  0
TEXT
  8
1
  6
CONTINUOUS
 62
3
 10
3.4760663E+001
 20
1.900864
 40
7.0E-002
  1
C
  0
ENDBLK
  0
BLOCK
  2
*D392
  3
*D
 10
0.0
 20
0.0
 70
65
  0
CIRCLE
  8
1
  6
CONTINUOUS
 62
3
 10
2.7998571E+001
 20
1.6316562
 40
1.25E-001
  0
TEXT
  8
1
  6
CONTINUOUS
 62
3
 10
2.7936071E+001
 20
1.5691562
 40
1.25E-001
  1
A
  0
ENDBLK
  0
BLOCK
  2
*D404
  3
*D
 10
0.0
 20
0.0
 70
65
  0
LINE
  8
1
  6
CONTINUOUS
 62
4
 10
5.047112
 20
1.9215574E+001
 11
4.7673598
 21
2.1291107E+001
  0
LINE
  8
1
  6
CONTINUOUS
 62
4
 10
5.047112
 20
1.9215574E+001
 11
5.0565906
 21
1.9519564E+001
  0
LINE
  8
1
  6
CONTINUOUS
 62
4
 10
5.047112
 20
1.9215574E+001
 11
4.9574868
 21
1.9506207E+001
  0
LINE
  8
1
  6
CONTINUOUS
 62
4
 10
5.0565906
 20
1.9519564E+001
 11
4.9574868
 21
1.9506207E+001
  0
LINE
  8
1
  6
CONTINUOUS
 62
4
 10
4.6423598
 20
2.1291107E+001
 11
4.7673598
 21
2.1291107E+001
  0
TEXT
  8
1
  6
CONTINUOUS
 62
4
 10
5.798598E-001
 20
2.1166107E+001
 40
2.5E-001
  1
TEMPLATE OUTLINE
  0
TEXT
  8
1
  6
CONTINUOUS
 62
4
 10
5.798598E-001
 20
2.0791107E+001
 40
2.5E-001
  1
FOR 1/8" COUNTERTOP
  0
TEXT
  8
1
  6
CONTINUOUS
 62
4
 10
5.798598E-001
 20
2.0416107E+001
 40
2.5E-001
  1
OVERHANG 
  0
TEXT
  8
1
  6
CONTINUOUS
 62
4
 10
5.798598E-001
 20
2.0041107E+001
 40
2.5E-001
  1
(PERFORATION)
  0
ENDBLK
  0
BLOCK
  2
*D405
  3
*D
 10
0.0
 20
0.0
 70
65
  0
LINE
  8
1
  6
CONTINUOUS
 62
4
 10
6.2903091
 20
2.1215025E+001
 11
5.6656942
 21
2.2614701E+001
  0
LINE
  8
1
  6
CONTINUOUS
 62
4
 10
6.2903091
 20
2.1215025E+001
 11
6.2137129
 21
2.150936E+001
  0
LINE
  8
1
  6
CONTINUOUS
 62
4
 10
6.2903091
 20
2.1215025E+001
 11
6.1223933
 21
2.1468608E+001
  0
LINE
  8
1
  6
CONTINUOUS
 62
4
 10
6.2137129
 20
2.150936E+001
 11
6.1223933
 21
2.1468608E+001
  0
LINE
  8
1
  6
CONTINUOUS
 62
4
 10
5.5406942
 20
2.2614701E+001
 11
5.6656942
 21
2.2614701E+001
  0
TEXT
  8
1
  6
CONTINUOUS
 62
4
 10
1.4781942
 20
2.2489701E+001
 40
2.5E-001
  1
TEMPLATE OUTLINE
  0
TEXT
  8
1
  6
CONTINUOUS
 62
4
 10
1.4781942
 20
2.2114701E+001
 40
2.5E-001
  1
FOR 1/2" REVEAL
  0
ENDBLK
  0
BLOCK
  2
*D406
  3
*D
 10
0.0
 20
0.0
 70
65
  0
LINE
  8
1
  6
CONTINUOUS
 62
3
 10
2.7260285E+001
 20
5.3637573
 11
2.6965739E+001
 21
5.3637573
  0
LINE
  8
1
  6
CONTINUOUS
 62
3
 10
2.7529803E+001
 20
2.0863757E+001
 11
2.6965739E+001
 21
2.0863757E+001
  0
LINE
  8
1
  6
CONTINUOUS
 62
3
 10
2.7028239E+001
 20
5.3637573
 11
2.7153239E+001
 21
6.1137573
  0
LINE
  8
1
  6
CONTINUOUS
 62
3
 10
2.7028239E+001
 20
5.3637573
 11
2.6903239E+001
 21
6.1137573
  0
LINE
  8
1
  6
CONTINUOUS
 62
3
 10
2.7153239E+001
 20
6.1137573
 11
2.6903239E+001
 21
6.1137573
  0
LINE
  8
1
  6
CONTINUOUS
 62
3
 10
2.7028239E+001
 20
2.0863757E+001
 11
2.7153239E+001
 21
2.0113757E+001
  0
LINE
  8
1
  6
CONTINUOUS
 62
3
 10
2.7028239E+001
 20
2.0863757E+001
 11
2.6903239E+001
 21
2.0113757E+001
  0
LINE
  8
1
  6
CONTINUOUS
 62
3
 10
2.7153239E+001
 20
2.0113757E+001
 11
2.6903239E+001
 21
2.0113757E+001
  0
LINE
  8
1
  6
CONTINUOUS
 62
3
 10
2.7028239E+001
 20
5.3637573
 11
2.7028239E+001
 21
1.2738757E+001
  0
LINE
  8
1
  6
CONTINUOUS
 62
3
 10
2.7028239E+001
 20
2.0863757E+001
 11
2.7028239E+001
 21
1.3488757E+001
  0
TEXT
  8
1
  6
CONTINUOUS
 62
3
 10
2.5621989E+001
 20
1.2988757E+001
 40
2.5E-001
  1
15.500
  0
TEXT
  8
1
  6
CONTINUOUS
 62
3
 10
2.7184489E+001
 20
1.3176257E+001
 40
2.5E-001
  1
+.031
  0
TEXT
  8
1
  6
CONTINUOUS
 62
3
 10
2.7184489E+001
 20
1.2801257E+001
 40
2.5E-001
  1
-.062
  0
ENDBLK
  0
BLOCK
  2
*D411
  3
*D
 10
0.0
 20
0.0
 70
65
  0
CIRCLE
  8
1
  6
CONTINUOUS
 62
3
 10
2.1513392E+001
 20
1.3560113E+001
 40
2.0E-001
  0
TEXT
  8
1
  6
CONTINUOUS
 62
3
 10
2.1413392E+001
 20
1.3460113E+001
 40
2.0E-001
  1
E
  0
ENDBLK
  0
BLOCK
  2
*D413
  3
*D
 10
0.0
 20
0.0
 70
65
  0
LINE
  8
1
  6
CONTINUOUS
 62
3
 10
6.3322639
 20
5.6820948
 11
8.0033334
 21
8.9311542
  0
LINE
  8
1
  6
CONTINUOUS
 62
3
 10
6.3322639
 20
5.6820948
 11
6.4079623
 21
5.7837254
  0
LINE
  8
1
  6
CONTINUOUS
 62
3
 10
6.3322639
 20
5.6820948
 11
6.3709092
 21
5.8027827
  0
LINE
  8
1
  6
CONTINUOUS
 62
3
 10
6.4079623
 20
5.7837254
 11
6.3709092
 21
5.8027827
  0
LINE
  8
1
  6
CONTINUOUS
 62
3
 10
8.1283334
 20
8.9311542
 11
8.0033334
 21
8.9311542
  0
TEXT
  8
1
  6
CONTINUOUS
 62
3
 10
8.1908334
 20
8.8061542
 40
2.5E-001
  1
R2.875
  0
TEXT
  8
1
  6
CONTINUOUS
 62
3
 10
9.7533334
 20
8.9936542
 40
2.5E-001
  1
+.031
  0
TEXT
  8
1
  6
CONTINUOUS
 62
3
 10
9.7533334
 20
8.6186542
 40
2.5E-001
  1
-.062
  0
ENDBLK
  0
BLOCK
  2
*D426
  3
*D
 10
0.0
 20
0.0
 70
65
  0
LINE
  8
1
  6
CONTINUOUS
 62
3
 10
3.3772217E+001
 20
1.2988757E+001
 11
3.3772217E+001
 21
1.0832287E+001
  0
LINE
  8
1
  6
CONTINUOUS
 62
3
 10
4.772217
 20
1.2988757E+001
 11
4.772217
 21
1.0832287E+001
  0
LINE
  8
1
  6
CONTINUOUS
 62
3
 10
3.3772217E+001
 20
1.0894787E+001
 11
3.3022217E+001
 21
1.1019787E+001
  0
LINE
  8
1
  6
CONTINUOUS
 62
3
 10
3.3772217E+001
 20
1.0894787E+001
 11
3.3022217E+001
 21
1.0769787E+001
  0
LINE
  8
1
  6
CONTINUOUS
 62
3
 10
3.3022217E+001
 20
1.1019787E+001
 11
3.3022217E+001
 21
1.0769787E+001
  0
LINE
  8
1
  6
CONTINUOUS
 62
3
 10
4.772217
 20
1.0894787E+001
 11
5.522217
 21
1.1019787E+001
  0
LINE
  8
1
  6
CONTINUOUS
 62
3
 10
4.772217
 20
1.0894787E+001
 11
5.522217
 21
1.0769787E+001
  0
LINE
  8
1
  6
CONTINUOUS
 62
3
 10
5.522217
 20
1.1019787E+001
 11
5.522217
 21
1.0769787E+001
  0
LINE
  8
1
  6
CONTINUOUS
 62
3
 10
3.3772217E+001
 20
1.0894787E+001
 11
2.0740967E+001
 21
1.0894787E+001
  0
LINE
  8
1
  6
CONTINUOUS
 62
3
 10
4.772217
 20
1.0894787E+001
 11
1.7803467E+001
 21
1.0894787E+001
  0
TEXT
  8
1
  6
CONTINUOUS
 62
3
 10
1.7865967E+001
 20
1.0769787E+001
 40
2.5E-001
  1
29.000
  0
TEXT
  8
1
  6
CONTINUOUS
 62
3
 10
1.9428467E+001
 20
1.0957287E+001
 40
2.5E-001
  1
+.031
  0
TEXT
  8
1
  6
CONTINUOUS
 62
3
 10
1.9428467E+001
 20
1.0582287E+001
 40
2.5E-001
  1
-.062
  0
ENDBLK
  0
BLOCK
  2
*D432
  3
*D
 10
0.0
 20
0.0
 70
65
  0
CIRCLE
  8
1
  6
CONTINUOUS
 62
3
 10
8.6831228
 20
9.431425
 40
2.0E-001
  0
TEXT
  8
1
  6
CONTINUOUS
 62
3
 10
8.5831228
 20
9.331425
 40
2.0E-001
  1
D
  0
ENDBLK
  0
BLOCK
  2
*D433
  3
*D
 10
0.0
 20
0.0
 70
65
  0
CIRCLE
  8
1
  6
CONTINUOUS
 62
3
 10
1.811626E+001
 20
1.1395058E+001
 40
2.0E-001
  0
TEXT
  8
1
  6
CONTINUOUS
 62
3
 10
1.801626E+001
 20
1.1295058E+001
 40
2.0E-001
  1
D
  0
ENDBLK
  0
BLOCK
  2
*D434
  3
*D
 10
0.0
 20
0.0
 70
65
  0
CIRCLE
  8
1
  6
CONTINUOUS
 62
3
 10
2.6009293E+001
 20
1.3589706E+001
 40
2.0E-001
  0
TEXT
  8
1
  6
CONTINUOUS
 62
3
 10
2.5909293E+001
 20
1.3489706E+001
 40
2.0E-001
  1
D
  0
ENDBLK
  0
BLOCK
  2
*D454
  3
*D
 10
0.0
 20
0.0
 70
65
  0
CIRCLE
  8
1
  6
CONTINUOUS
 62
3
 10
3.8561882
 20
2.1922955E+001
 40
1.25E-001
  0
TEXT
  8
1
  6
CONTINUOUS
 62
3
 10
3.7936882
 20
2.1860455E+001
 40
1.25E-001
  1
D
  0
ENDBLK
  0
BLOCK
  2
*D455
  3
*D
 10
0.0
 20
0.0
 70
65
  0
CIRCLE
  8
1
  6
CONTINUOUS
 62
3
 10
3.9106599
 20
2.0416235E+001
 40
1.25E-001
  0
TEXT
  8
1
  6
CONTINUOUS
 62
3
 10
3.8481599
 20
2.0353735E+001
 40
1.25E-001
  1
D
  0
ENDBLK
  0
BLOCK
  2
*D713
  3
*D
 10
0.0
 20
0.0
 70
65
  0
LINE
  8
1
  6
CONTINUOUS
 62
3
 10
1.9272217E+001
 20
6.8155061
 11
2.1245038E+001
 21
9.4785368
  0
LINE
  8
1
  6
CONTINUOUS
 62
3
 10
1.9272217E+001
 20
6.8155061
 11
1.9636811E+001
 21
7.1676642
  0
LINE
  8
1
  6
CONTINUOUS
 62
3
 10
1.9272217E+001
 20
6.8155061
 11
1.950289E+001
 21
7.2668755
  0
LINE
  8
1
  6
CONTINUOUS
 62
3
 10
1.9636811E+001
 20
7.1676642
 11
1.950289E+001
 21
7.2668755
  0
LINE
  8
1
  6
CONTINUOUS
 62
3
 10
2.1370038E+001
 20
9.4785368
 11
2.1245038E+001
 21
9.4785368
  0
TEXT
  8
1
  6
CONTINUOUS
 62
3
 10
2.1432538E+001
 20
9.3535368
 40
2.5E-001
  1
CREASE
  0
TEXT
  8
1
  6
CONTINUOUS
 62
3
 10
2.1432538E+001
 20
8.9785368
 40
2.5E-001
  1
TYP. 2 PLACES
  0
ENDBLK
  0
BLOCK
  2
*D731
  3
*D
 10
0.0
 20
0.0
 70
65
  0
LINE
  8
1
  6
CONTINUOUS
 62
3
 10
2.0372207E+001
 20
1.4759489E+001
 11
2.1362602E+001
 21
1.6184421E+001
  0
LINE
  8
1
  6
CONTINUOUS
 62
3
 10
2.0372207E+001
 20
1.4759489E+001
 11
2.0637551E+001
 21
1.5031746E+001
  0
LINE
  8
1
  6
CONTINUOUS
 62
3
 10
2.0372207E+001
 20
1.4759489E+001
 11
2.0534909E+001
 21
1.5103087E+001
  0
LINE
  8
1
  6
CONTINUOUS
 62
3
 10
2.0637551E+001
 20
1.5031746E+001
 11
2.0534909E+001
 21
1.5103087E+001
  0
LINE
  8
1
  6
CONTINUOUS
 62
3
 10
2.1612602E+001
 20
1.6184421E+001
 11
2.1362602E+001
 21
1.6184421E+001
  0
TEXT
  8
1
  6
CONTINUOUS
 62
3
 10
2.1675102E+001
 20
1.6090671E+001
 40
1.875E-001
  1
EMBOSS
  0
ENDBLK
  0
BLOCK
  2
*D732
  3
*D
 10
0.0
 20
0.0
 70
65
  0
LINE
  8
1
  6
CONTINUOUS
 62
3
 10
4.1688555
 20
-3.4129543E-002
 11
4.9933161
 21
1.9651327
  0
LINE
  8
1
  6
CONTINUOUS
 62
3
 10
4.1688555
 20
-3.4129543E-002
 11
4.3695996
 21
2.8872192E-001
  0
LINE
  8
1
  6
CONTINUOUS
 62
3
 10
4.1688555
 20
-3.4129543E-002
 11
4.25404
 21
3.3637668E-001
  0
LINE
  8
1
  6
CONTINUOUS
 62
3
 10
4.3695996
 20
2.8872192E-001
 11
4.25404
 21
3.3637668E-001
  0
LINE
  8
1
  6
CONTINUOUS
 62
3
 10
5.2433161
 20
1.9651327
 11
4.9933161
 21
1.9651327
  0
TEXT
  8
1
  6
CONTINUOUS
 62
3
 10
5.3058161
 20
1.8401327
 40
2.5E-001
  1
TEMPLATE OUTLINE
  0
ENDBLK
  0
BLOCK
  2
*D734
  3
*D
 10
0.0
 20
0.0
 70
65
  0
LINE
  8
4
  6
CONTINUOUS
 62
3
 10
1.2371163E+001
 20
-7.2516014
 11
1.2371163E+001
 21
-1.7080955E+001
  0
LINE
  8
4
  6
CONTINUOUS
 62
3
 10
-2.2313988E+001
 20
-5.9754329
 11
-2.2313988E+001
 21
-1.7080955E+001
  0
LINE
  8
4
  6
CONTINUOUS
 62
3
 10
1.2371163E+001
 20
-1.7018455E+001
 11
1.2183663E+001
 21
-1.6987205E+001
  0
LINE
  8
4
  6
CONTINUOUS
 62
3
 10
1.2371163E+001
 20
-1.7018455E+001
 11
1.2183663E+001
 21
-1.7049705E+001
  0
LINE
  8
4
  6
CONTINUOUS
 62
3
 10
1.2183663E+001
 20
-1.6987205E+001
 11
1.2183663E+001
 21
-1.7049705E+001
  0
LINE
  8
4
  6
CONTINUOUS
 62
3
 10
-2.2313988E+001
 20
-1.7018455E+001
 11
-2.2126488E+001
 21
-1.6987205E+001
  0
LINE
  8
4
  6
CONTINUOUS
 62
3
 10
-2.2313988E+001
 20
-1.7018455E+001
 11
-2.2126488E+001
 21
-1.7049705E+001
  0
LINE
  8
4
  6
CONTINUOUS
 62
3
 10
-2.2126488E+001
 20
-1.6987205E+001
 11
-2.2126488E+001
 21
-1.7049705E+001
  0
LINE
  8
4
  6
CONTINUOUS
 62
3
 10
1.2371163E+001
 20
-1.7018455E+001
 11
-3.5026627
 21
-1.7018455E+001
  0
LINE
  8
4
  6
CONTINUOUS
 62
3
 10
-2.2313988E+001
 20
-1.7018455E+001
 11
-6.4401627
 21
-1.7018455E+001
  0
TEXT
  8
4
  6
CONTINUOUS
 62
3
 10
-6.3776627
 20
-1.7143455E+001
 40
2.5E-001
  1
34.685
  0
TEXT
  8
4
  6
CONTINUOUS
 62
3
 10
-4.8151627
 20
-1.6955955E+001
 40
2.5E-001
  1
+.000
  0
TEXT
  8
4
  6
CONTINUOUS
 62
3
 10
-4.8151627
 20
-1.7330955E+001
 40
2.5E-001
  1
-.062
  0
ENDBLK
  0
BLOCK
  2
*D735
  3
*D
 10
0.0
 20
0.0
 70
65
  0
LINE
  8
4
  6
CONTINUOUS
 62
3
 10
6.1396624
 20
-1.4194001E+001
 11
1.4673525E+001
 21
-1.4194001E+001
  0
LINE
  8
4
  6
CONTINUOUS
 62
3
 10
6.1396624
 20
-3.4101436E-002
 11
1.4673525E+001
 21
-3.4101436E-002
  0
LINE
  8
4
  6
CONTINUOUS
 62
3
 10
1.4611025E+001
 20
-1.4194001E+001
 11
1.4642275E+001
 21
-1.4006501E+001
  0
LINE
  8
4
  6
CONTINUOUS
 62
3
 10
1.4611025E+001
 20
-1.4194001E+001
 11
1.4579775E+001
 21
-1.4006501E+001
  0
LINE
  8
4
  6
CONTINUOUS
 62
3
 10
1.4642275E+001
 20
-1.4006501E+001
 11
1.4579775E+001
 21
-1.4006501E+001
  0
LINE
  8
4
  6
CONTINUOUS
 62
3
 10
1.4611025E+001
 20
-3.4101436E-002
 11
1.4642275E+001
 21
-2.2160144E-001
  0
LINE
  8
4
  6
CONTINUOUS
 62
3
 10
1.4611025E+001
 20
-3.4101436E-002
 11
1.4579775E+001
 21
-2.2160144E-001
  0
LINE
  8
4
  6
CONTINUOUS
 62
3
 10
1.4642275E+001
 20
-2.2160144E-001
 11
1.4579775E+001
 21
-2.2160144E-001
  0
LINE
  8
4
  6
CONTINUOUS
 62
3
 10
1.4611025E+001
 20
-1.4194001E+001
 11
1.4611025E+001
 21
-7.3015513
  0
LINE
  8
4
  6
CONTINUOUS
 62
3
 10
1.4611025E+001
 20
-3.4101436E-002
 11
1.4611025E+001
 21
-6.9265513
  0
TEXT
  8
4
  6
CONTINUOUS
 62
3
 10
1.3861025E+001
 20
-7.2390513
 40
2.5E-001
  1
14.160
  0
ENDBLK
  0
BLOCK
  2
*D736
  3
*D
 10
0.0
 20
0.0
 70
65
  0
LINE
  8
4
  6
CONTINUOUS
 62
3
 10
-1.1423413E+001
 20
-1.4194055E+001
 11
-2.5344316E+001
 21
-1.4194055E+001
  0
LINE
  8
4
  6
CONTINUOUS
 62
3
 10
-1.1423413E+001
 20
5.3234525
 11
-2.5344316E+001
 21
5.3234525
  0
LINE
  8
4
  6
CONTINUOUS
 62
3
 10
-2.5281816E+001
 20
-1.4194055E+001
 11
-2.5250566E+001
 21
-1.4006555E+001
  0
LINE
  8
4
  6
CONTINUOUS
 62
3
 10
-2.5281816E+001
 20
-1.4194055E+001
 11
-2.5313066E+001
 21
-1.4006555E+001
  0
LINE
  8
4
  6
CONTINUOUS
 62
3
 10
-2.5250566E+001
 20
-1.4006555E+001
 11
-2.5313066E+001
 21
-1.4006555E+001
  0
LINE
  8
4
  6
CONTINUOUS
 62
3
 10
-2.5281816E+001
 20
5.3234525
 11
-2.5250566E+001
 21
5.1359525
  0
LINE
  8
4
  6
CONTINUOUS
 62
3
 10
-2.5281816E+001
 20
5.3234525
 11
-2.5313066E+001
 21
5.1359525
  0
LINE
  8
4
  6
CONTINUOUS
 62
3
 10
-2.5250566E+001
 20
5.1359525
 11
-2.5313066E+001
 21
5.1359525
  0
LINE
  8
4
  6
CONTINUOUS
 62
3
 10
-2.5281816E+001
 20
-1.4194055E+001
 11
-2.5281816E+001
 21
-4.622801
  0
LINE
  8
4
  6
CONTINUOUS
 62
3
 10
-2.5281816E+001
 20
5.3234525
 11
-2.5281816E+001
 21
-4.247801
  0
TEXT
  8
4
  6
CONTINUOUS
 62
3
 10
-2.6031816E+001
 20
-4.560301
 40
2.5E-001
  1
19.518
  0
ENDBLK
  0
BLOCK
  2
*D754
  3
*D
 10
0.0
 20
0.0
 70
65
  0
LINE
  8
1
  6
CONTINUOUS
 62
3
 10
1.0971457E+001
 20
-1.2969586E+001
 11
8.0381097
 21
-9.9222969
  0
LINE
  8
1
  6
CONTINUOUS
 62
3
 10
1.0971457E+001
 20
-1.2969586E+001
 11
1.0756419E+001
 21
-1.2656074E+001
  0
LINE
  8
1
  6
CONTINUOUS
 62
3
 10
1.0971457E+001
 20
-1.2969586E+001
 11
1.0666363E+001
 21
-1.2742762E+001
  0
LINE
  8
1
  6
CONTINUOUS
 62
3
 10
1.0756419E+001
 20
-1.2656074E+001
 11
1.0666363E+001
 21
-1.2742762E+001
  0
LINE
  8
1
  6
CONTINUOUS
 62
3
 10
7.7881097
 20
-9.9222969
 11
8.0381097
 21
-9.9222969
  0
TEXT
  8
1
  6
CONTINUOUS
 62
3
 10
6.2256097
 20
-1.0047297E+001
 40
2.5E-001
  1
R3.773
  0
ENDBLK
  0
BLOCK
  2
*D755
  3
*D
 10
0.0
 20
0.0
 70
65
  0
LINE
  8
1
  6
CONTINUOUS
 62
3
 10
1.2370979E+001
 20
-7.0328757
 11
1.0061796E+001
 21
-7.0329911
  0
LINE
  8
1
  6
CONTINUOUS
 62
3
 10
1.2370979E+001
 20
-7.0328757
 11
1.1995976E+001
 21
-6.9703945
  0
LINE
  8
1
  6
CONTINUOUS
 62
3
 10
1.2370979E+001
 20
-7.0328757
 11
1.1995982E+001
 21
-7.0953945
  0
LINE
  8
1
  6
CONTINUOUS
 62
3
 10
1.1995976E+001
 20
-6.9703945
 11
1.1995982E+001
 21
-7.0953945
  0
LINE
  8
1
  6
CONTINUOUS
 62
3
 10
9.8117964
 20
-7.0329911
 11
1.0061796E+001
 21
-7.0329911
  0
TEXT
  8
1
  6
CONTINUOUS
 62
3
 10
7.9992964
 20
-7.1579911
 40
2.5E-001
  1
R23.968
  0
ENDBLK
  0
BLOCK
  2
*D756
  3
*D
 10
0.0
 20
0.0
 70
65
  0
LINE
  8
1
  6
CONTINUOUS
 62
3
 10
1.0942979E+001
 20
-1.2272407
 11
8.2032129
 21
-4.1436853
  0
LINE
  8
1
  6
CONTINUOUS
 62
3
 10
1.0942979E+001
 20
-1.2272407
 11
1.0640669E+001
 21
-1.4577624
  0
LINE
  8
1
  6
CONTINUOUS
 62
3
 10
1.0942979E+001
 20
-1.2272407
 11
1.0731774E+001
 21
-1.543348
  0
LINE
  8
1
  6
CONTINUOUS
 62
3
 10
1.0640669E+001
 20
-1.4577624
 11
1.0731774E+001
 21
-1.543348
  0
LINE
  8
1
  6
CONTINUOUS
 62
3
 10
7.9532129
 20
-4.1436853
 11
8.2032129
 21
-4.1436853
  0
TEXT
  8
1
  6
CONTINUOUS
 62
3
 10
6.3907129
 20
-4.2686853
 40
2.5E-001
  1
R3.733
  0
ENDBLK
  0
BLOCK
  2
*D757
  3
*D
 10
0.0
 20
0.0
 70
65
  0
LINE
  8
1
  6
CONTINUOUS
 62
3
 10
8.3888129
 20
-1.8013099E-001
 11
8.2456613
 21
-1.9560681
  0
LINE
  8
1
  6
CONTINUOUS
 62
3
 10
8.3888129
 20
-1.8013099E-001
 11
8.2963853
 21
-5.4889704E-001
  0
LINE
  8
1
  6
CONTINUOUS
 62
3
 10
8.3888129
 20
-1.8013099E-001
 11
8.4209812
 21
-5.5894025E-001
  0
LINE
  8
1
  6
CONTINUOUS
 62
3
 10
8.2963853
 20
-5.4889704E-001
 11
8.4209812
 21
-5.5894025E-001
  0
LINE
  8
1
  6
CONTINUOUS
 62
3
 10
7.9956613
 20
-1.9560681
 11
8.2456613
 21
-1.9560681
  0
TEXT
  8
1
  6
CONTINUOUS
 62
3
 10
6.1831613
 20
-2.0810681
 40
2.5E-001
  1
R19.372
  0
ENDBLK
  0
BLOCK
  2
*D759
  3
*D
 10
0.0
 20
0.0
 70
65
  0
LINE
  8
1
  6
CONTINUOUS
 62
3
 10
0.0
 20
-1.1173437E+001
 11
-1.8837956E-001
 21
-1.1148021E+001
  0
LINE
  8
1
  6
CONTINUOUS
 62
3
 10
0.0
 20
-1.1173437E+001
 11
-1.8643978E-001
 21
-1.1210491E+001
  0
LINE
  8
1
  6
CONTINUOUS
 62
3
 10
-1.8837956E-001
 20
-1.1148021E+001
 11
-1.8643978E-001
 21
-1.1210491E+001
  0
LINE
  8
1
  6
CONTINUOUS
 62
3
 10
-3.0206422
 20
-1.4194079E+001
 11
-3.0460578
 21
-1.4005699E+001
  0
LINE
  8
1
  6
CONTINUOUS
 62
3
 10
-3.0206422
 20
-1.4194079E+001
 11
-2.9835879
 21
-1.4007639E+001
  0
LINE
  8
1
  6
CONTINUOUS
 62
3
 10
-3.0460578
 20
-1.4005699E+001
 11
-2.9835879
 21
-1.4007639E+001
  0
ARC
  8
1
  6
CONTINUOUS
 62
3
 10
0.0
 20
-1.4194079E+001
 40
3.0206422
 50
9.0E+001
 51
1.2971972E+002
  0
ARC
  8
1
  6
CONTINUOUS
 62
3
 10
0.0
 20
-1.4194079E+001
 40
3.0206422
 50
1.3983178E+002
 51
1.8E+002
  0
TEXT
  8
1
  6
CONTINUOUS
 62
3
 10
-3.5109166
 20
-1.2183162E+001
 40
2.5E-001
  1
90.00%%d
  0
TEXT
  8
1
  6
CONTINUOUS
 62
3
 10
-2.0109166
 20
-1.2183162E+001
 40
2.5E-001
  1
 TYP.
  0
ENDBLK
  0
BLOCK
  2
*D760
  3
*D
 10
0.0
 20
0.0
 70
65
  0
LINE
  8
1
  6
CONTINUOUS
 62
3
 10
-8.0798607E-001
 20
2.7182764E-001
 11
5.059803E-001
 21
2.7493728
  0
LINE
  8
1
  6
CONTINUOUS
 62
3
 10
-8.0798607E-001
 20
2.7182764E-001
 11
-5.770701E-001
 21
5.7383603E-001
  0
LINE
  8
1
  6
CONTINUOUS
 62
3
 10
-8.0798607E-001
 20
2.7182764E-001
 11
-6.8750071E-001
 21
6.3240292E-001
  0
LINE
  8
1
  6
CONTINUOUS
 62
3
 10
-5.770701E-001
 20
5.7383603E-001
 11
-6.8750071E-001
 21
6.3240292E-001
  0
LINE
  8
1
  6
CONTINUOUS
 62
3
 10
7.559803E-001
 20
2.7493728
 11
5.059803E-001
 21
2.7493728
  0
TEXT
  8
1
  6
CONTINUOUS
 62
3
 10
8.184803E-001
 20
2.6243728
 40
2.5E-001
  1
R2.625
  0
ENDBLK
  0
BLOCK
  2
*D763
  3
*D
 10
0.0
 20
0.0
 70
65
  0
LINE
  8
1
  6
CONTINUOUS
 62
3
 10
0.0
 20
-2.0914672
 11
-1.4553237
 21
-2.9054114
  0
LINE
  8
1
  6
CONTINUOUS
 62
3
 10
0.0
 20
-2.0914672
 11
-3.5779724E-001
 21
-2.2199677
  0
LINE
  8
1
  6
CONTINUOUS
 62
3
 10
0.0
 20
-2.0914672
 11
-2.9678101E-001
 21
-2.329064
  0
LINE
  8
1
  6
CONTINUOUS
 62
3
 10
-3.5779724E-001
 20
-2.2199677
 11
-2.9678101E-001
 21
-2.329064
  0
LINE
  8
1
  6
CONTINUOUS
 62
3
 10
-1.7053237
 20
-2.9054114
 11
-1.4553237
 21
-2.9054114
  0
TEXT
  8
1
  6
CONTINUOUS
 62
3
 10
-3.2678237
 20
-3.0304114
 40
2.5E-001
  1
CREASE
  0
ENDBLK
  0
BLOCK
  2
*D765
  3
*D
 10
0.0
 20
0.0
 70
65
  0
LINE
  8
1
  6
CONTINUOUS
 62
3
 10
-2.2174585
 20
1.8547138
 11
-4.2196295
 21
4.7920396E-001
  0
LINE
  8
1
  6
CONTINUOUS
 62
3
 10
-2.2174585
 20
1.8547138
 11
-2.5619359
 21
1.6938829
  0
LINE
  8
1
  6
CONTINUOUS
 62
3
 10
-2.2174585
 20
1.8547138
 11
-2.4911542
 21
1.5908541
  0
LINE
  8
1
  6
CONTINUOUS
 62
3
 10
-2.5619359
 20
1.6938829
 11
-2.4911542
 21
1.5908541
  0
LINE
  8
1
  6
CONTINUOUS
 62
3
 10
-4.4696295
 20
4.7920396E-001
 11
-4.2196295
 21
4.7920396E-001
  0
TEXT
  8
1
  6
CONTINUOUS
 62
3
 10
-6.2821295
 20
3.5420396E-001
 40
2.5E-001
  1
R10.452
  0
ENDBLK
  0
BLOCK
  2
*D766
  3
*D
 10
0.0
 20
0.0
 70
65
  0
LINE
  8
1
  6
CONTINUOUS
 62
3
 10
-5.1295844
 20
4.513296
 11
-6.5735225
 21
1.6762021
  0
LINE
  8
1
  6
CONTINUOUS
 62
3
 10
-5.1295844
 20
4.513296
 11
-5.3553789
 21
4.2074397
  0
LINE
  8
1
  6
CONTINUOUS
 62
3
 10
-5.1295844
 20
4.513296
 11
-5.2439772
 21
4.1507418
  0
LINE
  8
1
  6
CONTINUOUS
 62
3
 10
-5.3553789
 20
4.2074397
 11
-5.2439772
 21
4.1507418
  0
LINE
  8
1
  6
CONTINUOUS
 62
3
 10
-6.8235225
 20
1.6762021
 11
-6.5735225
 21
1.6762021
  0
TEXT
  8
1
  6
CONTINUOUS
 62
3
 10
-8.3860225
 20
1.5512021
 40
2.5E-001
  1
R6.545
  0
ENDBLK
  0
BLOCK
  2
*D767
  3
*D
 10
0.0
 20
0.0
 70
65
  0
LINE
  8
1
  6
CONTINUOUS
 62
3
 10
-1.0977616E+001
 20
5.3221798
 11
-1.0940031E+001
 21
1.6985989
  0
LINE
  8
1
  6
CONTINUOUS
 62
3
 10
-1.0977616E+001
 20
5.3221798
 11
-1.1036223E+001
 21
4.9465517
  0
LINE
  8
1
  6
CONTINUOUS
 62
3
 10
-1.0977616E+001
 20
5.3221798
 11
-1.091123E+001
 21
4.9478482
  0
LINE
  8
1
  6
CONTINUOUS
 62
3
 10
-1.1036223E+001
 20
4.9465517
 11
-1.091123E+001
 21
4.9478482
  0
TEXT
  8
1
  6
CONTINUOUS
 62
3
 10
-1.1813086E+001
 20
1.3860989
 40
2.5E-001
  1
R40.438
  0
ENDBLK
  0
BLOCK
  2
*D768
  3
*D
 10
0.0
 20
0.0
 70
65
  0
LINE
  8
1
  6
CONTINUOUS
 62
3
 10
-1.6870326E+001
 20
4.7876445
 11
-1.5963063E+001
 21
1.5936505
  0
LINE
  8
1
  6
CONTINUOUS
 62
3
 10
-1.6870326E+001
 20
4.7876445
 11
-1.6827981E+001
 21
4.4098374
  0
LINE
  8
1
  6
CONTINUOUS
 62
3
 10
-1.6870326E+001
 20
4.7876445
 11
-1.6707738E+001
 21
4.4439928
  0
LINE
  8
1
  6
CONTINUOUS
 62
3
 10
-1.6827981E+001
 20
4.4098374
 11
-1.6707738E+001
 21
4.4439928
  0
LINE
  8
1
  6
CONTINUOUS
 62
3
 10
-1.5713063E+001
 20
1.5936505
 11
-1.5963063E+001
 21
1.5936505
  0
TEXT
  8
1
  6
CONTINUOUS
 62
3
 10
-1.5650563E+001
 20
1.4686505
 40
2.5E-001
  1
R6.545
  0
ENDBLK
  0
BLOCK
  2
*D773
  3
*D
 10
0.0
 20
0.0
 70
65
  0
LINE
  8
1
  6
CONTINUOUS
 62
3
 10
-2.1008283E+001
 20
9.2315629E-001
 11
-1.8605887E+001
 21
-4.2886354E-001
  0
LINE
  8
1
  6
CONTINUOUS
 62
3
 10
-2.1008283E+001
 20
9.2315629E-001
 11
-2.0712134E+001
 21
6.8477196E-001
  0
LINE
  8
1
  6
CONTINUOUS
 62
3
 10
-2.1008283E+001
 20
9.2315629E-001
 11
-2.0650829E+001
 21
7.9370589E-001
  0
LINE
  8
1
  6
CONTINUOUS
 62
3
 10
-2.0712134E+001
 20
6.8477196E-001
 11
-2.0650829E+001
 21
7.9370589E-001
  0
LINE
  8
1
  6
CONTINUOUS
 62
3
 10
-1.8355887E+001
 20
-4.2886354E-001
 11
-1.8605887E+001
 21
-4.2886354E-001
  0
TEXT
  8
1
  6
CONTINUOUS
 62
3
 10
-1.8293387E+001
 20
-5.5386354E-001
 40
2.5E-001
  1
R10.452
  0
ENDBLK
  0
BLOCK
  2
*D775
  3
*D
 10
0.0
 20
0.0
 70
65
  0
LINE
  8
1
  6
CONTINUOUS
 62
3
 10
-2.2297813E+001
 20
-4.7662528
 11
-1.9472678E+001
 21
-4.7628223
  0
LINE
  8
1
  6
CONTINUOUS
 62
3
 10
-2.2297813E+001
 20
-4.7662528
 11
-2.1922738E+001
 21
-4.8282974
  0
LINE
  8
1
  6
CONTINUOUS
 62
3
 10
-2.2297813E+001
 20
-4.7662528
 11
-2.1922889E+001
 21
-4.7032975
  0
LINE
  8
1
  6
CONTINUOUS
 62
3
 10
-2.1922738E+001
 20
-4.8282974
 11
-2.1922889E+001
 21
-4.7032975
  0
LINE
  8
1
  6
CONTINUOUS
 62
3
 10
-1.9222678E+001
 20
-4.7628223
 11
-1.9472678E+001
 21
-4.7628223
  0
TEXT
  8
1
  6
CONTINUOUS
 62
3
 10
-1.9160178E+001
 20
-4.8878223
 40
2.5E-001
  1
R36.344
  0
ENDBLK
  0
BLOCK
  2
*D780
  3
*D
 10
0.0
 20
0.0
 70
65
  0
LINE
  8
1
  6
CONTINUOUS
 62
3
 10
-2.1085031E+001
 20
-1.2621965E+001
 11
-1.9717988E+001
 21
-1.1449501E+001
  0
LINE
  8
1
  6
CONTINUOUS
 62
3
 10
-2.1085031E+001
 20
-1.2621965E+001
 11
-2.0759694E+001
 21
-1.2425274E+001
  0
LINE
  8
1
  6
CONTINUOUS
 62
3
 10
-2.1085031E+001
 20
-1.2621965E+001
 11
-2.0841071E+001
 21
-1.2330391E+001
  0
LINE
  8
1
  6
CONTINUOUS
 62
3
 10
-2.0759694E+001
 20
-1.2425274E+001
 11
-2.0841071E+001
 21
-1.2330391E+001
  0
LINE
  8
1
  6
CONTINUOUS
 62
3
 10
-1.9467988E+001
 20
-1.1449501E+001
 11
-1.9717988E+001
 21
-1.1449501E+001
  0
TEXT
  8
1
  6
CONTINUOUS
 62
3
 10
-1.9405488E+001
 20
-1.1574501E+001
 40
2.5E-001
  1
R3.75
  0
ENDBLK
  0
BLOCK
  2
*D782
  3
*D
 10
0.0
 20
0.0
 70
65
  0
LINE
  8
1
  6
CONTINUOUS
 62
3
 10
-1.511537E+001
 20
-1.4106411E+001
 11
-1.5056168E+001
 21
-1.1862259E+001
  0
LINE
  8
1
  6
CONTINUOUS
 62
3
 10
-1.511537E+001
 20
-1.4106411E+001
 11
-1.5043002E+001
 21
-1.3733189E+001
  0
LINE
  8
1
  6
CONTINUOUS
 62
3
 10
-1.511537E+001
 20
-1.4106411E+001
 11
-1.5167959E+001
 21
-1.3729893E+001
  0
LINE
  8
1
  6
CONTINUOUS
 62
3
 10
-1.5043002E+001
 20
-1.3733189E+001
 11
-1.5167959E+001
 21
-1.3729893E+001
  0
LINE
  8
1
  6
CONTINUOUS
 62
3
 10
-1.4806168E+001
 20
-1.1862259E+001
 11
-1.5056168E+001
 21
-1.1862259E+001
  0
TEXT
  8
1
  6
CONTINUOUS
 62
3
 10
-1.4743668E+001
 20
-1.1987259E+001
 40
2.5E-001
  1
R80.438
  0
ENDBLK
  0
BLOCK
  2
*D827
  3
*D
 10
0.0
 20
0.0
 70
65
  0
LINE
  8
1
  6
CONTINUOUS
 62
1
 10
-7.739419
 20
2.371688E-001
 11
-7.739419
 21
6.265583E-001
  0
LINE
  8
1
  6
CONTINUOUS
 62
1
 10
-7.739419
 20
2.371688E-001
 11
-7.7096571
 21
4.1574023E-001
  0
LINE
  8
1
  6
CONTINUOUS
 62
1
 10
-7.739419
 20
2.371688E-001
 11
-7.7691809
 21
4.1574023E-001
  0
LINE
  8
1
  6
CONTINUOUS
 62
1
 10
-7.7096571
 20
4.1574023E-001
 11
-7.7691809
 21
4.1574023E-001
  0
ENDBLK
  0
BLOCK
  2
*D828
  3
*D
 10
0.0
 20
0.0
 70
65
  0
LINE
  8
1
  6
CONTINUOUS
 62
1
 10
-9.565047E-001
 20
2.371688E-001
 11
-9.565047E-001
 21
6.265583E-001
  0
LINE
  8
1
  6
CONTINUOUS
 62
1
 10
-9.565047E-001
 20
2.371688E-001
 11
-9.267428E-001
 21
4.1574023E-001
  0
LINE
  8
1
  6
CONTINUOUS
 62
1
 10
-9.565047E-001
 20
2.371688E-001
 11
-9.862666E-001
 21
4.1574023E-001
  0
LINE
  8
1
  6
CONTINUOUS
 62
1
 10
-9.267428E-001
 20
4.1574023E-001
 11
-9.862666E-001
 21
4.1574023E-001
  0
ENDBLK
  0
BLOCK
  2
*D846
  3
*D
 10
0.0
 20
0.0
 70
65
  0
CIRCLE
  8
1
  6
CONTINUOUS
 62
3
 10
3.4347162E+001
 20
1.7999532
 40
7.0E-002
  0
TEXT
  8
1
  6
CONTINUOUS
 62
3
 10
3.4312162E+001
 20
1.7649532
 40
7.0E-002
  1
E
  0
ENDBLK
  0
ENDSEC
  0
SECTION
  2
ENTITIES
  0
LINE
  8
0
  6
CONTINUOUS
 62
3
 10
3.87096E-002
 20
3.122672
 11
3.5075869E+001
 21
3.122672
  0
LINE
  8
0
  6
CONTINUOUS
 62
3
 10
3.5075869E+001
 20
3.122672
 11
3.5075869E+001
 21
2.3109631E+001
  0
LINE
  8
0
  6
CONTINUOUS
 62
3
 10
3.5075869E+001
 20
2.3109631E+001
 11
3.87096E-002
 21
2.3109631E+001
  0
LINE
  8
0
  6
CONTINUOUS
 62
3
 10
3.87096E-002
 20
2.3109631E+001
 11
3.87096E-002
 21
3.122672
  0
TEXT
  8
1
  6
CONTINUOUS
 62
7
 10
8.87096E-002
 20
3.172672
 40
1.25E-001
  1
3-FRONT
 50
1.0
  0
LINE
  8
180
  6
CONTINUOUS
 62
6
 10
3.490272E+001
 20
2.3161282E+001
 11
4.9646759E-001
 21
2.3161282E+001
  0
LINE
  8
1
  6
CONTINUOUS
 62
1
 10
3.4397217E+001
 20
1.7988757E+001
 11
3.4397217E+001
 21
8.2387573
  0
DIMENSION
  8
1
  6
CONTINUOUS
 62
3
  2
*D44
  3
DSTYLE1
 10
4.147217
 20
3.7438968
 11
1.9272217E+001
 21
3.7438968
 70
128
 13
3.4397217E+001
 23
8.2387573
 14
4.147217
 24
8.2387573
 40
0.0
 50
0.0
  0
DIMENSION
  8
1
  6
CONTINUOUS
 62
3
  2
*D45
  3
DSTYLE1
 10
3.0540171E+001
 20
2.1488757E+001
 11
3.0540171E+001
 21
1.3113757E+001
 70
128
 13
3.0897217E+001
 23
4.7387573
 14
3.0897217E+001
 24
2.1488757E+001
 40
0.0
 50
9.0E+001
  0
DIMENSION
  8
1
  6
CONTINUOUS
 62
3
  1
<>
  2
*D46
  3
DSTYLE2
 10
7.647217
 20
1.7988757E+001
 11
1.005373E+001
 21
1.7271828E+001
 70
4
 15
5.2242532
 25
2.0514474E+001
 40
-4.4934813
  0
INSERT
  2
*TX45
  8
126
 10
3.0935376E+001
 20
1.0572064
  0
INSERT
  2
*D49
  8
1
 10
0.0
 20
0.0
  0
INSERT
  2
*D50
  8
1
 10
0.0
 20
0.0
  0
LINE
  8
180
  6
CONTINUOUS
 62
6
 10
4.9646759E-001
 20
2.3161282E+001
 11
4.9646759E-001
 21
5.9107806E-001
  0
LINE
  8
180
  6
CONTINUOUS
 62
6
 10
3.490272E+001
 20
5.6789328E-001
 11
4.9646759E-001
 21
5.9107806E-001
  0
INSERT
  2
*D384
  8
1
 10
0.0
 20
0.0
  0
INSERT
  2
*TX50
  8
126
 10
8.177782E-001
 20
1.569071
  0
INSERT
  2
*D387
  8
1
 10
0.0
 20
0.0
  0
LINE
  8
1
  6
LONG_DASH
 62
4
 10
3.3772217E+001
 20
1.7988757E+001
 11
3.3772217E+001
 21
8.2387573
  0
ARC
  8
1
  6
LONG_DASH
 62
4
 10
3.0897217E+001
 20
8.2387573
 40
2.875
 50
2.7E+002
 51
3.6E+002
  0
LINE
  8
1
  6
LONG_DASH
 62
4
 10
3.0897217E+001
 20
5.3637573
 11
7.647217
 21
5.3637573
  0
INSERT
  2
*D392
  8
1
 10
0.0
 20
0.0
  0
INSERT
  2
*TX59
  8
126
 10
2.9035503E+001
 20
1.6471117
  0
ARC
  8
1
  6
LONG_DASH
 62
4
 10
7.647217
 20
8.2387573
 40
2.875
 50
1.8E+002
 51
2.7E+002
  0
LINE
  8
1
  6
LONG_DASH
 62
4
 10
4.772217
 20
8.2387573
 11
4.772217
 21
1.7988757E+001
  0
ARC
  8
1
  6
LONG_DASH
 62
4
 10
7.647217
 20
1.7988757E+001
 40
2.875
 50
9.0E+001
 51
1.8E+002
  0
LINE
  8
1
  6
LONG_DASH
 62
4
 10
7.647217
 20
2.0863757E+001
 11
3.0897217E+001
 21
2.0863757E+001
  0
ARC
  8
1
  6
LONG_DASH
 62
4
 10
3.0897217E+001
 20
1.7988757E+001
 40
2.875
 50
0.0
 51
9.0E+001
  0
INSERT
  2
*TX58
  8
1
 10
1.9454056E+001
 20
1.3886304E+001
  0
INSERT
  2
*D404
  8
1
 10
0.0
 20
0.0
  0
INSERT
  2
*D405
  8
1
 10
0.0
 20
0.0
  0
DIMENSION
  8
1
  6
CONTINUOUS
 62
3
  2
*D406
  3
DSTYLE1
 10
2.7028239E+001
 20
2.0863757E+001
 11
2.7028239E+001
 21
1.3113757E+001
 70
128
 13
2.7385285E+001
 23
5.3637573
 14
2.7654803E+001
 24
2.0863757E+001
 40
0.0
 50
9.0E+001
  0
INSERT
  2
*D411
  8
1
 10
0.0
 20
0.0
  0
LINE
  8
1
  6
CONTINUOUS
 62
3
 10
3.2392737E+001
 20
2.3388488
 11
3.2387762E+001
 21
2.3351345
  0
DIMENSION
  8
1
  6
CONTINUOUS
 62
3
  2
*D413
  3
DSTYLE7
 10
7.647217
 20
8.2387573
 11
9.5970834
 21
8.9311542
 70
4
 15
6.3322639
 25
5.6820948
 40
-3.6536092
  0
LINE
  8
1
  6
CONTINUOUS
 62
3
 10
3.253099E+001
 20
2.4503138
 11
3.2535712E+001
 21
2.4455912
  0
LINE
  8
1
  6
CONTINUOUS
 62
3
 10
3.2519941E+001
 20
2.4503138
 11
3.2529386E+001
 21
2.4408684
  0
LINE
  8
1
  6
CONTINUOUS
 62
3
 10
3.2508892E+001
 20
2.4503138
 11
3.2523061E+001
 21
2.4361458
  0
LINE
  8
1
  6
CONTINUOUS
 62
3
 10
3.2497844E+001
 20
2.4503138
 11
3.2516735E+001
 21
2.4314229
  0
LINE
  8
1
  6
CONTINUOUS
 62
3
 10
3.2486795E+001
 20
2.4503138
 11
3.2510409E+001
 21
2.4267001
  0
TEXT
  8
180
  6
CONTINUOUS
 62
1
 10
3.4770622E+001
 20
2.4048311
 40
1.0E-001
  1
MANUFACTURING COMPANY
 72
1
 73
2
 11
3.3720622E+001
 21
2.3548311
  0
LINE
  8
1
  6
CONTINUOUS
 62
3
 10
3.2477914E+001
 20
2.4481466
 11
3.2504083E+001
 21
2.4219775
  0
LINE
  8
1
  6
CONTINUOUS
 62
3
 10
3.2471588E+001
 20
2.4434237
 11
3.2497757E+001
 21
2.4172547
  0
LINE
  8
1
  6
CONTINUOUS
 62
3
 10
3.2465263E+001
 20
2.4387009
 11
3.2491432E+001
 21
2.4125321
  0
LINE
  8
1
  6
CONTINUOUS
 62
3
 10
3.2458937E+001
 20
2.4339783
 11
3.2485106E+001
 21
2.4078093
  0
LINE
  8
1
  6
CONTINUOUS
 62
3
 10
3.2452611E+001
 20
2.4292555
 11
3.247878E+001
 21
2.4030867
  0
DIMENSION
  8
1
  6
CONTINUOUS
 62
3
  2
*D426
  3
DSTYLE1
 10
4.772217
 20
1.0894787E+001
 11
1.9272217E+001
 21
1.0894787E+001
 70
128
 13
3.3772217E+001
 23
1.3113757E+001
 14
4.772217
 24
1.3113757E+001
 40
0.0
 50
0.0
  0
LINE
  8
1
  6
CONTINUOUS
 62
3
 10
3.2446285E+001
 20
2.4245329
 11
3.2472454E+001
 21
2.3983638
  0
LINE
  8
1
  6
CONTINUOUS
 62
3
 10
3.2439959E+001
 20
2.4198101
 11
3.2466128E+001
 21
2.3936412
  0
LINE
  8
1
  6
CONTINUOUS
 62
3
 10
3.2433633E+001
 20
2.4150875
 11
3.2459803E+001
 21
2.3889184
  0
LINE
  8
1
  6
CONTINUOUS
 62
3
 10
3.2427308E+001
 20
2.4103646
 11
3.2453477E+001
 21
2.3841958
  0
LINE
  8
1
  6
CONTINUOUS
 62
3
 10
3.2420982E+001
 20
2.405642
 11
3.2447151E+001
 21
2.379473
  0
INSERT
  2
*D432
  8
1
 10
0.0
 20
0.0
  0
INSERT
  2
*D433
  8
1
 10
0.0
 20
0.0
  0
INSERT
  2
*D434
  8
1
 10
0.0
 20
0.0
  0
LINE
  8
1
  6
CONTINUOUS
 62
3
 10
3.2414656E+001
 20
2.4009192
 11
3.2440825E+001
 21
2.3747501
  0
LINE
  8
1
  6
CONTINUOUS
 62
3
 10
3.240833E+001
 20
2.3961964
 11
3.2434499E+001
 21
2.3700275
  0
LINE
  8
1
  6
CONTINUOUS
 62
3
 10
3.2402004E+001
 20
2.3914738
 11
3.2428173E+001
 21
2.3653047
  0
LINE
  8
1
  6
CONTINUOUS
 62
3
 10
3.2395679E+001
 20
2.3867509
 11
3.2421847E+001
 21
2.3605821
  0
LINE
  8
1
  6
CONTINUOUS
 62
3
 10
3.2389353E+001
 20
2.3820283
 11
3.2415522E+001
 21
2.3558593
  0
LINE
  8
1
  6
CONTINUOUS
 62
3
 10
3.2276873E+001
 20
2.4503138
 11
3.2390218E+001
 21
2.3369684
  0
LINE
  8
1
  6
CONTINUOUS
 62
3
 10
3.2265824E+001
 20
2.4503138
 11
3.2386749E+001
 21
2.3293893
  0
LINE
  8
1
  6
CONTINUOUS
 62
3
 10
3.2254776E+001
 20
2.4503138
 11
3.2385093E+001
 21
2.3199968
  0
LINE
  8
1
  6
CONTINUOUS
 62
3
 10
3.2243727E+001
 20
2.4503138
 11
3.2383437E+001
 21
2.3106046
  0
LINE
  8
1
  6
CONTINUOUS
 62
3
 10
3.2232679E+001
 20
2.4503138
 11
3.2381781E+001
 21
2.3012121
  0
LINE
  8
1
  6
CONTINUOUS
 62
3
 10
3.222163E+001
 20
2.4503138
 11
3.2380124E+001
 21
2.2918196
  0
LINE
  8
1
  6
CONTINUOUS
 62
3
 10
3.2240001E+001
 20
2.4208946
 11
3.2378468E+001
 21
2.2824273
  0
LINE
  8
1
  6
CONTINUOUS
 62
3
 10
3.2329443E+001
 20
2.3204041
 11
3.2376812E+001
 21
2.2730348
  0
LINE
  8
1
  6
CONTINUOUS
 62
3
 10
3.2327787E+001
 20
2.3110116
 11
3.2375156E+001
 21
2.2636425
  0
LINE
  8
1
  6
CONTINUOUS
 62
3
 10
3.2177436E+001
 20
2.4503138
 11
3.2185832E+001
 21
2.4419177
  0
LINE
  8
1
  6
CONTINUOUS
 62
3
 10
3.2326131E+001
 20
2.3016191
 11
3.2365865E+001
 21
2.2618845
  0
LINE
  8
1
  6
CONTINUOUS
 62
3
 10
3.2166387E+001
 20
2.4503138
 11
3.219629E+001
 21
2.4204118
  0
LINE
  8
1
  6
CONTINUOUS
 62
3
 10
3.2324475E+001
 20
2.2922268
 11
3.2354817E+001
 21
2.2618845
  0
LINE
  8
1
  6
CONTINUOUS
 62
3
 10
3.2155339E+001
 20
2.4503138
 11
3.2206747E+001
 21
2.3989058
  0
INSERT
  2
*D454
  8
1
 10
0.0
 20
0.0
  0
INSERT
  2
*D455
  8
1
 10
0.0
 20
0.0
  0
LINE
  8
1
  6
CONTINUOUS
 62
3
 10
3.2322819E+001
 20
2.2828343
 11
3.2343768E+001
 21
2.2618845
  0
LINE
  8
1
  6
CONTINUOUS
 62
3
 10
3.2144291E+001
 20
2.4503138
 11
3.2217204E+001
 21
2.3773999
  0
LINE
  8
1
  6
CONTINUOUS
 62
3
 10
3.2321162E+001
 20
2.2734418
 11
3.233272E+001
 21
2.2618845
  0
LINE
  8
1
  6
CONTINUOUS
 62
3
 10
3.2133242E+001
 20
2.4503138
 11
3.2227662E+001
 21
2.3558938
  0
LINE
  8
1
  6
CONTINUOUS
 62
3
 10
3.2319506E+001
 20
2.2640495
 11
3.2321671E+001
 21
2.2618845
  0
LINE
  8
1
  6
CONTINUOUS
 62
3
 10
3.2122193E+001
 20
2.4503138
 11
3.2238119E+001
 21
2.334388
  0
LINE
  8
1
  6
CONTINUOUS
 62
3
 10
3.2111145E+001
 20
2.4503138
 11
3.2125956E+001
 21
2.4355028
  0
LINE
  8
1
  6
CONTINUOUS
 62
3
 10
3.2129804E+001
 20
2.4316545
 11
3.2248577E+001
 21
2.3128819
  0
LINE
  8
1
  6
CONTINUOUS
 62
3
 10
3.2100096E+001
 20
2.4503138
 11
3.21208E+001
 21
2.4296103
  0
LINE
  8
1
  6
CONTINUOUS
 62
3
 10
3.2140262E+001
 20
2.4101486
 11
3.2259034E+001
 21
2.2913761
  0
LINE
  8
1
  6
CONTINUOUS
 62
3
 10
3.2089689E+001
 20
2.4496729
 11
3.2115644E+001
 21
2.4237177
  0
LINE
  8
1
  6
CONTINUOUS
 62
3
 10
3.2150719E+001
 20
2.3886425
 11
3.2269492E+001
 21
2.26987
  0
LINE
  8
1
  6
CONTINUOUS
 62
3
 10
3.2084533E+001
 20
2.4437804
 11
3.2110488E+001
 21
2.417825
  0
LINE
  8
1
  6
CONTINUOUS
 62
3
 10
3.2161177E+001
 20
2.3671367
 11
3.2266429E+001
 21
2.2618845
  0
LINE
  8
1
  6
CONTINUOUS
 62
3
 10
3.2079377E+001
 20
2.4378877
 11
3.2105332E+001
 21
2.4119325
  0
LINE
  8
1
  6
CONTINUOUS
 62
3
 10
3.2171634E+001
 20
2.3456306
 11
3.225538E+001
 21
2.2618845
  0
LINE
  8
1
  6
CONTINUOUS
 62
3
 10
3.2074221E+001
 20
2.4319952
 11
3.2100176E+001
 21
2.40604
  0
LINE
  8
1
  6
CONTINUOUS
 62
3
 10
3.2181332E+001
 20
2.3248844
 11
3.2244331E+001
 21
2.2618845
  0
LINE
  8
1
  6
CONTINUOUS
 62
3
 10
3.2069065E+001
 20
2.4261026
 11
3.209502E+001
 21
2.4001474
  0
LINE
  8
1
  6
CONTINUOUS
 62
3
 10
3.2170283E+001
 20
2.3248844
 11
3.2233283E+001
 21
2.2618845
  0
LINE
  8
1
  6
CONTINUOUS
 62
3
 10
3.2063909E+001
 20
2.4202101
 11
3.2089864E+001
 21
2.3942547
  0
LINE
  8
1
  6
CONTINUOUS
 62
3
 10
3.2159234E+001
 20
2.3248844
 11
3.2185609E+001
 21
2.2985096
  0
LINE
  8
1
  6
CONTINUOUS
 62
3
 10
3.2203006E+001
 20
2.2811129
 11
3.2222234E+001
 21
2.2618845
  0
LINE
  8
1
  6
CONTINUOUS
 62
3
 10
3.2058753E+001
 20
2.4143176
 11
3.2084708E+001
 21
2.3883622
  0
LINE
  8
1
  6
CONTINUOUS
 62
3
 10
3.2148186E+001
 20
2.3248844
 11
3.2174561E+001
 21
2.2985096
  0
LINE
  8
1
  6
CONTINUOUS
 62
3
 10
3.2053597E+001
 20
2.4084249
 11
3.2079552E+001
 21
2.3824697
  0
LINE
  8
1
  6
CONTINUOUS
 62
3
 10
3.2137137E+001
 20
2.3248844
 11
3.2163512E+001
 21
2.2985096
  0
LINE
  8
1
  6
CONTINUOUS
 62
3
 10
3.2048441E+001
 20
2.4025323
 11
3.2074396E+001
 21
2.3765771
  0
LINE
  8
1
  6
CONTINUOUS
 62
3
 10
3.2126089E+001
 20
2.3248844
 11
3.2152464E+001
 21
2.2985096
  0
LINE
  8
1
  6
CONTINUOUS
 62
3
 10
3.2043285E+001
 20
2.3966398
 11
3.206924E+001
 21
2.3706846
  0
LINE
  8
1
  6
CONTINUOUS
 62
3
 10
3.211504E+001
 20
2.3248844
 11
3.2141415E+001
 21
2.2985096
  0
TEXT
  8
126
  6
CONTINUOUS
 62
3
 10
3.2477633E+001
 20
1.5513572
 40
1.0E-001
  1
KAB
 41
1.0
  0
LINE
  8
1
  6
CONTINUOUS
 62
3
 10
3.2038129E+001
 20
2.3907473
 11
3.2064084E+001
 21
2.3647919
  0
LINE
  8
1
  6
CONTINUOUS
 62
3
 10
3.2103992E+001
 20
2.3248844
 11
3.2130367E+001
 21
2.2985096
  0
LINE
  8
1
  6
CONTINUOUS
 62
3
 10
3.2032973E+001
 20
2.3848546
 11
3.2058928E+001
 21
2.3588994
  0
LINE
  8
1
  6
CONTINUOUS
 62
3
 10
3.2092943E+001
 20
2.3248844
 11
3.2119318E+001
 21
2.2985096
  0
LINE
  8
1
  6
CONTINUOUS
 62
3
 10
3.2027817E+001
 20
2.378962
 11
3.2053772E+001
 21
2.3530068
  0
LINE
  8
1
  6
CONTINUOUS
 62
3
 10
3.2081895E+001
 20
2.3248844
 11
3.210827E+001
 21
2.2985096
  0
LINE
  8
1
  6
CONTINUOUS
 62
3
 10
3.2022661E+001
 20
2.3730695
 11
3.2048616E+001
 21
2.3471143
  0
LINE
  8
1
  6
CONTINUOUS
 62
3
 10
3.2070846E+001
 20
2.3248844
 11
3.2097221E+001
 21
2.2985096
  0
LINE
  8
1
  6
CONTINUOUS
 62
3
 10
3.1934368E+001
 20
2.4503138
 11
3.1937352E+001
 21
2.44733
  0
LINE
  8
1
  6
CONTINUOUS
 62
3
 10
3.2017505E+001
 20
2.367177
 11
3.204346E+001
 21
2.3412216
  0
LINE
  8
1
  6
CONTINUOUS
 62
3
 10
3.2059797E+001
 20
2.3248844
 11
3.2086172E+001
 21
2.2985096
  0
LINE
  8
1
  6
CONTINUOUS
 62
3
 10
3.192332E+001
 20
2.4503138
 11
3.1930303E+001
 21
2.443331
  0
LINE
  8
1
  6
CONTINUOUS
 62
3
 10
3.2012349E+001
 20
2.3612845
 11
3.2038304E+001
 21
2.3353291
  0
LINE
  8
1
  6
CONTINUOUS
 62
3
 10
3.2048749E+001
 20
2.3248844
 11
3.2075124E+001
 21
2.2985096
  0
LINE
  8
1
  6
CONTINUOUS
 62
3
 10
3.1912271E+001
 20
2.4503138
 11
3.1923253E+001
 21
2.439332
  0
LINE
  8
1
  6
CONTINUOUS
 62
3
 10
3.2007193E+001
 20
2.3553917
 11
3.2033148E+001
 21
2.3294365
  0
LINE
  8
1
  6
CONTINUOUS
 62
3
 10
3.2037701E+001
 20
2.3248844
 11
3.2064075E+001
 21
2.2985096
  0
LINE
  8
1
  6
CONTINUOUS
 62
3
 10
3.1901223E+001
 20
2.4503138
 11
3.1916204E+001
 21
2.4353328
  0
LINE
  8
1
  6
CONTINUOUS
 62
3
 10
3.2002037E+001
 20
2.3494992
 11
3.2053027E+001
 21
2.2985096
  0
LINE
  8
1
  6
CONTINUOUS
 62
3
 10
3.1890174E+001
 20
2.4503138
 11
3.1909154E+001
 21
2.4313338
  0
LINE
  8
1
  6
CONTINUOUS
 62
3
 10
3.1996881E+001
 20
2.3436067
 11
3.2041978E+001
 21
2.2985096
  0
LINE
  8
1
  6
CONTINUOUS
 62
3
 10
3.1879125E+001
 20
2.4503138
 11
3.1902104E+001
 21
2.4273348
  0
LINE
  8
1
  6
CONTINUOUS
 62
3
 10
3.1991725E+001
 20
2.3377142
 11
3.203093E+001
 21
2.2985096
  0
LINE
  8
1
  6
CONTINUOUS
 62
3
 10
3.1868188E+001
 20
2.4502025
 11
3.1895055E+001
 21
2.4233358
  0
LINE
  8
1
  6
CONTINUOUS
 62
3
 10
3.1986569E+001
 20
2.3318214
 11
3.2019881E+001
 21
2.2985096
  0
LINE
  8
1
  6
CONTINUOUS
 62
3
 10
3.1861139E+001
 20
2.4462035
 11
3.1888006E+001
 21
2.4193366
  0
LINE
  8
1
  6
CONTINUOUS
 62
3
 10
3.1981413E+001
 20
2.3259289
 11
3.2008833E+001
 21
2.2985096
  0
LINE
  8
1
  6
CONTINUOUS
 62
3
 10
3.1854089E+001
 20
2.4422042
 11
3.1880956E+001
 21
2.4153376
  0
LINE
  8
1
  6
CONTINUOUS
 62
3
 10
3.1976257E+001
 20
2.3200364
 11
3.2002213E+001
 21
2.2940812
  0
LINE
  8
1
  6
CONTINUOUS
 62
3
 10
3.184704E+001
 20
2.4382052
 11
3.1873906E+001
 21
2.4113386
  0
LINE
  8
1
  6
CONTINUOUS
 62
3
 10
3.1971101E+001
 20
2.3141439
 11
3.1997057E+001
 21
2.2881885
  0
LINE
  8
1
  6
CONTINUOUS
 62
3
 10
3.183999E+001
 20
2.4342062
 11
3.1866857E+001
 21
2.4073396
  0
LINE
  8
1
  6
CONTINUOUS
 62
3
 10
3.1965945E+001
 20
2.3082514
 11
3.1991901E+001
 21
2.2822959
  0
LINE
  8
1
  6
CONTINUOUS
 62
3
 10
3.1832941E+001
 20
2.4302073
 11
3.1859808E+001
 21
2.4033406
  0
LINE
  8
1
  6
CONTINUOUS
 62
3
 10
3.1960789E+001
 20
2.3023586
 11
3.1986745E+001
 21
2.2764034
  0
LINE
  8
1
  6
CONTINUOUS
 62
3
 10
3.1825891E+001
 20
2.4262083
 11
3.1852758E+001
 21
2.3993413
  0
LINE
  8
1
  6
CONTINUOUS
 62
3
 10
3.1955633E+001
 20
2.2964661
 11
3.1981589E+001
 21
2.2705109
  0
LINE
  8
1
  6
CONTINUOUS
 62
3
 10
3.1818842E+001
 20
2.422209
 11
3.1845708E+001
 21
2.3953423
  0
LINE
  8
1
  6
CONTINUOUS
 62
3
 10
3.1950477E+001
 20
2.2905736
 11
3.1976433E+001
 21
2.2646184
  0
LINE
  8
1
  6
CONTINUOUS
 62
3
 10
3.1811792E+001
 20
2.41821
 11
3.1838659E+001
 21
2.3913434
  0
LINE
  8
1
  6
CONTINUOUS
 62
3
 10
3.1945321E+001
 20
2.2846811
 11
3.1968118E+001
 21
2.2618845
  0
LINE
  8
1
  6
CONTINUOUS
 62
3
 10
3.1804743E+001
 20
2.414211
 11
3.183161E+001
 21
2.3873444
  0
LINE
  8
1
  6
CONTINUOUS
 62
3
 10
3.1940165E+001
 20
2.2787883
 11
3.1957069E+001
 21
2.2618845
  0
LINE
  8
1
  6
CONTINUOUS
 62
3
 10
3.1797693E+001
 20
2.410212
 11
3.182456E+001
 21
2.3833451
  0
LINE
  8
1
  6
CONTINUOUS
 62
3
 10
3.1935009E+001
 20
2.2728958
 11
3.1946021E+001
 21
2.2618845
  0
LINE
  8
1
  6
CONTINUOUS
 62
3
 10
3.1790644E+001
 20
2.4062128
 11
3.1817511E+001
 21
2.3793461
  0
LINE
  8
1
  6
CONTINUOUS
 62
3
 10
3.1929854E+001
 20
2.2670033
 11
3.1934972E+001
 21
2.2618845
  0
LINE
  8
1
  6
CONTINUOUS
 62
3
 10
3.1783594E+001
 20
2.4022138
 11
3.1810461E+001
 21
2.3753471
  0
LINE
  8
1
  6
CONTINUOUS
 62
3
 10
3.1776545E+001
 20
2.3982148
 11
3.1803412E+001
 21
2.3713481
  0
LINE
  8
1
  6
CONTINUOUS
 62
3
 10
3.1875154E+001
 20
2.2996054
 11
3.1912875E+001
 21
2.2618845
  0
LINE
  8
1
  6
CONTINUOUS
 62
3
 10
3.1769495E+001
 20
2.3942158
 11
3.1901827E+001
 21
2.2618845
  0
LINE
  8
1
  6
CONTINUOUS
 62
3
 10
3.1762446E+001
 20
2.3902168
 11
3.1890778E+001
 21
2.2618845
  0
LINE
  8
1
  6
CONTINUOUS
 62
3
 10
3.16913E+001
 20
2.4503138
 11
3.1700209E+001
 21
2.4414053
  0
LINE
  8
1
  6
CONTINUOUS
 62
3
 10
3.1755396E+001
 20
2.3862176
 11
3.187973E+001
 21
2.2618845
  0
LINE
  8
1
  6
CONTINUOUS
 62
3
 10
3.1680252E+001
 20
2.4503138
 11
3.1698552E+001
 21
2.432013
  0
LINE
  8
1
  6
CONTINUOUS
 62
3
 10
3.1748347E+001
 20
2.3822186
 11
3.1868681E+001
 21
2.2618845
  0
LINE
  8
1
  6
CONTINUOUS
 62
3
 10
3.1669203E+001
 20
2.4503138
 11
3.1696896E+001
 21
2.4226205
  0
LINE
  8
1
  6
CONTINUOUS
 62
3
 10
3.1741297E+001
 20
2.3782196
 11
3.1857633E+001
 21
2.2618845
  0
LINE
  8
1
  6
CONTINUOUS
 62
3
 10
3.1658155E+001
 20
2.4503138
 11
3.169524E+001
 21
2.4132283
  0
LINE
  8
1
  6
CONTINUOUS
 62
3
 10
3.1734248E+001
 20
2.3742206
 11
3.1846584E+001
 21
2.2618845
  0
LINE
  8
1
  6
CONTINUOUS
 62
3
 10
3.1649236E+001
 20
2.4481835
 11
3.1693584E+001
 21
2.4038358
  0
LINE
  8
1
  6
CONTINUOUS
 62
3
 10
3.1727198E+001
 20
2.3702214
 11
3.1835535E+001
 21
2.2618845
  0
LINE
  8
1
  6
CONTINUOUS
 62
3
 10
3.164758E+001
 20
2.4387913
 11
3.1691928E+001
 21
2.3944433
  0
LINE
  8
1
  6
CONTINUOUS
 62
3
 10
3.1720149E+001
 20
2.3662224
 11
3.1747016E+001
 21
2.3393557
  0
LINE
  8
1
  6
CONTINUOUS
 62
3
 10
3.1645924E+001
 20
2.4293988
 11
3.1690272E+001
 21
2.385051
  0
LINE
  8
1
  6
CONTINUOUS
 62
3
 10
3.1713099E+001
 20
2.3622234
 11
3.1739966E+001
 21
2.3353567
  0
LINE
  8
1
  6
CONTINUOUS
 62
3
 10
3.1644268E+001
 20
2.4200063
 11
3.1688616E+001
 21
2.3756585
  0
LINE
  8
1
  6
CONTINUOUS
 62
3
 10
3.170605E+001
 20
2.3582244
 11
3.1732917E+001
 21
2.3313575
  0
LINE
  8
1
  6
CONTINUOUS
 62
3
 10
3.1642612E+001
 20
2.410614
 11
3.168696E+001
 21
2.366266
  0
LINE
  8
1
  6
CONTINUOUS
 62
3
 10
3.1699E+001
 20
2.3542254
 11
3.1725867E+001
 21
2.3273585
  0
LINE
  8
1
  6
CONTINUOUS
 62
3
 10
3.1640956E+001
 20
2.4012215
 11
3.1685304E+001
 21
2.3568737
  0
LINE
  8
1
  6
CONTINUOUS
 62
3
 10
3.1691951E+001
 20
2.3502262
 11
3.1718818E+001
 21
2.3233595
  0
LINE
  8
1
  6
CONTINUOUS
 62
3
 10
3.16393E+001
 20
2.391829
 11
3.1683647E+001
 21
2.3474812
  0
LINE
  8
1
  6
CONTINUOUS
 62
3
 10
3.1684901E+001
 20
2.3462272
 11
3.1711768E+001
 21
2.3193605
  0
LINE
  8
1
  6
CONTINUOUS
 62
3
 10
3.1637643E+001
 20
2.3824368
 11
3.1704719E+001
 21
2.3153615
  0
LINE
  8
1
  6
CONTINUOUS
 62
3
 10
3.1635987E+001
 20
2.3730443
 11
3.1697669E+001
 21
2.3113623
  0
LINE
  8
1
  6
CONTINUOUS
 62
3
 10
3.1634331E+001
 20
2.363652
 11
3.169062E+001
 21
2.3073633
  0
LINE
  8
1
  6
CONTINUOUS
 62
3
 10
3.1632675E+001
 20
2.3542595
 11
3.168357E+001
 21
2.3033643
  0
LINE
  8
1
  6
CONTINUOUS
 62
3
 10
3.1631019E+001
 20
2.344867
 11
3.1676521E+001
 21
2.2993653
  0
LINE
  8
1
  6
CONTINUOUS
 62
3
 10
3.1629363E+001
 20
2.3354747
 11
3.167371E+001
 21
2.291127
  0
LINE
  8
1
  6
CONTINUOUS
 62
3
 10
3.1627707E+001
 20
2.3260822
 11
3.1672054E+001
 21
2.2817345
  0
LINE
  8
1
  6
CONTINUOUS
 62
3
 10
3.162605E+001
 20
2.31669
 11
3.1670398E+001
 21
2.272342
  0
LINE
  8
1
  6
CONTINUOUS
 62
3
 10
3.1624394E+001
 20
2.3072975
 11
3.1668742E+001
 21
2.2629497
  0
LINE
  8
1
  6
CONTINUOUS
 62
3
 10
3.1622738E+001
 20
2.297905
 11
3.1658759E+001
 21
2.2618845
  0
LINE
  8
1
  6
CONTINUOUS
 62
3
 10
3.1621082E+001
 20
2.2885127
 11
3.164771E+001
 21
2.2618845
  0
LINE
  8
1
  6
CONTINUOUS
 62
3
 10
3.1619426E+001
 20
2.2791202
 11
3.1636662E+001
 21
2.2618845
  0
LINE
  8
1
  6
CONTINUOUS
 62
3
 10
3.161777E+001
 20
2.2697277
 11
3.1625613E+001
 21
2.2618845
  0
LINE
  8
1
  6
CONTINUOUS
 62
3
 10
3.1426135E+001
 20
2.4503138
 11
3.1431551E+001
 21
2.4448979
  0
LINE
  8
1
  6
CONTINUOUS
 62
3
 10
3.158719E+001
 20
2.2892594
 11
3.1592757E+001
 21
2.2836921
  0
LINE
  8
1
  6
CONTINUOUS
 62
3
 10
3.1415087E+001
 20
2.4503138
 11
3.1429895E+001
 21
2.4355056
  0
LINE
  8
1
  6
CONTINUOUS
 62
3
 10
3.1576141E+001
 20
2.2892594
 11
3.1591101E+001
 21
2.2742996
  0
LINE
  8
1
  6
CONTINUOUS
 62
3
 10
3.1404038E+001
 20
2.4503138
 11
3.1428239E+001
 21
2.4261131
  0
LINE
  8
1
  6
CONTINUOUS
 62
3
 10
3.1565092E+001
 20
2.2892594
 11
3.1589445E+001
 21
2.2649071
  0
LINE
  8
1
  6
CONTINUOUS
 62
3
 10
3.139299E+001
 20
2.4503138
 11
3.1426583E+001
 21
2.4167206
  0
LINE
  8
1
  6
CONTINUOUS
 62
3
 10
3.1554044E+001
 20
2.2892594
 11
3.1581419E+001
 21
2.2618845
  0
LINE
  8
1
  6
CONTINUOUS
 62
3
 10
3.1381941E+001
 20
2.4503138
 11
3.1424926E+001
 21
2.4073284
  0
LINE
  8
1
  6
CONTINUOUS
 62
3
 10
3.1542995E+001
 20
2.2892594
 11
3.157037E+001
 21
2.2618845
  0
LINE
  8
1
  6
CONTINUOUS
 62
3
 10
3.1378923E+001
 20
2.4422836
 11
3.142327E+001
 21
2.3979359
  0
LINE
  8
1
  6
CONTINUOUS
 62
3
 10
3.1531947E+001
 20
2.2892594
 11
3.1559322E+001
 21
2.2618845
  0
LINE
  8
1
  6
CONTINUOUS
 62
3
 10
3.1377267E+001
 20
2.4328914
 11
3.1421614E+001
 21
2.3885436
  0
LINE
  8
1
  6
CONTINUOUS
 62
3
 10
3.1520898E+001
 20
2.2892594
 11
3.1548273E+001
 21
2.2618845
  0
LINE
  8
1
  6
CONTINUOUS
 62
3
 10
3.137561E+001
 20
2.4234989
 11
3.1419958E+001
 21
2.3791511
  0
LINE
  8
1
  6
CONTINUOUS
 62
3
 10
3.150985E+001
 20
2.2892594
 11
3.1537225E+001
 21
2.2618845
  0
LINE
  8
1
  6
CONTINUOUS
 62
3
 10
3.1337747E+001
 20
2.4503138
 11
3.1339653E+001
 21
2.4484074
  0
LINE
  8
1
  6
CONTINUOUS
 62
3
 10
3.1373954E+001
 20
2.4141066
 11
3.1418302E+001
 21
2.3697586
  0
LINE
  8
1
  6
CONTINUOUS
 62
3
 10
3.1498801E+001
 20
2.2892594
 11
3.1526176E+001
 21
2.2618845
  0
LINE
  8
1
  6
CONTINUOUS
 62
3
 10
3.1326698E+001
 20
2.4503138
 11
3.1337997E+001
 21
2.4390149
  0
LINE
  8
1
  6
CONTINUOUS
 62
3
 10
3.1372298E+001
 20
2.4047141
 11
3.1416646E+001
 21
2.3603663
  0
LINE
  8
1
  6
CONTINUOUS
 62
3
 10
3.1487753E+001
 20
2.2892594
 11
3.1515128E+001
 21
2.2618845
  0
LINE
  8
1
  6
CONTINUOUS
 62
3
 10
3.131565E+001
 20
2.4503138
 11
3.1336341E+001
 21
2.4296226
  0
LINE
  8
1
  6
CONTINUOUS
 62
3
 10
3.1370642E+001
 20
2.3953216
 11
3.141499E+001
 21
2.3509738
  0
LINE
  8
1
  6
CONTINUOUS
 62
3
 10
3.1476704E+001
 20
2.2892594
 11
3.1504079E+001
 21
2.2618845
  0
LINE
  8
1
  6
CONTINUOUS
 62
3
 10
3.1304601E+001
 20
2.4503138
 11
3.1331976E+001
 21
2.4229388
  0
LINE
  8
1
  6
CONTINUOUS
 62
3
 10
3.1368986E+001
 20
2.3859293
 11
3.1413334E+001
 21
2.3415816
  0
LINE
  8
1
  6
CONTINUOUS
 62
3
 10
3.1465655E+001
 20
2.2892594
 11
3.149303E+001
 21
2.2618845
  0
LINE
  8
1
  6
CONTINUOUS
 62
3
 10
3.1293553E+001
 20
2.4503138
 11
3.1320928E+001
 21
2.4229388
  0
LINE
  8
1
  6
CONTINUOUS
 62
3
 10
3.136733E+001
 20
2.3765368
 11
3.1411677E+001
 21
2.3321891
  0
LINE
  8
1
  6
CONTINUOUS
 62
3
 10
3.1454607E+001
 20
2.2892594
 11
3.1481982E+001
 21
2.2618845
  0
LINE
  8
1
  6
CONTINUOUS
 62
3
 10
3.1282504E+001
 20
2.4503138
 11
3.1309879E+001
 21
2.4229388
  0
LINE
  8
1
  6
CONTINUOUS
 62
3
 10
3.1365673E+001
 20
2.3671446
 11
3.1410021E+001
 21
2.3227966
  0
LINE
  8
1
  6
CONTINUOUS
 62
3
 10
3.1443558E+001
 20
2.2892594
 11
3.1470933E+001
 21
2.2618845
  0
LINE
  8
1
  6
CONTINUOUS
 62
3
 10
3.1271455E+001
 20
2.4503138
 11
3.1298831E+001
 21
2.4229388
  0
LINE
  8
1
  6
CONTINUOUS
 62
3
 10
3.1364017E+001
 20
2.3577521
 11
3.1408365E+001
 21
2.3134043
  0
LINE
  8
1
  6
CONTINUOUS
 62
3
 10
3.143251E+001
 20
2.2892594
 11
3.1459885E+001
 21
2.2618845
  0
LINE
  8
1
  6
CONTINUOUS
 62
3
 10
3.1260407E+001
 20
2.4503138
 11
3.1287782E+001
 21
2.4229388
  0
LINE
  8
1
  6
CONTINUOUS
 62
3
 10
3.1362361E+001
 20
2.3483596
 11
3.1406709E+001
 21
2.3040118
  0
LINE
  8
1
  6
CONTINUOUS
 62
3
 10
3.1421461E+001
 20
2.2892594
 11
3.1448836E+001
 21
2.2618845
  0
LINE
  8
1
  6
CONTINUOUS
 62
3
 10
3.1249359E+001
 20
2.4503138
 11
3.1276734E+001
 21
2.4229388
  0
LINE
  8
1
  6
CONTINUOUS
 62
3
 10
3.1360705E+001
 20
2.3389673
 11
3.1405053E+001
 21
2.2946193
  0
LINE
  8
1
  6
CONTINUOUS
 62
3
 10
3.1410413E+001
 20
2.2892594
 11
3.1437788E+001
 21
2.2618845
  0
LINE
  8
1
  6
CONTINUOUS
 62
3
 10
3.123831E+001
 20
2.4503138
 11
3.1265685E+001
 21
2.4229388
  0
LINE
  8
1
  6
CONTINUOUS
 62
3
 10
3.1359049E+001
 20
2.3295748
 11
3.1426739E+001
 21
2.2618845
  0
LINE
  8
1
  6
CONTINUOUS
 62
3
 10
3.1227261E+001
 20
2.4503138
 11
3.1254636E+001
 21
2.4229388
  0
LINE
  8
1
  6
CONTINUOUS
 62
3
 10
3.1307726E+001
 20
2.3698492
 11
3.1312302E+001
 21
2.3652735
  0
LINE
  8
1
  6
CONTINUOUS
 62
3
 10
3.1357393E+001
 20
2.3201823
 11
3.1415691E+001
 21
2.2618845
  0
LINE
  8
1
  6
CONTINUOUS
 62
3
 10
3.1216213E+001
 20
2.4503138
 11
3.1243588E+001
 21
2.4229388
  0
LINE
  8
1
  6
CONTINUOUS
 62
3
 10
3.1296677E+001
 20
2.3698492
 11
3.1310645E+001
 21
2.3558812
  0
LINE
  8
1
  6
CONTINUOUS
 62
3
 10
3.1355737E+001
 20
2.3107901
 11
3.1404642E+001
 21
2.2618845
  0
LINE
  8
1
  6
CONTINUOUS
 62
3
 10
3.1205164E+001
 20
2.4503138
 11
3.1232539E+001
 21
2.4229388
  0
LINE
  8
1
  6
CONTINUOUS
 62
3
 10
3.1285629E+001
 20
2.3698492
 11
3.1308989E+001
 21
2.3464887
  0
LINE
  8
1
  6
CONTINUOUS
 62
3
 10
3.1354081E+001
 20
2.3013976
 11
3.1393594E+001
 21
2.2618845
  0
LINE
  8
1
  6
CONTINUOUS
 62
3
 10
3.1194116E+001
 20
2.4503138
 11
3.1221491E+001
 21
2.4229388
  0
LINE
  8
1
  6
CONTINUOUS
 62
3
 10
3.127458E+001
 20
2.3698492
 11
3.130208E+001
 21
2.3423493
  0
LINE
  8
1
  6
CONTINUOUS
 62
3
 10
3.1352425E+001
 20
2.2920053
 11
3.1382545E+001
 21
2.2618845
  0
LINE
  8
1
  6
CONTINUOUS
 62
3
 10
3.1183067E+001
 20
2.4503138
 11
3.1210442E+001
 21
2.4229388
  0
LINE
  8
1
  6
CONTINUOUS
 62
3
 10
3.1263532E+001
 20
2.3698492
 11
3.1291032E+001
 21
2.3423493
  0
LINE
  8
1
  6
CONTINUOUS
 62
3
 10
3.1350768E+001
 20
2.2826128
 11
3.1371497E+001
 21
2.2618845
  0
LINE
  8
1
  6
CONTINUOUS
 62
3
 10
3.1172019E+001
 20
2.4503138
 11
3.1199394E+001
 21
2.4229388
  0
LINE
  8
1
  6
CONTINUOUS
 62
3
 10
3.1252483E+001
 20
2.3698492
 11
3.1279983E+001
 21
2.3423493
  0
LINE
  8
1
  6
CONTINUOUS
 62
3
 10
3.1349112E+001
 20
2.2732203
 11
3.1360448E+001
 21
2.2618845
  0
LINE
  8
1
  6
CONTINUOUS
 62
3
 10
3.116097E+001
 20
2.4503138
 11
3.1188345E+001
 21
2.4229388
  0
LINE
  8
1
  6
CONTINUOUS
 62
3
 10
3.1241435E+001
 20
2.3698492
 11
3.1268935E+001
 21
2.3423493
  0
LINE
  8
1
  6
CONTINUOUS
 62
3
 10
3.1322024E+001
 20
2.2892594
 11
3.1323945E+001
 21
2.2873387
  0
LINE
  8
1
  6
CONTINUOUS
 62
3
 10
3.1347456E+001
 20
2.263828
 11
3.1349399E+001
 21
2.2618845
  0
LINE
  8
1
  6
CONTINUOUS
 62
3
 10
3.1149922E+001
 20
2.4503138
 11
3.1177297E+001
 21
2.4229388
  0
LINE
  8
1
  6
CONTINUOUS
 62
3
 10
3.1230386E+001
 20
2.3698492
 11
3.1257886E+001
 21
2.3423493
  0
LINE
  8
1
  6
CONTINUOUS
 62
3
 10
3.1310976E+001
 20
2.2892594
 11
3.1322289E+001
 21
2.2779462
  0
LINE
  8
1
  6
CONTINUOUS
 62
3
 10
3.1138873E+001
 20
2.4503138
 11
3.1166248E+001
 21
2.4229388
  0
LINE
  8
1
  6
CONTINUOUS
 62
3
 10
3.1219338E+001
 20
2.3698492
 11
3.1246838E+001
 21
2.3423493
  0
LINE
  8
1
  6
CONTINUOUS
 62
3
 10
3.1299927E+001
 20
2.2892594
 11
3.1320633E+001
 21
2.268554
  0
LINE
  8
1
  6
CONTINUOUS
 62
3
 10
3.1127824E+001
 20
2.4503138
 11
3.1155199E+001
 21
2.4229388
  0
LINE
  8
1
  6
CONTINUOUS
 62
3
 10
3.1208289E+001
 20
2.3698492
 11
3.1235789E+001
 21
2.3423493
  0
LINE
  8
1
  6
CONTINUOUS
 62
3
 10
3.1288879E+001
 20
2.2892594
 11
3.1316254E+001
 21
2.2618845
  0
LINE
  8
1
  6
CONTINUOUS
 62
3
 10
3.1116776E+001
 20
2.4503138
 11
3.1144151E+001
 21
2.4229388
  0
LINE
  8
1
  6
CONTINUOUS
 62
3
 10
3.119724E+001
 20
2.3698492
 11
3.1224741E+001
 21
2.3423493
  0
LINE
  8
1
  6
CONTINUOUS
 62
3
 10
3.127783E+001
 20
2.2892594
 11
3.1305205E+001
 21
2.2618845
  0
LINE
  8
1
  6
CONTINUOUS
 62
3
 10
3.1105728E+001
 20
2.4503138
 11
3.1133102E+001
 21
2.4229388
  0
LINE
  8
1
  6
CONTINUOUS
 62
3
 10
3.1186192E+001
 20
2.3698492
 11
3.1213692E+001
 21
2.3423493
  0
LINE
  8
1
  6
CONTINUOUS
 62
3
 10
3.1266782E+001
 20
2.2892594
 11
3.1294157E+001
 21
2.2618845
  0
LINE
  8
1
  6
CONTINUOUS
 62
3
 10
3.1094679E+001
 20
2.4503138
 11
3.1124555E+001
 21
2.4204376
  0
LINE
  8
1
  6
CONTINUOUS
 62
3
 10
3.1175144E+001
 20
2.3698492
 11
3.1202644E+001
 21
2.3423493
  0
LINE
  8
1
  6
CONTINUOUS
 62
3
 10
3.1255733E+001
 20
2.2892594
 11
3.1283108E+001
 21
2.2618845
  0
LINE
  8
1
  6
CONTINUOUS
 62
3
 10
3.108363E+001
 20
2.4503138
 11
3.1122899E+001
 21
2.4110451
  0
LINE
  8
1
  6
CONTINUOUS
 62
3
 10
3.1164095E+001
 20
2.3698492
 11
3.1191595E+001
 21
2.3423493
  0
LINE
  8
1
  6
CONTINUOUS
 62
3
 10
3.1244685E+001
 20
2.2892594
 11
3.127206E+001
 21
2.2618845
  0
LINE
  8
1
  6
CONTINUOUS
 62
3
 10
3.1076918E+001
 20
2.4459779
 11
3.1121243E+001
 21
2.4016526
  0
LINE
  8
1
  6
CONTINUOUS
 62
3
 10
3.1153046E+001
 20
2.3698492
 11
3.1180546E+001
 21
2.3423493
  0
LINE
  8
1
  6
CONTINUOUS
 62
3
 10
3.1233636E+001
 20
2.2892594
 11
3.1261011E+001
 21
2.2618845
  0
LINE
  8
1
  6
CONTINUOUS
 62
3
 10
3.1075261E+001
 20
2.4365854
 11
3.1119587E+001
 21
2.3922603
  0
LINE
  8
1
  6
CONTINUOUS
 62
3
 10
3.1141998E+001
 20
2.3698492
 11
3.1169498E+001
 21
2.3423493
  0
LINE
  8
1
  6
CONTINUOUS
 62
3
 10
3.1222587E+001
 20
2.2892594
 11
3.1249962E+001
 21
2.2618845
  0
LINE
  8
1
  6
CONTINUOUS
 62
3
 10
3.1073605E+001
 20
2.4271932
 11
3.1117931E+001
 21
2.3828678
  0
LINE
  8
1
  6
CONTINUOUS
 62
3
 10
3.1130949E+001
 20
2.3698492
 11
3.1158449E+001
 21
2.3423493
  0
LINE
  8
1
  6
CONTINUOUS
 62
3
 10
3.1211539E+001
 20
2.2892594
 11
3.1238914E+001
 21
2.2618845
  0
LINE
  8
1
  6
CONTINUOUS
 62
3
 10
3.1071949E+001
 20
2.4178007
 11
3.1116274E+001
 21
2.3734756
  0
LINE
  8
1
  6
CONTINUOUS
 62
3
 10
3.1119901E+001
 20
2.3698492
 11
3.1147401E+001
 21
2.3423493
  0
LINE
  8
1
  6
CONTINUOUS
 62
3
 10
3.120049E+001
 20
2.2892594
 11
3.1227865E+001
 21
2.2618845
  0
LINE
  8
1
  6
CONTINUOUS
 62
3
 10
3.1070293E+001
 20
2.4084084
 11
3.1136352E+001
 21
2.3423493
  0
LINE
  8
1
  6
CONTINUOUS
 62
3
 10
3.1189442E+001
 20
2.2892594
 11
3.1216817E+001
 21
2.2618845
  0
LINE
  8
1
  6
CONTINUOUS
 62
3
 10
3.1068637E+001
 20
2.3990159
 11
3.1125304E+001
 21
2.3423493
  0
LINE
  8
1
  6
CONTINUOUS
 62
3
 10
3.1178393E+001
 20
2.2892594
 11
3.1205768E+001
 21
2.2618845
  0
LINE
  8
1
  6
CONTINUOUS
 62
3
 10
3.1066981E+001
 20
2.3896234
 11
3.111435E+001
 21
2.3422544
  0
LINE
  8
1
  6
CONTINUOUS
 62
3
 10
3.1167345E+001
 20
2.2892594
 11
3.119472E+001
 21
2.2618845
  0
LINE
  8
1
  6
CONTINUOUS
 62
3
 10
3.1065325E+001
 20
2.3802311
 11
3.1112694E+001
 21
2.3328619
  0
LINE
  8
1
  6
CONTINUOUS
 62
3
 10
3.1156296E+001
 20
2.2892594
 11
3.1183671E+001
 21
2.2618845
  0
LINE
  8
1
  6
CONTINUOUS
 62
3
 10
3.1063669E+001
 20
2.3708386
 11
3.1111038E+001
 21
2.3234696
  0
LINE
  8
1
  6
CONTINUOUS
 62
3
 10
3.1145248E+001
 20
2.2892594
 11
3.1172623E+001
 21
2.2618845
  0
LINE
  8
1
  6
CONTINUOUS
 62
3
 10
3.1062013E+001
 20
2.3614461
 11
3.1109382E+001
 21
2.3140771
  0
LINE
  8
1
  6
CONTINUOUS
 62
3
 10
3.1134199E+001
 20
2.2892594
 11
3.1161574E+001
 21
2.2618845
  0
LINE
  8
1
  6
CONTINUOUS
 62
3
 10
3.1060357E+001
 20
2.3520539
 11
3.1107726E+001
 21
2.3046849
  0
LINE
  8
1
  6
CONTINUOUS
 62
3
 10
3.1123151E+001
 20
2.2892594
 11
3.1150526E+001
 21
2.2618845
  0
LINE
  8
1
  6
CONTINUOUS
 62
3
 10
3.10587E+001
 20
2.3426614
 11
3.1106069E+001
 21
2.2952924
  0
LINE
  8
1
  6
CONTINUOUS
 62
3
 10
3.1112102E+001
 20
2.2892594
 11
3.1139477E+001
 21
2.2618845
  0
LINE
  8
1
  6
CONTINUOUS
 62
3
 10
3.1057044E+001
 20
2.3332691
 11
3.1128429E+001
 21
2.2618845
  0
LINE
  8
1
  6
CONTINUOUS
 62
3
 10
3.1055388E+001
 20
2.3238766
 11
3.111738E+001
 21
2.2618845
  0
LINE
  8
1
  6
CONTINUOUS
 62
3
 10
3.1053732E+001
 20
2.3144841
 11
3.1106332E+001
 21
2.2618845
  0
LINE
  8
1
  6
CONTINUOUS
 62
3
 10
3.1052076E+001
 20
2.3050919
 11
3.1095283E+001
 21
2.2618845
  0
LINE
  8
1
  6
CONTINUOUS
 62
3
 10
3.105042E+001
 20
2.2956994
 11
3.1084235E+001
 21
2.2618845
  0
LINE
  8
1
  6
CONTINUOUS
 62
3
 10
3.1048763E+001
 20
2.2863071
 11
3.1073186E+001
 21
2.2618845
  0
LINE
  8
1
  6
CONTINUOUS
 62
3
 10
3.1047107E+001
 20
2.2769146
 11
3.1062137E+001
 21
2.2618845
  0
LINE
  8
1
  6
CONTINUOUS
 62
3
 10
3.1045451E+001
 20
2.2675221
 11
3.1051089E+001
 21
2.2618845
  0
LINE
  8
1
  6
CONTINUOUS
 62
3
 10
3.1404108E+001
 20
2.2892594
 11
3.1593739E+001
 21
2.2892594
  0
LINE
  8
1
  6
CONTINUOUS
 62
3
 10
3.1077682E+001
 20
2.4503138
 11
3.1339989E+001
 21
2.4503138
  0
LINE
  8
1
  6
CONTINUOUS
 62
3
 10
3.1044457E+001
 20
2.2618845
 11
3.1319457E+001
 21
2.2618845
  0
LINE
  8
1
  6
CONTINUOUS
 62
3
 10
3.1044457E+001
 20
2.2618845
 11
3.1077682E+001
 21
2.4503138
  0
LINE
  8
1
  6
CONTINUOUS
 62
3
 10
3.1124996E+001
 20
2.4229388
 11
3.1335163E+001
 21
2.4229388
  0
LINE
  8
1
  6
CONTINUOUS
 62
3
 10
3.1347113E+001
 20
2.2618845
 11
3.1380339E+001
 21
2.4503138
  0
LINE
  8
1
  6
CONTINUOUS
 62
3
 10
3.1380339E+001
 20
2.4503138
 11
3.1432506E+001
 21
2.4503138
  0
LINE
  8
180
  6
CONTINUOUS
 62
6
 10
3.490272E+001
 20
5.6789328E-001
 11
3.490272E+001
 21
5.3303185
  0
LINE
  8
1
  6
CONTINUOUS
 62
3
 10
3.1347113E+001
 20
2.2618845
 11
3.1588912E+001
 21
2.2618845
  0
LINE
  8
1
  6
CONTINUOUS
 62
3
 10
3.1404108E+001
 20
2.2892594
 11
3.1432506E+001
 21
2.4503138
  0
LINE
  8
1
  6
CONTINUOUS
 62
3
 10
3.1115635E+001
 20
2.3698492
 11
3.1124996E+001
 21
2.4229388
  0
LINE
  8
1
  6
CONTINUOUS
 62
1
 10
1.9272217E+001
 20
2.1488757E+001
 11
1.9272217E+001
 21
1.7488757E+001
  0
INSERT
  2
*D713
  8
1
 10
0.0
 20
0.0
  0
LINE
  8
1
  6
CONTINUOUS
 62
3
 10
3.1335163E+001
 20
2.4229388
 11
3.1339989E+001
 21
2.4503138
  0
LINE
  8
1
  6
CONTINUOUS
 62
3
 10
3.1308259E+001
 20
2.3423493
 11
3.1313109E+001
 21
2.3698492
  0
LINE
  8
1
  6
CONTINUOUS
 62
3
 10
3.2542038E+001
 20
2.4503138
 11
3.2415522E+001
 21
2.3558594
  0
LINE
  8
1
  6
CONTINUOUS
 62
3
 10
3.2542038E+001
 20
2.4503138
 11
3.2480817E+001
 21
2.4503138
  0
LINE
  8
1
  6
CONTINUOUS
 62
3
 10
3.2480817E+001
 20
2.4503138
 11
3.2389353E+001
 21
2.3820283
  0
LINE
  8
180
  6
CONTINUOUS
 62
6
 10
3.490272E+001
 20
5.3303185
 11
3.490272E+001
 21
2.3161282E+001
  0
LINE
  8
1
  6
CONTINUOUS
 62
3
 10
3.1319457E+001
 20
2.2618845
 11
3.1324284E+001
 21
2.2892594
  0
LINE
  8
1
  6
CONTINUOUS
 62
3
 10
3.1105006E+001
 20
2.2892594
 11
3.1114367E+001
 21
2.3423493
  0
LINE
  8
1
  6
CONTINUOUS
 62
3
 10
3.1313109E+001
 20
2.3698492
 11
3.1115635E+001
 21
2.3698492
  0
LINE
  8
1
  6
CONTINUOUS
 62
3
 10
3.1114367E+001
 20
2.3423493
 11
3.1308259E+001
 21
2.3423493
  0
LINE
  8
1
  6
CONTINUOUS
 62
3
 10
3.1942612E+001
 20
2.4503138
 11
3.1799488E+001
 21
2.3691223
  0
LINE
  8
1
  6
CONTINUOUS
 62
3
 10
3.1105006E+001
 20
2.2892594
 11
3.1324284E+001
 21
2.2892594
  0
LINE
  8
1
  6
CONTINUOUS
 62
3
 10
3.1588912E+001
 20
2.2618845
 11
3.1593739E+001
 21
2.2892594
  0
LINE
  8
1
  6
CONTINUOUS
 62
3
 10
3.1868385E+001
 20
2.4503138
 11
3.1942612E+001
 21
2.4503138
  0
LINE
  8
1
  6
CONTINUOUS
 62
3
 10
3.1834991E+001
 20
2.2618845
 11
3.1916212E+001
 21
2.2618845
  0
LINE
  8
1
  6
CONTINUOUS
 62
3
 10
3.1675012E+001
 20
2.2985096
 11
3.1668554E+001
 21
2.2618845
  0
INSERT
  2
*D731
  8
1
 10
0.0
 20
0.0
  0
LINE
  8
1
  6
CONTINUOUS
 62
3
 10
3.1701779E+001
 20
2.4503138
 11
3.1683262E+001
 21
2.3452973
  0
LINE
  8
1
  6
CONTINUOUS
 62
3
 10
3.209025E+001
 20
2.4503138
 11
3.2181749E+001
 21
2.4503138
  0
LINE
  8
1
  6
CONTINUOUS
 62
3
 10
3.2212356E+001
 20
2.2618845
 11
3.2273374E+001
 21
2.2618845
  0
LINE
  8
1
  6
CONTINUOUS
 62
3
 10
3.1749273E+001
 20
2.3406363
 11
3.1675012E+001
 21
2.2985096
  0
LINE
  8
1
  6
CONTINUOUS
 62
3
 10
3.1868385E+001
 20
2.4503138
 11
3.1683262E+001
 21
2.3452973
  0
LINE
  8
1
  6
CONTINUOUS
 62
3
 10
3.1701779E+001
 20
2.4503138
 11
3.1649612E+001
 21
2.4503138
  0
LINE
  8
1
  6
CONTINUOUS
 62
3
 10
3.1616387E+001
 20
2.2618845
 11
3.1649612E+001
 21
2.4503138
  0
LINE
  8
1
  6
CONTINUOUS
 62
3
 10
3.1916212E+001
 20
2.2618845
 11
3.1799488E+001
 21
2.3691223
  0
LINE
  8
1
  6
CONTINUOUS
 62
3
 10
3.1834991E+001
 20
2.2618845
 11
3.1749273E+001
 21
2.3406363
  0
LINE
  8
1
  6
CONTINUOUS
 62
3
 10
3.1668554E+001
 20
2.2618845
 11
3.1616387E+001
 21
2.2618845
  0
LINE
  8
1
  6
CONTINUOUS
 62
3
 10
3.1925375E+001
 20
2.2618845
 11
3.1974041E+001
 21
2.2618845
  0
LINE
  8
1
  6
CONTINUOUS
 62
3
 10
3.2029165E+001
 20
2.3248844
 11
3.2127227E+001
 21
2.4369552
  0
LINE
  8
1
  6
CONTINUOUS
 62
3
 10
3.2181722E+001
 20
2.3248844
 11
3.2127227E+001
 21
2.4369552
  0
LINE
  8
1
  6
CONTINUOUS
 62
3
 10
3.1925375E+001
 20
2.2618845
 11
3.209025E+001
 21
2.4503138
  0
LINE
  8
1
  6
CONTINUOUS
 62
3
 10
3.2006087E+001
 20
2.2985096
 11
3.2194547E+001
 21
2.2985096
  0
LINE
  8
1
  6
CONTINUOUS
 62
3
 10
3.2273374E+001
 20
2.2618845
 11
3.2181749E+001
 21
2.4503138
  0
LINE
  8
1
  6
CONTINUOUS
 62
3
 10
3.2029165E+001
 20
2.3248844
 11
3.2181722E+001
 21
2.3248844
  0
LINE
  8
1
  6
CONTINUOUS
 62
3
 10
3.1974041E+001
 20
2.2618845
 11
3.2006087E+001
 21
2.2985096
  0
LINE
  8
1
  6
CONTINUOUS
 62
3
 10
3.2212356E+001
 20
2.2618845
 11
3.2194547E+001
 21
2.2985096
  0
LINE
  8
1
  6
CONTINUOUS
 62
3
 10
3.2480817E+001
 20
2.4503138
 11
3.2542038E+001
 21
2.4503138
  0
LINE
  8
1
  6
CONTINUOUS
 62
3
 10
3.2319125E+001
 20
2.2618845
 11
3.2374846E+001
 21
2.2618845
  0
LINE
  8
1
  6
CONTINUOUS
 62
3
 10
3.2319125E+001
 20
2.2618845
 11
3.233026E+001
 21
2.3250353
  0
LINE
  8
1
  6
CONTINUOUS
 62
3
 10
3.2374846E+001
 20
2.2618845
 11
3.2387762E+001
 21
2.3351345
  0
LINE
  8
1
  6
CONTINUOUS
 62
3
 10
3.2287784E+001
 20
2.4503138
 11
3.2392492E+001
 21
2.3391092
  0
LINE
  8
1
  6
CONTINUOUS
 62
3
 10
3.233026E+001
 20
2.3250353
 11
3.22123E+001
 21
2.4503138
  0
LINE
  8
1
  6
CONTINUOUS
 62
3
 10
3.22123E+001
 20
2.4503138
 11
3.2287784E+001
 21
2.4503138
  0
INSERT
  2
*D846
  8
1
 10
0.0
 20
0.0
  0
INSERT
  2
*TX46
  8
126
 10
1.9769499E+001
 20
1.9563511
  0
TEXT
  8
1
  6
CONTINUOUS
 62
1
 10
3.3750065E+001
 20
6.254559E-001
 40
1.88E-001
  1
64180281
 41
1.12
 72
1
 11
3.2907825E+001
 21
6.254559E-001
  0
TEXT
  8
126
  6
CONTINUOUS
 62
3
 10
3.1463213E+001
 20
1.5514555
 40
1.0E-001
  1
JAS
 41
1.0
  0
TEXT
  8
126
  6
CONTINUOUS
 62
3
 10
3.433131E+001
 20
1.4987408
 40
1.0E-001
  1
13APR06
 72
1
 73
2
 11
3.398131E+001
 21
1.4487408
  0
TEXT
  8
126
  6
CONTINUOUS
 62
3
 10
3.1761747E+001
 20
1.301072
 40
1.0E-001
  1
FULL
  0
TEXT
  8
126
  6
CONTINUOUS
 62
3
 10
3.3020345E+001
 20
9.5321018E-001
 40
1.875E-001
  1
REV-E
  0
TEXT
  8
126
  6
CONTINUOUS
 62
3
 10
2.6952969E+001
 20
2.4512191
 40
8.0E-002
  1
FINISH
  0
TEXT
  8
126
  6
CONTINUOUS
 62
3
 10
3.0955343E+001
 20
1.5731124
 40
8.0E-002
  1
DR.BY
 41
9.0E-001
  0
TEXT
  8
126
  6
CONTINUOUS
 62
3
 10
3.0970771E+001
 20
1.3841184
 40
8.0E-002
  1
SCALE
 41
9.0E-001
  0
TEXT
  8
126
  6
CONTINUOUS
 62
3
 10
3.1956332E+001
 20
1.5680759
 40
8.0E-002
  1
CH.BY
 41
9.0E-001
  0
TEXT
  8
126
  6
CONTINUOUS
 62
3
 10
3.2955174E+001
 20
1.5776342
 40
8.0E-002
  1
DATE
 41
9.0E-001
  0
LINE
  8
180
  6
CONTINUOUS
 62
6
 10
2.690272E+001
 20
2.5705887
 11
2.690272E+001
 21
5.705887E-001
  0
LINE
  8
180
  6
CONTINUOUS
 62
6
 10
2.690272E+001
 20
2.5705887
 11
3.490272E+001
 21
2.5705887
  0
LINE
  8
180
  6
CONTINUOUS
 62
6
 10
3.090272E+001
 20
2.5705887
 11
3.090272E+001
 21
5.705887E-001
  0
LINE
  8
180
  6
CONTINUOUS
 62
6
 10
3.090272E+001
 20
2.1330887
 11
3.490272E+001
 21
2.1330887
  0
LINE
  8
180
  6
CONTINUOUS
 62
6
 10
2.690272E+001
 20
2.1330887
 11
3.090272E+001
 21
2.1330887
  0
LINE
  8
180
  6
CONTINUOUS
 62
6
 10
2.690272E+001
 20
1.1955887
 11
3.490272E+001
 21
1.1955887
  0
LINE
  8
180
  6
CONTINUOUS
 62
6
 10
3.090272E+001
 20
1.6955887
 11
3.490272E+001
 21
1.6955887
  0
LINE
  8
180
  6
CONTINUOUS
 62
6
 10
3.290272E+001
 20
1.6955887
 11
3.290272E+001
 21
8.830887E-001
  0
LINE
  8
180
  6
CONTINUOUS
 62
6
 10
3.090272E+001
 20
8.830887E-001
 11
3.490272E+001
 21
8.830887E-001
  0
LINE
  8
180
  6
CONTINUOUS
 62
6
 10
3.190272E+001
 20
1.5080887
 11
3.190272E+001
 21
1.6955887
  0
LINE
  8
180
  6
CONTINUOUS
 62
6
 10
3.090272E+001
 20
1.5080887
 11
3.290272E+001
 21
1.5080887
  0
TEXT
  8
126
  6
CONTINUOUS
 62
3
 10
2.6947901E+001
 20
2.0229661
 40
8.0E-002
  1
MATERIAL
  0
LINE
  8
1
  6
CONTINUOUS
 62
1
 10
1.9272217E+001
 20
4.7387573
 11
1.9272217E+001
 21
8.7387573
  0
TEXT
  8
1
  6
CONTINUOUS
 62
3
 10
2.1411723E+001
 20
1.2569983E+001
 40
5.0E-001
  1
64180281
 72
1
 73
2
 11
1.9411723E+001
 21
1.2319983E+001
  0
INSERT
  2
*TX63
  8
1
 10
3.298765E+001
 20
2.0078584
  0
INSERT
  2
*TX65
  8
1
 10
2.7063376E+001
 20
1.0462981
  0
LINE
  8
1
  6
CONTINUOUS
 62
1
 10
7.647217
 20
2.1488757E+001
 11
3.0897217E+001
 21
2.1488757E+001
  0
ARC
  8
1
  6
CONTINUOUS
 62
1
 10
3.0897217E+001
 20
1.7988757E+001
 40
3.5
 50
0.0
 51
9.0E+001
  0
ARC
  8
1
  6
CONTINUOUS
 62
1
 10
3.0897217E+001
 20
8.2387573
 40
3.5
 50
2.7E+002
 51
3.6E+002
  0
LINE
  8
1
  6
CONTINUOUS
 62
1
 10
7.647217
 20
4.7387573
 11
3.0897217E+001
 21
4.7387573
  0
ARC
  8
1
  6
CONTINUOUS
 62
1
 10
7.647217
 20
8.2387573
 40
3.5
 50
1.8E+002
 51
2.7E+002
  0
LINE
  8
1
  6
CONTINUOUS
 62
1
 10
4.147217
 20
1.7988757E+001
 11
4.147217
 21
8.2387573
  0
ARC
  8
1
  6
CONTINUOUS
 62
1
 10
7.647217
 20
1.7988757E+001
 40
3.5
 50
9.0E+001
 51
1.8E+002
  0
ENDSEC
  0
EOF
