  0
SECTION
  2
HEADER
  9
$ACADVER
  1
AC1015
  9
$ACADMAINTVER
 70
     6
  9
$DWGCODEPAGE
  3
ANSI_1252
  9
$INSBASE
 10
0.0
 20
0.0
 30
0.0
  9
$EXTMIN
 10
0.0
 20
0.0
 30
0.0
  9
$EXTMAX
 10
40.0
 20
30.0
 30
0.0
  9
$LIMMIN
 10
0.0
 20
0.0
  9
$LIMMAX
 10
40.0
 20
30.0
  9
$ORTHOMODE
 70
     0
  9
$REGENMODE
 70
     1
  9
$FILLMODE
 70
     1
  9
$QTEXTMODE
 70
     0
  9
$MIRRTEXT
 70
     1
  9
$LTSCALE
 40
1.0
  9
$ATTMODE
 70
     1
  9
$TEXTSIZE
 40
0.4814814815
  9
$TRACEWID
 40
0.05
  9
$TEXTSTYLE
  7
Standard
  9
$CLAYER
  8
0
  9
$CELTYPE
  6
ByLayer
  9
$CECOLOR
 62
   256
  9
$CELTSCALE
 40
1.0
  9
$DISPSILH
 70
     0
  9
$DIMSCALE
 40
1.0
  9
$DIMASZ
 40
0.375
  9
$DIMEXO
 40
0.05
  9
$DIMDLI
 40
0.38
  9
$DIMRND
 40
0.0
  9
$DIMDLE
 40
0.0
  9
$DIMEXE
 40
0.125
  9
$DIMTP
 40
0.0
  9
$DIMTM
 40
0.0
  9
$DIMTXT
 40
0.5
  9
$DIMCEN
 40
0.09
  9
$DIMTSZ
 40
0.0
  9
$DIMTOL
 70
     0
  9
$DIMLIM
 70
     0
  9
$DIMTIH
 70
     1
  9
$DIMTOH
 70
     1
  9
$DIMSE1
 70
     0
  9
$DIMSE2
 70
     0
  9
$DIMTAD
 70
     0
  9
$DIMZIN
 70
     0
  9
$DIMBLK
  1

  9
$DIMASO
 70
     1
  9
$DIMSHO
 70
     1
  9
$DIMPOST
  1

  9
$DIMAPOST
  1

  9
$DIMALT
 70
     0
  9
$DIMALTD
 70
     2
  9
$DIMALTF
 40
25.4
  9
$DIMLFAC
 40
1.0
  9
$DIMTOFL
 70
     0
  9
$DIMTVP
 40
0.0
  9
$DIMTIX
 70
     0
  9
$DIMSOXD
 70
     0
  9
$DIMSAH
 70
     0
  9
$DIMBLK1
  1

  9
$DIMBLK2
  1

  9
$DIMSTYLE
  2
Standard
  9
$DIMCLRD
 70
     0
  9
$DIMCLRE
 70
     0
  9
$DIMCLRT
 70
     0
  9
$DIMTFAC
 40
1.0
  9
$DIMGAP
 40
0.06
  9
$DIMJUST
 70
     0
  9
$DIMSD1
 70
     0
  9
$DIMSD2
 70
     0
  9
$DIMTOLJ
 70
     1
  9
$DIMTZIN
 70
     0
  9
$DIMALTZ
 70
     0
  9
$DIMALTTZ
 70
     0
  9
$DIMUPT
 70
     0
  9
$DIMDEC
 70
     2
  9
$DIMTDEC
 70
     2
  9
$DIMALTU
 70
     2
  9
$DIMALTTD
 70
     2
  9
$DIMTXSTY
  7
Standard
  9
$DIMAUNIT
 70
     0
  9
$DIMADEC
 70
     2
  9
$DIMALTRND
 40
0.0
  9
$DIMAZIN
 70
     0
  9
$DIMDSEP
 70
    46
  9
$DIMATFIT
 70
     3
  9
$DIMFRAC
 70
     0
  9
$DIMLDRBLK
  1

  9
$DIMLUNIT
 70
     2
  9
$DIMLWD
 70
    -2
  9
$DIMLWE
 70
    -2
  9
$DIMTMOVE
 70
     0
  9
$LUNITS
 70
     2
  9
$LUPREC
 70
     3
  9
$SKETCHINC
 40
0.1
  9
$FILLETRAD
 40
0.5
  9
$AUNITS
 70
     0
  9
$AUPREC
 70
     2
  9
$MENU
  1
.
  9
$ELEVATION
 40
0.0
  9
$PELEVATION
 40
0.0
  9
$THICKNESS
 40
0.0
  9
$LIMCHECK
 70
     0
  9
$CHAMFERA
 40
0.5
  9
$CHAMFERB
 40
0.5
  9
$CHAMFERC
 40
1.0
  9
$CHAMFERD
 40
0.0
  9
$SKPOLY
 70
     0
  9
$TDCREATE
 40
2456408.583614005
  9
$TDUCREATE
 40
2456408.791947338
  9
$TDUPDATE
 40
2456408.583615081
  9
$TDUUPDATE
 40
2456408.791948414
  9
$TDINDWG
 40
0.0000000116
  9
$TDUSRTIMER
 40
0.0000000116
  9
$USRTIMER
 70
     1
  9
$ANGBASE
 50
0.0
  9
$ANGDIR
 70
     0
  9
$PDMODE
 70
     0
  9
$PDSIZE
 40
-1.0
  9
$PLINEWID
 40
0.0
  9
$SPLFRAME
 70
     0
  9
$SPLINETYPE
 70
     6
  9
$SPLINESEGS
 70
     8
  9
$HANDSEED
  5
24F
  9
$SURFTAB1
 70
     6
  9
$SURFTAB2
 70
     6
  9
$SURFTYPE
 70
     6
  9
$SURFU
 70
     6
  9
$SURFV
 70
     6
  9
$UCSBASE
  2

  9
$UCSNAME
  2

  9
$UCSORG
 10
0.0
 20
0.0
 30
0.0
  9
$UCSXDIR
 10
1.0
 20
0.0
 30
0.0
  9
$UCSYDIR
 10
0.0
 20
1.0
 30
0.0
  9
$UCSORTHOREF
  2

  9
$UCSORTHOVIEW
 70
     0
  9
$UCSORGTOP
 10
0.0
 20
0.0
 30
0.0
  9
$UCSORGBOTTOM
 10
0.0
 20
0.0
 30
0.0
  9
$UCSORGLEFT
 10
0.0
 20
0.0
 30
0.0
  9
$UCSORGRIGHT
 10
0.0
 20
0.0
 30
0.0
  9
$UCSORGFRONT
 10
0.0
 20
0.0
 30
0.0
  9
$UCSORGBACK
 10
0.0
 20
0.0
 30
0.0
  9
$PUCSBASE
  2

  9
$PUCSNAME
  2

  9
$PUCSORG
 10
0.0
 20
0.0
 30
0.0
  9
$PUCSXDIR
 10
1.0
 20
0.0
 30
0.0
  9
$PUCSYDIR
 10
0.0
 20
1.0
 30
0.0
  9
$PUCSORTHOREF
  2

  9
$PUCSORTHOVIEW
 70
     0
  9
$PUCSORGTOP
 10
0.0
 20
0.0
 30
0.0
  9
$PUCSORGBOTTOM
 10
0.0
 20
0.0
 30
0.0
  9
$PUCSORGLEFT
 10
0.0
 20
0.0
 30
0.0
  9
$PUCSORGRIGHT
 10
0.0
 20
0.0
 30
0.0
  9
$PUCSORGFRONT
 10
0.0
 20
0.0
 30
0.0
  9
$PUCSORGBACK
 10
0.0
 20
0.0
 30
0.0
  9
$USERI1
 70
     0
  9
$USERI2
 70
     0
  9
$USERI3
 70
     0
  9
$USERI4
 70
     0
  9
$USERI5
 70
     0
  9
$USERR1
 40
0.0
  9
$USERR2
 40
0.0
  9
$USERR3
 40
0.0
  9
$USERR4
 40
0.0
  9
$USERR5
 40
0.0
  9
$WORLDVIEW
 70
     1
  9
$SHADEDGE
 70
     3
  9
$SHADEDIF
 70
    70
  9
$TILEMODE
 70
     1
  9
$MAXACTVP
 70
    64
  9
$PINSBASE
 10
0.0
 20
0.0
 30
0.0
  9
$PLIMCHECK
 70
     0
  9
$PEXTMIN
 10
1.0000000000E+20
 20
1.0000000000E+20
 30
1.0000000000E+20
  9
$PEXTMAX
 10
-1.0000000000E+20
 20
-1.0000000000E+20
 30
-1.0000000000E+20
  9
$PLIMMIN
 10
0.0
 20
0.0
  9
$PLIMMAX
 10
12.0
 20
9.0
  9
$UNITMODE
 70
     0
  9
$VISRETAIN
 70
     1
  9
$PLINEGEN
 70
     0
  9
$PSLTSCALE
 70
     1
  9
$TREEDEPTH
 70
  3020
  9
$CMLSTYLE
  2
Standard
  9
$CMLJUST
 70
     0
  9
$CMLSCALE
 40
1.0
  9
$PROXYGRAPHICS
 70
     1
  9
$MEASUREMENT
 70
     0
  9
$CELWEIGHT
370
    -1
  9
$ENDCAPS
280
     0
  9
$JOINSTYLE
280
     0
  9
$LWDISPLAY
290
     1
  9
$INSUNITS
 70
     1
  9
$HYPERLINKBASE
  1

  9
$STYLESHEET
  1

  9
$XEDIT
290
     1
  9
$CEPSNTYPE
380
     0
  9
$PSTYLEMODE
290
     1
  9
$FINGERPRINTGUID
  2
{ED37D386-15AC-4266-84A7-7E16E21231F6}
  9
$VERSIONGUID
  2
{FAEB1C32-E019-11D5-929B-00C0DF256EC4}
  9
$EXTNAMES
290
     1
  9
$PSVPSCALE
 40
0.0
  9
$OLESTARTUP
290
     0
  0
ENDSEC
  0
SECTION
  2
CLASSES
  0
CLASS
  1
ACDBDICTIONARYWDFLT
  2
AcDbDictionaryWithDefault
  3
ObjectDBX Classes
 90
        0
280
     0
281
     0
  0
CLASS
  1
VISUALSTYLE
  2
AcDbVisualStyle
  3
ObjectDBX Classes
 90
     4095
280
     0
281
     0
  0
CLASS
  1
MATERIAL
  2
AcDbMaterial
  3
ObjectDBX Classes
 90
     1153
280
     0
281
     0
  0
CLASS
  1
ACDBPLACEHOLDER
  2
AcDbPlaceHolder
  3
ObjectDBX Classes
 90
        0
280
     0
281
     0
  0
CLASS
  1
LAYOUT
  2
AcDbLayout
  3
ObjectDBX Classes
 90
        0
280
     0
281
     0
  0
ENDSEC
  0
SECTION
  2
TABLES
  0
TABLE
  2
VPORT
  5
8
330
0
100
AcDbSymbolTable
 70
     1
  0
VPORT
  5
29
330
8
100
AcDbSymbolTableRecord
100
AcDbViewportTableRecord
  2
*Active
 70
     0
 10
0.0
 20
0.0
 11
1.0
 21
1.0
 12
20.0
 22
15.0
 13
0.0
 23
0.0
 14
0.5
 24
0.5
 15
0.5
 25
0.5
 16
0.0
 26
0.0
 36
1.0
 17
0.0
 27
0.0
 37
0.0
 40
30.0
 41
1.3333333333
 42
50.0
 43
0.0
 44
0.0
 50
0.0
 51
0.0
 71
     0
 72
  2000
 73
     1
 74
     3
 75
     0
 76
     0
 77
     0
 78
     0
281
     0
 65
     1
110
0.0
120
0.0
130
0.0
111
1.0
121
0.0
131
0.0
112
0.0
122
1.0
132
0.0
 79
     0
146
0.0
  0
ENDTAB
  0
TABLE
  2
LTYPE
  5
5
330
0
100
AcDbSymbolTable
 70
     6
  0
LTYPE
  5
14
330
5
100
AcDbSymbolTableRecord
100
AcDbLinetypeTableRecord
  2
ByBlock
 70
     0
  3

 72
    65
 73
     0
 40
0.0
  0
LTYPE
  5
15
330
5
100
AcDbSymbolTableRecord
100
AcDbLinetypeTableRecord
  2
ByLayer
 70
     0
  3

 72
    65
 73
     0
 40
0.0
  0
LTYPE
  5
16
330
5
100
AcDbSymbolTableRecord
100
AcDbLinetypeTableRecord
  2
Continuous
 70
     0
  3
Solid line
 72
    65
 73
     0
 40
0.0
  0
LTYPE
  5
3F
330
5
100
AcDbSymbolTableRecord
100
AcDbLinetypeTableRecord
  2
HIDDEN
 70
     0
  3
Hidden __ __ __ __ __ __ __ __ __ __ __ __ __ __
 72
    65
 73
     2
 40
0.075
 49
0.05
 74
     0
 49
-0.025
 74
     0
  0
LTYPE
  5
40
330
5
100
AcDbSymbolTableRecord
100
AcDbLinetypeTableRecord
  2
PHANTOM
 70
     0
  3
Phantom ______  __  __  ______  __  __  ______
 72
    65
 73
     6
 40
0.5
 49
0.25
 74
     0
 49
-0.05
 74
     0
 49
0.05
 74
     0
 49
-0.05
 74
     0
 49
0.05
 74
     0
 49
-0.05
 74
     0
  0
LTYPE
  5
41
330
5
100
AcDbSymbolTableRecord
100
AcDbLinetypeTableRecord
  2
CENTER
 70
     0
  3
Center ____ _ ____ _ ____ _ ____ _ ____ _ ____
 72
    65
 73
     4
 40
0.4
 49
0.25
 74
     0
 49
-0.05
 74
     0
 49
0.05
 74
     0
 49
-0.05
 74
     0
  0
LTYPE
  5
42
330
5
100
AcDbSymbolTableRecord
100
AcDbLinetypeTableRecord
  2
CENTERX2
 70
     0
  3
Center (2x) ________  __  ________  __  _____
 72
    65
 73
     4
 40
0.8
 49
0.5
 74
     0
 49
-0.1
 74
     0
 49
0.1
 74
     0
 49
-0.1
 74
     0
  0
LTYPE
  5
43
330
5
100
AcDbSymbolTableRecord
100
AcDbLinetypeTableRecord
  2
DOT2
 70
     0
  3
Dot (.5x) ........................................
 72
    65
 73
     2
 40
0.025
 49
0.0
 74
     0
 49
-0.025
 74
     0
  0
ENDTAB
  0
TABLE
  2
LAYER
  5
2
330
0
100
AcDbSymbolTable
 70
   183
  0
LAYER
  5
10
330
2
100
AcDbSymbolTableRecord
100
AcDbLayerTableRecord
  2
0
 70
     0
 62
     7
  6
Continuous
370
    -3
390
F
  0
LAYER
  5
44
330
2
100
AcDbSymbolTableRecord
100
AcDbLayerTableRecord
  2
SLD-0
 70
     0
 62
   179
  6
Continuous
370
    -3
390
F
  0
LAYER
  5
45
330
2
100
AcDbSymbolTableRecord
100
AcDbLayerTableRecord
  2
1
 70
     0
 62
   179
  6
Continuous
370
    -3
390
F
  0
LAYER
  5
46
330
2
100
AcDbSymbolTableRecord
100
AcDbLayerTableRecord
  2
2
 70
     0
 62
   179
  6
Continuous
370
    -3
390
F
  0
LAYER
  5
47
330
2
100
AcDbSymbolTableRecord
100
AcDbLayerTableRecord
  2
3
 70
     0
 62
   179
  6
Continuous
370
    -3
390
F
  0
LAYER
  5
48
330
2
100
AcDbSymbolTableRecord
100
AcDbLayerTableRecord
  2
4
 70
     0
 62
   179
  6
Continuous
370
    -3
390
F
  0
LAYER
  5
49
330
2
100
AcDbSymbolTableRecord
100
AcDbLayerTableRecord
  2
5
 70
     0
 62
   179
  6
Continuous
370
    -3
390
F
  0
LAYER
  5
4A
330
2
100
AcDbSymbolTableRecord
100
AcDbLayerTableRecord
  2
6
 70
     0
 62
   179
  6
Continuous
370
    -3
390
F
  0
LAYER
  5
4B
330
2
100
AcDbSymbolTableRecord
100
AcDbLayerTableRecord
  2
7
 70
     0
 62
   179
  6
Continuous
370
    -3
390
F
  0
LAYER
  5
4C
330
2
100
AcDbSymbolTableRecord
100
AcDbLayerTableRecord
  2
8
 70
     0
 62
   179
  6
Continuous
370
    -3
390
F
  0
LAYER
  5
4D
330
2
100
AcDbSymbolTableRecord
100
AcDbLayerTableRecord
  2
9
 70
     0
 62
   179
  6
Continuous
370
    -3
390
F
  0
LAYER
  5
4E
330
2
100
AcDbSymbolTableRecord
100
AcDbLayerTableRecord
  2
10
 70
     0
 62
   179
  6
Continuous
370
    -3
390
F
  0
LAYER
  5
4F
330
2
100
AcDbSymbolTableRecord
100
AcDbLayerTableRecord
  2
11
 70
     0
 62
   179
  6
Continuous
370
    -3
390
F
  0
LAYER
  5
50
330
2
100
AcDbSymbolTableRecord
100
AcDbLayerTableRecord
  2
12
 70
     0
 62
   179
  6
Continuous
370
    -3
390
F
  0
LAYER
  5
51
330
2
100
AcDbSymbolTableRecord
100
AcDbLayerTableRecord
  2
13
 70
     0
 62
   179
  6
Continuous
370
    -3
390
F
  0
LAYER
  5
52
330
2
100
AcDbSymbolTableRecord
100
AcDbLayerTableRecord
  2
14
 70
     0
 62
   179
  6
Continuous
370
    -3
390
F
  0
LAYER
  5
53
330
2
100
AcDbSymbolTableRecord
100
AcDbLayerTableRecord
  2
15
 70
     0
 62
   179
  6
Continuous
370
    -3
390
F
  0
LAYER
  5
54
330
2
100
AcDbSymbolTableRecord
100
AcDbLayerTableRecord
  2
16
 70
     0
 62
   179
  6
Continuous
370
    -3
390
F
  0
LAYER
  5
55
330
2
100
AcDbSymbolTableRecord
100
AcDbLayerTableRecord
  2
17
 70
     0
 62
   179
  6
Continuous
370
    -3
390
F
  0
LAYER
  5
56
330
2
100
AcDbSymbolTableRecord
100
AcDbLayerTableRecord
  2
18
 70
     0
 62
   179
  6
Continuous
370
    -3
390
F
  0
LAYER
  5
57
330
2
100
AcDbSymbolTableRecord
100
AcDbLayerTableRecord
  2
19
 70
     0
 62
   179
  6
Continuous
370
    -3
390
F
  0
LAYER
  5
58
330
2
100
AcDbSymbolTableRecord
100
AcDbLayerTableRecord
  2
20
 70
     0
 62
   179
  6
Continuous
370
    -3
390
F
  0
LAYER
  5
59
330
2
100
AcDbSymbolTableRecord
100
AcDbLayerTableRecord
  2
21
 70
     0
 62
   179
  6
Continuous
370
    -3
390
F
  0
LAYER
  5
5A
330
2
100
AcDbSymbolTableRecord
100
AcDbLayerTableRecord
  2
22
 70
     0
 62
   179
  6
Continuous
370
    -3
390
F
  0
LAYER
  5
5B
330
2
100
AcDbSymbolTableRecord
100
AcDbLayerTableRecord
  2
23
 70
     0
 62
   179
  6
Continuous
370
    -3
390
F
  0
LAYER
  5
5C
330
2
100
AcDbSymbolTableRecord
100
AcDbLayerTableRecord
  2
24
 70
     0
 62
   179
  6
Continuous
370
    -3
390
F
  0
LAYER
  5
5D
330
2
100
AcDbSymbolTableRecord
100
AcDbLayerTableRecord
  2
25
 70
     0
 62
   179
  6
Continuous
370
    -3
390
F
  0
LAYER
  5
5E
330
2
100
AcDbSymbolTableRecord
100
AcDbLayerTableRecord
  2
26
 70
     0
 62
   179
  6
Continuous
370
    -3
390
F
  0
LAYER
  5
5F
330
2
100
AcDbSymbolTableRecord
100
AcDbLayerTableRecord
  2
27
 70
     0
 62
   179
  6
Continuous
370
    -3
390
F
  0
LAYER
  5
60
330
2
100
AcDbSymbolTableRecord
100
AcDbLayerTableRecord
  2
28
 70
     0
 62
   179
  6
Continuous
370
    -3
390
F
  0
LAYER
  5
61
330
2
100
AcDbSymbolTableRecord
100
AcDbLayerTableRecord
  2
29
 70
     0
 62
   179
  6
Continuous
370
    -3
390
F
  0
LAYER
  5
62
330
2
100
AcDbSymbolTableRecord
100
AcDbLayerTableRecord
  2
30
 70
     0
 62
   179
  6
Continuous
370
    -3
390
F
  0
LAYER
  5
63
330
2
100
AcDbSymbolTableRecord
100
AcDbLayerTableRecord
  2
31
 70
     0
 62
   179
  6
Continuous
370
    -3
390
F
  0
LAYER
  5
64
330
2
100
AcDbSymbolTableRecord
100
AcDbLayerTableRecord
  2
32
 70
     0
 62
   179
  6
Continuous
370
    -3
390
F
  0
LAYER
  5
65
330
2
100
AcDbSymbolTableRecord
100
AcDbLayerTableRecord
  2
33
 70
     0
 62
   179
  6
Continuous
370
    -3
390
F
  0
LAYER
  5
66
330
2
100
AcDbSymbolTableRecord
100
AcDbLayerTableRecord
  2
34
 70
     0
 62
   179
  6
Continuous
370
    -3
390
F
  0
LAYER
  5
67
330
2
100
AcDbSymbolTableRecord
100
AcDbLayerTableRecord
  2
35
 70
     0
 62
   179
  6
Continuous
370
    -3
390
F
  0
LAYER
  5
68
330
2
100
AcDbSymbolTableRecord
100
AcDbLayerTableRecord
  2
36
 70
     0
 62
   179
  6
Continuous
370
    -3
390
F
  0
LAYER
  5
69
330
2
100
AcDbSymbolTableRecord
100
AcDbLayerTableRecord
  2
37
 70
     0
 62
   179
  6
Continuous
370
    -3
390
F
  0
LAYER
  5
6A
330
2
100
AcDbSymbolTableRecord
100
AcDbLayerTableRecord
  2
38
 70
     0
 62
   179
  6
Continuous
370
    -3
390
F
  0
LAYER
  5
6B
330
2
100
AcDbSymbolTableRecord
100
AcDbLayerTableRecord
  2
39
 70
     0
 62
   179
  6
Continuous
370
    -3
390
F
  0
LAYER
  5
6C
330
2
100
AcDbSymbolTableRecord
100
AcDbLayerTableRecord
  2
40
 70
     0
 62
   179
  6
Continuous
370
    -3
390
F
  0
LAYER
  5
6D
330
2
100
AcDbSymbolTableRecord
100
AcDbLayerTableRecord
  2
41
 70
     0
 62
   179
  6
Continuous
370
    -3
390
F
  0
LAYER
  5
6E
330
2
100
AcDbSymbolTableRecord
100
AcDbLayerTableRecord
  2
42
 70
     0
 62
   179
  6
Continuous
370
    -3
390
F
  0
LAYER
  5
6F
330
2
100
AcDbSymbolTableRecord
100
AcDbLayerTableRecord
  2
43
 70
     0
 62
   179
  6
Continuous
370
    -3
390
F
  0
LAYER
  5
70
330
2
100
AcDbSymbolTableRecord
100
AcDbLayerTableRecord
  2
44
 70
     0
 62
   179
  6
Continuous
370
    -3
390
F
  0
LAYER
  5
71
330
2
100
AcDbSymbolTableRecord
100
AcDbLayerTableRecord
  2
45
 70
     0
 62
   179
  6
Continuous
370
    -3
390
F
  0
LAYER
  5
72
330
2
100
AcDbSymbolTableRecord
100
AcDbLayerTableRecord
  2
46
 70
     0
 62
  -179
  6
Continuous
370
    -3
390
F
  0
LAYER
  5
73
330
2
100
AcDbSymbolTableRecord
100
AcDbLayerTableRecord
  2
47
 70
     0
 62
   179
  6
Continuous
370
    -3
390
F
  0
LAYER
  5
74
330
2
100
AcDbSymbolTableRecord
100
AcDbLayerTableRecord
  2
48
 70
     0
 62
   179
  6
Continuous
370
    -3
390
F
  0
LAYER
  5
75
330
2
100
AcDbSymbolTableRecord
100
AcDbLayerTableRecord
  2
49
 70
     0
 62
   179
  6
Continuous
370
    -3
390
F
  0
LAYER
  5
76
330
2
100
AcDbSymbolTableRecord
100
AcDbLayerTableRecord
  2
50
 70
     0
 62
   179
  6
Continuous
370
    -3
390
F
  0
LAYER
  5
77
330
2
100
AcDbSymbolTableRecord
100
AcDbLayerTableRecord
  2
51
 70
     0
 62
   179
  6
Continuous
370
    -3
390
F
  0
LAYER
  5
78
330
2
100
AcDbSymbolTableRecord
100
AcDbLayerTableRecord
  2
52
 70
     0
 62
   179
  6
Continuous
370
    -3
390
F
  0
LAYER
  5
79
330
2
100
AcDbSymbolTableRecord
100
AcDbLayerTableRecord
  2
53
 70
     0
 62
   179
  6
Continuous
370
    -3
390
F
  0
LAYER
  5
7A
330
2
100
AcDbSymbolTableRecord
100
AcDbLayerTableRecord
  2
54
 70
     0
 62
   179
  6
Continuous
370
    -3
390
F
  0
LAYER
  5
7B
330
2
100
AcDbSymbolTableRecord
100
AcDbLayerTableRecord
  2
55
 70
     0
 62
   179
  6
Continuous
370
    -3
390
F
  0
LAYER
  5
7C
330
2
100
AcDbSymbolTableRecord
100
AcDbLayerTableRecord
  2
56
 70
     0
 62
   179
  6
Continuous
370
    -3
390
F
  0
LAYER
  5
7D
330
2
100
AcDbSymbolTableRecord
100
AcDbLayerTableRecord
  2
57
 70
     0
 62
   179
  6
Continuous
370
    -3
390
F
  0
LAYER
  5
7E
330
2
100
AcDbSymbolTableRecord
100
AcDbLayerTableRecord
  2
58
 70
     0
 62
   179
  6
Continuous
370
    -3
390
F
  0
LAYER
  5
7F
330
2
100
AcDbSymbolTableRecord
100
AcDbLayerTableRecord
  2
59
 70
     0
 62
   179
  6
Continuous
370
    -3
390
F
  0
LAYER
  5
80
330
2
100
AcDbSymbolTableRecord
100
AcDbLayerTableRecord
  2
60
 70
     0
 62
   179
  6
Continuous
370
    -3
390
F
  0
LAYER
  5
81
330
2
100
AcDbSymbolTableRecord
100
AcDbLayerTableRecord
  2
61
 70
     0
 62
   179
  6
Continuous
370
    -3
390
F
  0
LAYER
  5
82
330
2
100
AcDbSymbolTableRecord
100
AcDbLayerTableRecord
  2
62
 70
     0
 62
   179
  6
Continuous
370
    -3
390
F
  0
LAYER
  5
83
330
2
100
AcDbSymbolTableRecord
100
AcDbLayerTableRecord
  2
63
 70
     0
 62
   179
  6
Continuous
370
    -3
390
F
  0
LAYER
  5
84
330
2
100
AcDbSymbolTableRecord
100
AcDbLayerTableRecord
  2
64
 70
     0
 62
   179
  6
Continuous
370
    -3
390
F
  0
LAYER
  5
85
330
2
100
AcDbSymbolTableRecord
100
AcDbLayerTableRecord
  2
65
 70
     0
 62
   179
  6
Continuous
370
    -3
390
F
  0
LAYER
  5
86
330
2
100
AcDbSymbolTableRecord
100
AcDbLayerTableRecord
  2
66
 70
     0
 62
   179
  6
Continuous
370
    -3
390
F
  0
LAYER
  5
87
330
2
100
AcDbSymbolTableRecord
100
AcDbLayerTableRecord
  2
67
 70
     0
 62
   179
  6
Continuous
370
    -3
390
F
  0
LAYER
  5
88
330
2
100
AcDbSymbolTableRecord
100
AcDbLayerTableRecord
  2
68
 70
     0
 62
   179
  6
Continuous
370
    -3
390
F
  0
LAYER
  5
89
330
2
100
AcDbSymbolTableRecord
100
AcDbLayerTableRecord
  2
69
 70
     0
 62
   179
  6
Continuous
370
    -3
390
F
  0
LAYER
  5
8A
330
2
100
AcDbSymbolTableRecord
100
AcDbLayerTableRecord
  2
70
 70
     0
 62
   179
  6
Continuous
370
    -3
390
F
  0
LAYER
  5
8B
330
2
100
AcDbSymbolTableRecord
100
AcDbLayerTableRecord
  2
71
 70
     0
 62
   179
  6
Continuous
370
    -3
390
F
  0
LAYER
  5
8C
330
2
100
AcDbSymbolTableRecord
100
AcDbLayerTableRecord
  2
72
 70
     0
 62
   179
  6
Continuous
370
    -3
390
F
  0
LAYER
  5
8D
330
2
100
AcDbSymbolTableRecord
100
AcDbLayerTableRecord
  2
73
 70
     0
 62
   179
  6
Continuous
370
    -3
390
F
  0
LAYER
  5
8E
330
2
100
AcDbSymbolTableRecord
100
AcDbLayerTableRecord
  2
74
 70
     0
 62
   179
  6
Continuous
370
    -3
390
F
  0
LAYER
  5
8F
330
2
100
AcDbSymbolTableRecord
100
AcDbLayerTableRecord
  2
75
 70
     0
 62
   179
  6
Continuous
370
    -3
390
F
  0
LAYER
  5
90
330
2
100
AcDbSymbolTableRecord
100
AcDbLayerTableRecord
  2
76
 70
     0
 62
   179
  6
Continuous
370
    -3
390
F
  0
LAYER
  5
91
330
2
100
AcDbSymbolTableRecord
100
AcDbLayerTableRecord
  2
77
 70
     0
 62
   179
  6
Continuous
370
    -3
390
F
  0
LAYER
  5
92
330
2
100
AcDbSymbolTableRecord
100
AcDbLayerTableRecord
  2
78
 70
     0
 62
   179
  6
Continuous
370
    -3
390
F
  0
LAYER
  5
93
330
2
100
AcDbSymbolTableRecord
100
AcDbLayerTableRecord
  2
79
 70
     0
 62
   179
  6
Continuous
370
    -3
390
F
  0
LAYER
  5
94
330
2
100
AcDbSymbolTableRecord
100
AcDbLayerTableRecord
  2
80
 70
     0
 62
   179
  6
Continuous
370
    -3
390
F
  0
LAYER
  5
95
330
2
100
AcDbSymbolTableRecord
100
AcDbLayerTableRecord
  2
81
 70
     0
 62
   179
  6
Continuous
370
    -3
390
F
  0
LAYER
  5
96
330
2
100
AcDbSymbolTableRecord
100
AcDbLayerTableRecord
  2
82
 70
     0
 62
   179
  6
Continuous
370
    -3
390
F
  0
LAYER
  5
97
330
2
100
AcDbSymbolTableRecord
100
AcDbLayerTableRecord
  2
83
 70
     0
 62
   179
  6
Continuous
370
    -3
390
F
  0
LAYER
  5
98
330
2
100
AcDbSymbolTableRecord
100
AcDbLayerTableRecord
  2
84
 70
     0
 62
   179
  6
Continuous
370
    -3
390
F
  0
LAYER
  5
99
330
2
100
AcDbSymbolTableRecord
100
AcDbLayerTableRecord
  2
85
 70
     0
 62
   179
  6
Continuous
370
    -3
390
F
  0
LAYER
  5
9A
330
2
100
AcDbSymbolTableRecord
100
AcDbLayerTableRecord
  2
86
 70
     0
 62
   179
  6
Continuous
370
    -3
390
F
  0
LAYER
  5
9B
330
2
100
AcDbSymbolTableRecord
100
AcDbLayerTableRecord
  2
87
 70
     0
 62
   179
  6
Continuous
370
    -3
390
F
  0
LAYER
  5
9C
330
2
100
AcDbSymbolTableRecord
100
AcDbLayerTableRecord
  2
88
 70
     0
 62
   179
  6
Continuous
370
    -3
390
F
  0
LAYER
  5
9D
330
2
100
AcDbSymbolTableRecord
100
AcDbLayerTableRecord
  2
89
 70
     0
 62
   179
  6
Continuous
370
    -3
390
F
  0
LAYER
  5
9E
330
2
100
AcDbSymbolTableRecord
100
AcDbLayerTableRecord
  2
90
 70
     0
 62
   179
  6
Continuous
370
    -3
390
F
  0
LAYER
  5
9F
330
2
100
AcDbSymbolTableRecord
100
AcDbLayerTableRecord
  2
91
 70
     0
 62
   179
  6
Continuous
370
    -3
390
F
  0
LAYER
  5
A0
330
2
100
AcDbSymbolTableRecord
100
AcDbLayerTableRecord
  2
92
 70
     0
 62
   179
  6
Continuous
370
    -3
390
F
  0
LAYER
  5
A1
330
2
100
AcDbSymbolTableRecord
100
AcDbLayerTableRecord
  2
93
 70
     0
 62
   179
  6
Continuous
370
    -3
390
F
  0
LAYER
  5
A2
330
2
100
AcDbSymbolTableRecord
100
AcDbLayerTableRecord
  2
94
 70
     0
 62
   179
  6
Continuous
370
    -3
390
F
  0
LAYER
  5
A3
330
2
100
AcDbSymbolTableRecord
100
AcDbLayerTableRecord
  2
95
 70
     0
 62
   179
  6
Continuous
370
    -3
390
F
  0
LAYER
  5
A4
330
2
100
AcDbSymbolTableRecord
100
AcDbLayerTableRecord
  2
96
 70
     0
 62
   179
  6
Continuous
370
    -3
390
F
  0
LAYER
  5
A5
330
2
100
AcDbSymbolTableRecord
100
AcDbLayerTableRecord
  2
97
 70
     0
 62
   179
  6
Continuous
370
    -3
390
F
  0
LAYER
  5
A6
330
2
100
AcDbSymbolTableRecord
100
AcDbLayerTableRecord
  2
98
 70
     0
 62
   179
  6
Continuous
370
    -3
390
F
  0
LAYER
  5
A7
330
2
100
AcDbSymbolTableRecord
100
AcDbLayerTableRecord
  2
99
 70
     0
 62
   179
  6
Continuous
370
    -3
390
F
  0
LAYER
  5
A8
330
2
100
AcDbSymbolTableRecord
100
AcDbLayerTableRecord
  2
100
 70
     0
 62
   179
  6
Continuous
370
    -3
390
F
  0
LAYER
  5
A9
330
2
100
AcDbSymbolTableRecord
100
AcDbLayerTableRecord
  2
101
 70
     0
 62
   179
  6
Continuous
370
    -3
390
F
  0
LAYER
  5
AA
330
2
100
AcDbSymbolTableRecord
100
AcDbLayerTableRecord
  2
102
 70
     0
 62
   179
  6
Continuous
370
    -3
390
F
  0
LAYER
  5
AB
330
2
100
AcDbSymbolTableRecord
100
AcDbLayerTableRecord
  2
103
 70
     0
 62
   179
  6
Continuous
370
    -3
390
F
  0
LAYER
  5
AC
330
2
100
AcDbSymbolTableRecord
100
AcDbLayerTableRecord
  2
104
 70
     0
 62
   179
  6
Continuous
370
    -3
390
F
  0
LAYER
  5
AD
330
2
100
AcDbSymbolTableRecord
100
AcDbLayerTableRecord
  2
105
 70
     0
 62
   179
  6
Continuous
370
    -3
390
F
  0
LAYER
  5
AE
330
2
100
AcDbSymbolTableRecord
100
AcDbLayerTableRecord
  2
106
 70
     0
 62
   179
  6
Continuous
370
    -3
390
F
  0
LAYER
  5
AF
330
2
100
AcDbSymbolTableRecord
100
AcDbLayerTableRecord
  2
107
 70
     0
 62
   179
  6
Continuous
370
    -3
390
F
  0
LAYER
  5
B0
330
2
100
AcDbSymbolTableRecord
100
AcDbLayerTableRecord
  2
108
 70
     0
 62
   179
  6
Continuous
370
    -3
390
F
  0
LAYER
  5
B1
330
2
100
AcDbSymbolTableRecord
100
AcDbLayerTableRecord
  2
109
 70
     0
 62
   179
  6
Continuous
370
    -3
390
F
  0
LAYER
  5
B2
330
2
100
AcDbSymbolTableRecord
100
AcDbLayerTableRecord
  2
110
 70
     0
 62
   179
  6
Continuous
370
    -3
390
F
  0
LAYER
  5
B3
330
2
100
AcDbSymbolTableRecord
100
AcDbLayerTableRecord
  2
111
 70
     0
 62
   179
  6
Continuous
370
    -3
390
F
  0
LAYER
  5
B4
330
2
100
AcDbSymbolTableRecord
100
AcDbLayerTableRecord
  2
112
 70
     0
 62
   179
  6
Continuous
370
    -3
390
F
  0
LAYER
  5
B5
330
2
100
AcDbSymbolTableRecord
100
AcDbLayerTableRecord
  2
113
 70
     0
 62
   179
  6
Continuous
370
    -3
390
F
  0
LAYER
  5
B6
330
2
100
AcDbSymbolTableRecord
100
AcDbLayerTableRecord
  2
114
 70
     0
 62
   179
  6
Continuous
370
    -3
390
F
  0
LAYER
  5
B7
330
2
100
AcDbSymbolTableRecord
100
AcDbLayerTableRecord
  2
115
 70
     0
 62
   179
  6
Continuous
370
    -3
390
F
  0
LAYER
  5
B8
330
2
100
AcDbSymbolTableRecord
100
AcDbLayerTableRecord
  2
116
 70
     0
 62
   179
  6
Continuous
370
    -3
390
F
  0
LAYER
  5
B9
330
2
100
AcDbSymbolTableRecord
100
AcDbLayerTableRecord
  2
117
 70
     0
 62
   179
  6
Continuous
370
    -3
390
F
  0
LAYER
  5
BA
330
2
100
AcDbSymbolTableRecord
100
AcDbLayerTableRecord
  2
118
 70
     0
 62
   179
  6
Continuous
370
    -3
390
F
  0
LAYER
  5
BB
330
2
100
AcDbSymbolTableRecord
100
AcDbLayerTableRecord
  2
119
 70
     0
 62
   179
  6
Continuous
370
    -3
390
F
  0
LAYER
  5
BC
330
2
100
AcDbSymbolTableRecord
100
AcDbLayerTableRecord
  2
120
 70
     0
 62
   179
  6
Continuous
370
    -3
390
F
  0
LAYER
  5
BD
330
2
100
AcDbSymbolTableRecord
100
AcDbLayerTableRecord
  2
121
 70
     0
 62
   179
  6
Continuous
370
    -3
390
F
  0
LAYER
  5
BE
330
2
100
AcDbSymbolTableRecord
100
AcDbLayerTableRecord
  2
122
 70
     0
 62
   179
  6
Continuous
370
    -3
390
F
  0
LAYER
  5
BF
330
2
100
AcDbSymbolTableRecord
100
AcDbLayerTableRecord
  2
123
 70
     0
 62
   179
  6
Continuous
370
    -3
390
F
  0
LAYER
  5
C0
330
2
100
AcDbSymbolTableRecord
100
AcDbLayerTableRecord
  2
124
 70
     0
 62
   179
  6
Continuous
370
    -3
390
F
  0
LAYER
  5
C1
330
2
100
AcDbSymbolTableRecord
100
AcDbLayerTableRecord
  2
125
 70
     0
 62
   179
  6
Continuous
370
    -3
390
F
  0
LAYER
  5
C2
330
2
100
AcDbSymbolTableRecord
100
AcDbLayerTableRecord
  2
126
 70
     0
 62
   179
  6
Continuous
370
    -3
390
F
  0
LAYER
  5
C3
330
2
100
AcDbSymbolTableRecord
100
AcDbLayerTableRecord
  2
127
 70
     0
 62
   179
  6
Continuous
370
    -3
390
F
  0
LAYER
  5
C4
330
2
100
AcDbSymbolTableRecord
100
AcDbLayerTableRecord
  2
128
 70
     0
 62
   179
  6
Continuous
370
    -3
390
F
  0
LAYER
  5
C5
330
2
100
AcDbSymbolTableRecord
100
AcDbLayerTableRecord
  2
129
 70
     0
 62
   179
  6
Continuous
370
    -3
390
F
  0
LAYER
  5
C6
330
2
100
AcDbSymbolTableRecord
100
AcDbLayerTableRecord
  2
130
 70
     0
 62
   179
  6
Continuous
370
    -3
390
F
  0
LAYER
  5
C7
330
2
100
AcDbSymbolTableRecord
100
AcDbLayerTableRecord
  2
131
 70
     0
 62
   179
  6
Continuous
370
    -3
390
F
  0
LAYER
  5
C8
330
2
100
AcDbSymbolTableRecord
100
AcDbLayerTableRecord
  2
132
 70
     0
 62
   179
  6
Continuous
370
    -3
390
F
  0
LAYER
  5
C9
330
2
100
AcDbSymbolTableRecord
100
AcDbLayerTableRecord
  2
133
 70
     0
 62
   179
  6
Continuous
370
    -3
390
F
  0
LAYER
  5
CA
330
2
100
AcDbSymbolTableRecord
100
AcDbLayerTableRecord
  2
134
 70
     0
 62
   179
  6
Continuous
370
    -3
390
F
  0
LAYER
  5
CB
330
2
100
AcDbSymbolTableRecord
100
AcDbLayerTableRecord
  2
135
 70
     0
 62
   179
  6
Continuous
370
    -3
390
F
  0
LAYER
  5
CC
330
2
100
AcDbSymbolTableRecord
100
AcDbLayerTableRecord
  2
136
 70
     0
 62
   179
  6
Continuous
370
    -3
390
F
  0
LAYER
  5
CD
330
2
100
AcDbSymbolTableRecord
100
AcDbLayerTableRecord
  2
137
 70
     0
 62
   179
  6
Continuous
370
    -3
390
F
  0
LAYER
  5
CE
330
2
100
AcDbSymbolTableRecord
100
AcDbLayerTableRecord
  2
138
 70
     0
 62
   179
  6
Continuous
370
    -3
390
F
  0
LAYER
  5
CF
330
2
100
AcDbSymbolTableRecord
100
AcDbLayerTableRecord
  2
139
 70
     0
 62
   179
  6
Continuous
370
    -3
390
F
  0
LAYER
  5
D0
330
2
100
AcDbSymbolTableRecord
100
AcDbLayerTableRecord
  2
140
 70
     0
 62
   179
  6
Continuous
370
    -3
390
F
  0
LAYER
  5
D1
330
2
100
AcDbSymbolTableRecord
100
AcDbLayerTableRecord
  2
141
 70
     0
 62
   179
  6
Continuous
370
    -3
390
F
  0
LAYER
  5
D2
330
2
100
AcDbSymbolTableRecord
100
AcDbLayerTableRecord
  2
142
 70
     0
 62
   179
  6
Continuous
370
    -3
390
F
  0
LAYER
  5
D3
330
2
100
AcDbSymbolTableRecord
100
AcDbLayerTableRecord
  2
143
 70
     0
 62
   179
  6
Continuous
370
    -3
390
F
  0
LAYER
  5
D4
330
2
100
AcDbSymbolTableRecord
100
AcDbLayerTableRecord
  2
144
 70
     0
 62
   179
  6
Continuous
370
    -3
390
F
  0
LAYER
  5
D5
330
2
100
AcDbSymbolTableRecord
100
AcDbLayerTableRecord
  2
145
 70
     0
 62
   179
  6
Continuous
370
    -3
390
F
  0
LAYER
  5
D6
330
2
100
AcDbSymbolTableRecord
100
AcDbLayerTableRecord
  2
146
 70
     0
 62
   179
  6
Continuous
370
    -3
390
F
  0
LAYER
  5
D7
330
2
100
AcDbSymbolTableRecord
100
AcDbLayerTableRecord
  2
147
 70
     0
 62
   179
  6
Continuous
370
    -3
390
F
  0
LAYER
  5
D8
330
2
100
AcDbSymbolTableRecord
100
AcDbLayerTableRecord
  2
148
 70
     0
 62
   179
  6
Continuous
370
    -3
390
F
  0
LAYER
  5
D9
330
2
100
AcDbSymbolTableRecord
100
AcDbLayerTableRecord
  2
149
 70
     0
 62
   179
  6
Continuous
370
    -3
390
F
  0
LAYER
  5
DA
330
2
100
AcDbSymbolTableRecord
100
AcDbLayerTableRecord
  2
150
 70
     0
 62
   179
  6
Continuous
370
    -3
390
F
  0
LAYER
  5
DB
330
2
100
AcDbSymbolTableRecord
100
AcDbLayerTableRecord
  2
151
 70
     0
 62
   179
  6
Continuous
370
    -3
390
F
  0
LAYER
  5
DC
330
2
100
AcDbSymbolTableRecord
100
AcDbLayerTableRecord
  2
152
 70
     0
 62
   179
  6
Continuous
370
    -3
390
F
  0
LAYER
  5
DD
330
2
100
AcDbSymbolTableRecord
100
AcDbLayerTableRecord
  2
153
 70
     0
 62
   179
  6
Continuous
370
    -3
390
F
  0
LAYER
  5
DE
330
2
100
AcDbSymbolTableRecord
100
AcDbLayerTableRecord
  2
154
 70
     0
 62
   179
  6
Continuous
370
    -3
390
F
  0
LAYER
  5
DF
330
2
100
AcDbSymbolTableRecord
100
AcDbLayerTableRecord
  2
155
 70
     0
 62
   179
  6
Continuous
370
    -3
390
F
  0
LAYER
  5
E0
330
2
100
AcDbSymbolTableRecord
100
AcDbLayerTableRecord
  2
156
 70
     0
 62
   179
  6
Continuous
370
    -3
390
F
  0
LAYER
  5
E1
330
2
100
AcDbSymbolTableRecord
100
AcDbLayerTableRecord
  2
157
 70
     0
 62
   179
  6
Continuous
370
    -3
390
F
  0
LAYER
  5
E2
330
2
100
AcDbSymbolTableRecord
100
AcDbLayerTableRecord
  2
158
 70
     0
 62
   179
  6
Continuous
370
    -3
390
F
  0
LAYER
  5
E3
330
2
100
AcDbSymbolTableRecord
100
AcDbLayerTableRecord
  2
159
 70
     0
 62
   179
  6
Continuous
370
    -3
390
F
  0
LAYER
  5
E4
330
2
100
AcDbSymbolTableRecord
100
AcDbLayerTableRecord
  2
160
 70
     0
 62
   179
  6
Continuous
370
    -3
390
F
  0
LAYER
  5
E5
330
2
100
AcDbSymbolTableRecord
100
AcDbLayerTableRecord
  2
161
 70
     0
 62
   179
  6
Continuous
370
    -3
390
F
  0
LAYER
  5
E6
330
2
100
AcDbSymbolTableRecord
100
AcDbLayerTableRecord
  2
162
 70
     0
 62
   179
  6
Continuous
370
    -3
390
F
  0
LAYER
  5
E7
330
2
100
AcDbSymbolTableRecord
100
AcDbLayerTableRecord
  2
163
 70
     0
 62
   179
  6
Continuous
370
    -3
390
F
  0
LAYER
  5
E8
330
2
100
AcDbSymbolTableRecord
100
AcDbLayerTableRecord
  2
164
 70
     0
 62
   179
  6
Continuous
370
    -3
390
F
  0
LAYER
  5
E9
330
2
100
AcDbSymbolTableRecord
100
AcDbLayerTableRecord
  2
165
 70
     0
 62
   179
  6
Continuous
370
    -3
390
F
  0
LAYER
  5
EA
330
2
100
AcDbSymbolTableRecord
100
AcDbLayerTableRecord
  2
166
 70
     0
 62
   179
  6
Continuous
370
    -3
390
F
  0
LAYER
  5
EB
330
2
100
AcDbSymbolTableRecord
100
AcDbLayerTableRecord
  2
167
 70
     0
 62
   179
  6
Continuous
370
    -3
390
F
  0
LAYER
  5
EC
330
2
100
AcDbSymbolTableRecord
100
AcDbLayerTableRecord
  2
168
 70
     0
 62
   179
  6
Continuous
370
    -3
390
F
  0
LAYER
  5
ED
330
2
100
AcDbSymbolTableRecord
100
AcDbLayerTableRecord
  2
169
 70
     0
 62
   179
  6
Continuous
370
    -3
390
F
  0
LAYER
  5
EE
330
2
100
AcDbSymbolTableRecord
100
AcDbLayerTableRecord
  2
170
 70
     0
 62
   179
  6
Continuous
370
    -3
390
F
  0
LAYER
  5
EF
330
2
100
AcDbSymbolTableRecord
100
AcDbLayerTableRecord
  2
171
 70
     0
 62
   179
  6
Continuous
370
    -3
390
F
  0
LAYER
  5
F0
330
2
100
AcDbSymbolTableRecord
100
AcDbLayerTableRecord
  2
172
 70
     0
 62
   179
  6
Continuous
370
    -3
390
F
  0
LAYER
  5
F1
330
2
100
AcDbSymbolTableRecord
100
AcDbLayerTableRecord
  2
173
 70
     0
 62
   179
  6
Continuous
370
    -3
390
F
  0
LAYER
  5
F2
330
2
100
AcDbSymbolTableRecord
100
AcDbLayerTableRecord
  2
174
 70
     0
 62
   179
  6
Continuous
370
    -3
390
F
  0
LAYER
  5
F3
330
2
100
AcDbSymbolTableRecord
100
AcDbLayerTableRecord
  2
175
 70
     0
 62
   179
  6
Continuous
370
    -3
390
F
  0
LAYER
  5
F4
330
2
100
AcDbSymbolTableRecord
100
AcDbLayerTableRecord
  2
176
 70
     0
 62
   179
  6
Continuous
370
    -3
390
F
  0
LAYER
  5
F5
330
2
100
AcDbSymbolTableRecord
100
AcDbLayerTableRecord
  2
177
 70
     0
 62
   179
  6
Continuous
370
    -3
390
F
  0
LAYER
  5
F6
330
2
100
AcDbSymbolTableRecord
100
AcDbLayerTableRecord
  2
178
 70
     0
 62
   179
  6
Continuous
370
    -3
390
F
  0
LAYER
  5
F7
330
2
100
AcDbSymbolTableRecord
100
AcDbLayerTableRecord
  2
179
 70
     0
 62
   179
  6
Continuous
370
    -3
390
F
  0
LAYER
  5
F8
330
2
100
AcDbSymbolTableRecord
100
AcDbLayerTableRecord
  2
180
 70
     0
 62
   179
  6
Continuous
370
    -3
390
F
  0
LAYER
  5
F9
330
2
100
AcDbSymbolTableRecord
100
AcDbLayerTableRecord
  2
DRAFTING_HIDDEN_ENTITIES
 70
     0
 62
   179
  6
Continuous
370
    -3
390
F
  0
ENDTAB
  0
TABLE
  2
STYLE
  5
3
330
0
100
AcDbSymbolTable
 70
     2
  0
STYLE
  5
11
330
3
100
AcDbSymbolTableRecord
100
AcDbTextStyleTableRecord
  2
Standard
 70
     0
 40
0.0
 41
1.0
 50
0.0
 71
     0
 42
0.4814814815
  3
txt
  4

  0
STYLE
  5
119
330
3
100
AcDbSymbolTableRecord
100
AcDbTextStyleTableRecord
  2
SLDTEXTSTYLE0
 70
     0
 40
0.0
 41
0.75
 50
0.0
 71
     0
 42
0.2
  3
TXT
  4

  0
ENDTAB
  0
TABLE
  2
VIEW
  5
6
330
0
100
AcDbSymbolTable
 70
     0
  0
ENDTAB
  0
TABLE
  2
UCS
  5
7
330
0
100
AcDbSymbolTable
 70
     0
  0
ENDTAB
  0
TABLE
  2
APPID
  5
9
330
0
100
AcDbSymbolTable
 70
     1
  0
APPID
  5
12
330
9
100
AcDbSymbolTableRecord
100
AcDbRegAppTableRecord
  2
ACAD
 70
     0
  0
ENDTAB
  0
TABLE
  2
DIMSTYLE
  5
A
330
0
100
AcDbSymbolTable
 70
     6
100
AcDbDimStyleTable
  0
DIMSTYLE
105
27
330
A
100
AcDbSymbolTableRecord
100
AcDbDimStyleTableRecord
  2
Standard
 70
     0
178
     0
340
11
  0
DIMSTYLE
105
11A
102
{ACAD_REACTORS
330
118
102
}
330
A
100
AcDbSymbolTableRecord
100
AcDbDimStyleTableRecord
  2
SLDDIMSTYLE0
 70
     0
 41
0.375
 44
0.0
 45
0.000000001
 78
    12
 79
     3
140
0.375
143
26.0417241379
147
0.09375
148
0.000000001
170
     1
173
     1
178
     0
271
     2
272
     2
276
     2
277
     5
284
    12
340
119
  0
DIMSTYLE
105
131
102
{ACAD_REACTORS
330
130
330
147
330
1B6
330
1C7
330
1DC
102
}
330
A
100
AcDbSymbolTableRecord
100
AcDbDimStyleTableRecord
  2
SLDDIMSTYLE1
 70
     0
 41
0.375
 44
0.0
 45
0.000000001
 78
    12
 79
     3
140
0.375
147
0.09375
148
0.000000001
170
     1
173
     1
178
     0
271
     2
272
     2
276
     2
277
     5
284
    12
340
119
  0
DIMSTYLE
105
15A
102
{ACAD_REACTORS
330
159
330
16D
330
1A3
330
1F0
330
1FF
330
212
330
221
102
}
330
A
100
AcDbSymbolTableRecord
100
AcDbDimStyleTableRecord
  2
SLDDIMSTYLE2
 70
     0
 41
0.375
 44
0.0
 45
0.000000001
 78
    12
 79
     3
140
0.375
141
0.0
147
0.09375
148
0.000000001
170
     1
173
     1
178
     0
271
     2
272
     2
276
     2
277
     5
284
    12
340
119
  0
DIMSTYLE
105
181
102
{ACAD_REACTORS
330
180
330
194
330
230
102
}
330
A
100
AcDbSymbolTableRecord
100
AcDbDimStyleTableRecord
  2
SLDDIMSTYLE3
 70
     0
 41
0.375
 44
0.0
 45
0.000000001
 78
    12
 79
     3
140
0.375
141
0.0
147
0.09375
148
0.000000001
170
     1
173
     1
178
     0
271
     2
272
     2
276
     2
277
     5
284
    12
340
119
  0
DIMSTYLE
105
246
330
A
100
AcDbSymbolTableRecord
100
AcDbDimStyleTableRecord
  2
SLDDIMSTYLE4
 70
     0
 41
0.375
 44
0.0
 45
0.000000001
140
0.0
146
0.375
147
0.0
173
     1
178
     0
271
     0
272
     0
276
     2
277
     5
340
11
  0
ENDTAB
  0
TABLE
  2
BLOCK_RECORD
  5
1
330
0
100
AcDbSymbolTable
 70
    19
  0
BLOCK_RECORD
  5
1F
330
1
100
AcDbSymbolTableRecord
100
AcDbBlockTableRecord
  2
*Model_Space
340
22
  0
BLOCK_RECORD
  5
1B
330
1
100
AcDbSymbolTableRecord
100
AcDbBlockTableRecord
  2
*Paper_Space
340
1E
  0
BLOCK_RECORD
  5
23
330
1
100
AcDbSymbolTableRecord
100
AcDbBlockTableRecord
  2
*Paper_Space0
340
26
  0
BLOCK_RECORD
  5
11B
330
1
100
AcDbSymbolTableRecord
100
AcDbBlockTableRecord
  2
_D
340
0
  0
BLOCK_RECORD
  5
132
330
1
100
AcDbSymbolTableRecord
100
AcDbBlockTableRecord
  2
_D_1
340
0
  0
BLOCK_RECORD
  5
148
330
1
100
AcDbSymbolTableRecord
100
AcDbBlockTableRecord
  2
_D_2
340
0
  0
BLOCK_RECORD
  5
15B
330
1
100
AcDbSymbolTableRecord
100
AcDbBlockTableRecord
  2
_D_3
340
0
  0
BLOCK_RECORD
  5
16E
330
1
100
AcDbSymbolTableRecord
100
AcDbBlockTableRecord
  2
_D_4
340
0
  0
BLOCK_RECORD
  5
182
330
1
100
AcDbSymbolTableRecord
100
AcDbBlockTableRecord
  2
_D_5
340
0
  0
BLOCK_RECORD
  5
195
330
1
100
AcDbSymbolTableRecord
100
AcDbBlockTableRecord
  2
_D_6
340
0
  0
BLOCK_RECORD
  5
1A4
330
1
100
AcDbSymbolTableRecord
100
AcDbBlockTableRecord
  2
_D_7
340
0
  0
BLOCK_RECORD
  5
1B7
330
1
100
AcDbSymbolTableRecord
100
AcDbBlockTableRecord
  2
_D_8
340
0
  0
BLOCK_RECORD
  5
1C8
330
1
100
AcDbSymbolTableRecord
100
AcDbBlockTableRecord
  2
_D_9
340
0
  0
BLOCK_RECORD
  5
1DD
330
1
100
AcDbSymbolTableRecord
100
AcDbBlockTableRecord
  2
_D_10
340
0
  0
BLOCK_RECORD
  5
1F1
330
1
100
AcDbSymbolTableRecord
100
AcDbBlockTableRecord
  2
_D_11
340
0
  0
BLOCK_RECORD
  5
200
330
1
100
AcDbSymbolTableRecord
100
AcDbBlockTableRecord
  2
_D_12
340
0
  0
BLOCK_RECORD
  5
213
330
1
100
AcDbSymbolTableRecord
100
AcDbBlockTableRecord
  2
_D_13
340
0
  0
BLOCK_RECORD
  5
222
330
1
100
AcDbSymbolTableRecord
100
AcDbBlockTableRecord
  2
_D_14
340
0
  0
BLOCK_RECORD
  5
231
330
1
100
AcDbSymbolTableRecord
100
AcDbBlockTableRecord
  2
_D_15
340
0
  0
BLOCK_RECORD
  5
240
330
1
100
AcDbSymbolTableRecord
100
AcDbBlockTableRecord
  2
SW_NOTE_0
340
0
102
{BLKREFS
331
245
102
}
  0
BLOCK_RECORD
  5
248
330
1
100
AcDbSymbolTableRecord
100
AcDbBlockTableRecord
  2
SW_NOTE_1
340
0
102
{BLKREFS
331
24D
102
}
  0
ENDTAB
  0
ENDSEC
  0
SECTION
  2
BLOCKS
  0
BLOCK
  5
20
330
1F
100
AcDbEntity
  8
0
100
AcDbBlockBegin
  2
*Model_Space
 70
     0
 10
0.0
 20
0.0
 30
0.0
  3
*Model_Space
  1

  0
ENDBLK
  5
21
330
1F
100
AcDbEntity
  8
0
100
AcDbBlockEnd
  0
BLOCK
  5
1C
330
1B
100
AcDbEntity
 67
     1
  8
0
100
AcDbBlockBegin
  2
*Paper_Space
 70
     0
 10
0.0
 20
0.0
 30
0.0
  3
*Paper_Space
  1

  0
ENDBLK
  5
1D
330
1B
100
AcDbEntity
 67
     1
  8
0
100
AcDbBlockEnd
  0
BLOCK
  5
24
330
23
100
AcDbEntity
  8
0
100
AcDbBlockBegin
  2
*Paper_Space0
 70
     0
 10
0.0
 20
0.0
 30
0.0
  3
*Paper_Space0
  1

  0
ENDBLK
  5
25
330
23
100
AcDbEntity
  8
0
100
AcDbBlockEnd
  0
BLOCK
  5
11C
330
11B
100
AcDbEntity
  8
0
100
AcDbBlockBegin
  2
_D
 70
     0
 10
0.0
 20
0.0
 30
0.0
  3
_D
  1

  0
SOLID
  5
11E
330
11B
100
AcDbEntity
  8
1
100
AcDbTrace
 10
4.9899136185
 20
1.9450720562
 30
0.0
 11
5.3649136185
 21
1.8873797485
 31
0.0
 12
5.3649136185
 22
2.0027643639
 32
0.0
 13
5.3649136185
 23
2.0027643639
 33
0.0
  0
SOLID
  5
11F
330
11B
100
AcDbEntity
  8
1
100
AcDbTrace
 10
34.7226485859
 20
1.9450720562
 30
0.0
 11
34.3476485859
 21
2.0027643639
 31
0.0
 12
34.3476485859
 22
1.8873797485
 32
0.0
 13
34.3476485859
 23
1.8873797485
 33
0.0
  0
LINE
  5
120
330
11B
100
AcDbEntity
  8
1
100
AcDbLine
 10
19.2427466124
 20
2.3576762058
 30
0.0
 11
19.6302466159
 21
2.3576762058
 31
0.0
  0
LINE
  5
121
330
11B
100
AcDbEntity
  8
1
100
AcDbLine
 10
18.5320695859
 20
1.7374678611
 30
0.0
 11
18.4560279181
 21
1.7374678611
 31
0.0
  0
LINE
  5
122
330
11B
100
AcDbEntity
  8
1
100
AcDbLine
 10
18.4560279181
 20
1.7374678611
 30
0.0
 11
18.4560279181
 21
1.1416345175
 31
0.0
  0
LINE
  5
123
330
11B
100
AcDbEntity
  8
1
100
AcDbLine
 10
18.4560279181
 20
1.1416345175
 30
0.0
 11
18.5320695859
 21
1.1416345175
 31
0.0
  0
LINE
  5
124
330
11B
100
AcDbEntity
  8
1
100
AcDbLine
 10
20.2457847881
 20
1.7374678611
 30
0.0
 11
20.3218264559
 21
1.7374678611
 31
0.0
  0
LINE
  5
125
330
11B
100
AcDbEntity
  8
1
100
AcDbLine
 10
20.3218264559
 20
1.7374678611
 30
0.0
 11
20.3218264559
 21
1.1416345175
 31
0.0
  0
LINE
  5
126
330
11B
100
AcDbEntity
  8
1
100
AcDbLine
 10
20.3218264559
 20
1.1416345175
 30
0.0
 11
20.2457847881
 21
1.1416345175
 31
0.0
  0
LINE
  5
127
330
11B
100
AcDbEntity
  8
1
100
AcDbLine
 10
4.9899136185
 20
9.2261511018
 30
0.0
 11
4.9899136185
 21
1.8200720562
 31
0.0
  0
LINE
  5
128
330
11B
100
AcDbEntity
  8
1
100
AcDbLine
 10
34.7226485859
 20
9.22983685
 30
0.0
 11
34.7226485859
 21
1.8200720562
 31
0.0
  0
LINE
  5
129
330
11B
100
AcDbEntity
  8
1
100
AcDbLine
 10
4.9899136185
 20
1.9450720562
 30
0.0
 11
18.3228977146
 21
1.9450720562
 31
0.0
  0
LINE
  5
12A
330
11B
100
AcDbEntity
  8
1
100
AcDbLine
 10
34.7226485859
 20
1.9450720562
 30
0.0
 11
20.4549565861
 21
1.9450720562
 31
0.0
  0
MTEXT
  5
12B
330
11B
100
AcDbEntity
  8
1
100
AcDbMText
 10
18.6333716186
 20
2.565036376
 30
0.0039370079
 40
0.375
 41
0.0
 71
     1
 72
     1
  1
29
  7
SLDTEXTSTYLE0
 73
     1
 44
1.0
  0
MTEXT
  5
12C
330
11B
100
AcDbEntity
  8
1
100
AcDbMText
 10
19.2979549471
 20
2.8079515931
 30
0.0039370079
 40
0.375
 41
0.0
 71
     1
 72
     1
  1
3
  7
SLDTEXTSTYLE0
 73
     1
 44
1.0
  0
MTEXT
  5
12D
330
11B
100
AcDbEntity
  8
1
100
AcDbMText
 10
19.2979549471
 20
2.2969099336
 30
0.0039370079
 40
0.375
 41
0.0
 71
     1
 72
     1
  1
4
  7
SLDTEXTSTYLE0
 73
     1
 44
1.0
  0
MTEXT
  5
12E
330
11B
100
AcDbEntity
  8
1
100
AcDbMText
 10
19.6854549048
 20
2.565036376
 30
0.0039370079
 40
0.375
 41
0.0
 71
     1
 72
     1
  1
"
  7
SLDTEXTSTYLE0
 73
     1
 44
1.0
  0
MTEXT
  5
12F
330
11B
100
AcDbEntity
  8
1
100
AcDbMText
 10
18.6271216741
 20
1.6250349383
 30
0.0039370079
 40
0.375
 41
0.0
 71
     1
 72
     1
  1
755.21
  7
SLDTEXTSTYLE0
 73
     1
 44
1.0
  0
ENDBLK
  5
11D
330
11B
100
AcDbEntity
  8
0
100
AcDbBlockEnd
  0
BLOCK
  5
133
330
132
100
AcDbEntity
  8
0
100
AcDbBlockBegin
  2
_D_1
 70
     0
 10
0.0
 20
0.0
 30
0.0
  3
_D_1
  1

  0
SOLID
  5
135
330
132
100
AcDbEntity
  8
1
100
AcDbTrace
 10
38.3811373072
 20
24.1802345862
 30
0.0
 11
38.3234449995
 21
23.8052345862
 31
0.0
 12
38.4388296149
 22
23.8052345862
 32
0.0
 13
38.4388296149
 23
23.8052345862
 33
0.0
  0
SOLID
  5
136
330
132
100
AcDbEntity
  8
1
100
AcDbTrace
 10
38.3811373072
 20
5.8589286768
 30
0.0
 11
38.4388296149
 21
6.2339286768
 31
0.0
 12
38.3234449995
 22
6.2339286768
 32
0.0
 13
38.3234449995
 23
6.2339286768
 33
0.0
  0
LINE
  5
137
330
132
100
AcDbEntity
  8
1
100
AcDbLine
 10
38.2349567692
 20
15.5614035923
 30
0.0
 11
38.6224567728
 21
15.5614035923
 31
0.0
  0
LINE
  5
138
330
132
100
AcDbEntity
  8
1
100
AcDbLine
 10
37.5242797428
 20
14.9411952476
 30
0.0
 11
37.4482380749
 21
14.9411952476
 31
0.0
  0
LINE
  5
139
330
132
100
AcDbEntity
  8
1
100
AcDbLine
 10
37.4482380749
 20
14.9411952476
 30
0.0
 11
37.4482380749
 21
14.3453619041
 31
0.0
  0
LINE
  5
13A
330
132
100
AcDbEntity
  8
1
100
AcDbLine
 10
37.4482380749
 20
14.3453619041
 30
0.0
 11
37.5242797428
 21
14.3453619041
 31
0.0
  0
LINE
  5
13B
330
132
100
AcDbEntity
  8
1
100
AcDbLine
 10
39.2379949449
 20
14.9411952476
 30
0.0
 11
39.3140366127
 21
14.9411952476
 31
0.0
  0
LINE
  5
13C
330
132
100
AcDbEntity
  8
1
100
AcDbLine
 10
39.3140366127
 20
14.9411952476
 30
0.0
 11
39.3140366127
 21
14.3453619041
 31
0.0
  0
LINE
  5
13D
330
132
100
AcDbEntity
  8
1
100
AcDbLine
 10
39.3140366127
 20
14.3453619041
 30
0.0
 11
39.2379949449
 21
14.3453619041
 31
0.0
  0
LINE
  5
13E
330
132
100
AcDbEntity
  8
1
100
AcDbLine
 10
28.4834276117
 20
24.1802345862
 30
0.0
 11
38.5061373072
 21
24.1802345862
 31
0.0
  0
LINE
  5
13F
330
132
100
AcDbEntity
  8
1
100
AcDbLine
 10
31.1953049806
 20
5.8589286768
 30
0.0
 11
38.5061373072
 21
5.8589286768
 31
0.0
  0
LINE
  5
140
330
132
100
AcDbEntity
  8
1
100
AcDbLine
 10
38.3811373072
 20
24.1802345862
 30
0.0
 11
38.3811373072
 21
16.0282785895
 31
0.0
  0
LINE
  5
141
330
132
100
AcDbEntity
  8
1
100
AcDbLine
 10
38.3811373072
 20
5.8589286768
 30
0.0
 11
38.3811373072
 21
14.2693202958
 31
0.0
  0
MTEXT
  5
142
330
132
100
AcDbEntity
  8
1
100
AcDbMText
 10
37.6255817754
 20
15.7687637625
 30
0.0039370079
 40
0.375
 41
0.0
 71
     1
 72
     1
  1
18
  7
SLDTEXTSTYLE0
 73
     1
 44
1.0
  0
MTEXT
  5
143
330
132
100
AcDbEntity
  8
1
100
AcDbMText
 10
38.2901651039
 20
16.0116789797
 30
0.0039370079
 40
0.375
 41
0.0
 71
     1
 72
     1
  1
1
  7
SLDTEXTSTYLE0
 73
     1
 44
1.0
  0
MTEXT
  5
144
330
132
100
AcDbEntity
  8
1
100
AcDbMText
 10
38.2901651039
 20
15.5006373201
 30
0.0039370079
 40
0.375
 41
0.0
 71
     1
 72
     1
  1
2
  7
SLDTEXTSTYLE0
 73
     1
 44
1.0
  0
MTEXT
  5
145
330
132
100
AcDbEntity
  8
1
100
AcDbMText
 10
38.6776650617
 20
15.7687637625
 30
0.0039370079
 40
0.375
 41
0.0
 71
     1
 72
     1
  1
"
  7
SLDTEXTSTYLE0
 73
     1
 44
1.0
  0
MTEXT
  5
146
330
132
100
AcDbEntity
  8
1
100
AcDbMText
 10
37.619331831
 20
14.8287623248
 30
0.0039370079
 40
0.375
 41
0.0
 71
     1
 72
     1
  1
465.36
  7
SLDTEXTSTYLE0
 73
     1
 44
1.0
  0
ENDBLK
  5
134
330
132
100
AcDbEntity
  8
0
100
AcDbBlockEnd
  0
BLOCK
  5
149
330
148
100
AcDbEntity
  8
0
100
AcDbBlockBegin
  2
_D_2
 70
     0
 10
0.0
 20
0.0
 30
0.0
  3
_D_2
  1

  0
SOLID
  5
14B
330
148
100
AcDbEntity
  8
1
100
AcDbTrace
 10
2.9109996068
 20
21.6993101024
 30
0.0
 11
2.8533072991
 21
21.3243101024
 31
0.0
 12
2.9686919145
 22
21.3243101024
 32
0.0
 13
2.9686919145
 23
21.3243101024
 33
0.0
  0
SOLID
  5
14C
330
148
100
AcDbEntity
  8
1
100
AcDbTrace
 10
2.9109996068
 20
5.8589286768
 30
0.0
 11
2.9686919145
 21
6.2339286768
 31
0.0
 12
2.8533072991
 22
6.2339286768
 32
0.0
 13
2.8533072991
 23
6.2339286768
 33
0.0
  0
LINE
  5
14D
330
148
100
AcDbEntity
  8
1
100
AcDbLine
 10
2.0541420424
 20
13.4850446748
 30
0.0
 11
1.9781003746
 21
13.4850446748
 31
0.0
  0
LINE
  5
14E
330
148
100
AcDbEntity
  8
1
100
AcDbLine
 10
1.9781003746
 20
13.4850446748
 30
0.0
 11
1.9781003746
 21
12.8892113312
 31
0.0
  0
LINE
  5
14F
330
148
100
AcDbEntity
  8
1
100
AcDbLine
 10
1.9781003746
 20
12.8892113312
 30
0.0
 11
2.0541420424
 21
12.8892113312
 31
0.0
  0
LINE
  5
150
330
148
100
AcDbEntity
  8
1
100
AcDbLine
 10
3.7678572446
 20
13.4850446748
 30
0.0
 11
3.8438989124
 21
13.4850446748
 31
0.0
  0
LINE
  5
151
330
148
100
AcDbEntity
  8
1
100
AcDbLine
 10
3.8438989124
 20
13.4850446748
 30
0.0
 11
3.8438989124
 21
12.8892113312
 31
0.0
  0
LINE
  5
152
330
148
100
AcDbEntity
  8
1
100
AcDbLine
 10
3.8438989124
 20
12.8892113312
 30
0.0
 11
3.7678572446
 21
12.8892113312
 31
0.0
  0
LINE
  5
153
330
148
100
AcDbEntity
  8
1
100
AcDbLine
 10
10.4398400136
 20
21.6993101024
 30
0.0
 11
2.7859996068
 21
21.6993101024
 31
0.0
  0
LINE
  5
154
330
148
100
AcDbEntity
  8
1
100
AcDbLine
 10
8.3777995924
 20
5.8589286768
 30
0.0
 11
2.7859996068
 21
5.8589286768
 31
0.0
  0
LINE
  5
155
330
148
100
AcDbEntity
  8
1
100
AcDbLine
 10
2.9109996068
 20
21.6993101024
 30
0.0
 11
2.9109996068
 21
14.0610863136
 31
0.0
  0
LINE
  5
156
330
148
100
AcDbEntity
  8
1
100
AcDbLine
 10
2.9109996068
 20
5.8589286768
 30
0.0
 11
2.9109996068
 21
12.8131696497
 31
0.0
  0
MTEXT
  5
157
330
148
100
AcDbEntity
  8
1
100
AcDbMText
 10
2.4044024024
 20
14.0444867404
 30
0.0039370079
 40
0.375
 41
0.0
 71
     1
 72
     1
  1
16"
  7
SLDTEXTSTYLE0
 73
     1
 44
1.0
  0
MTEXT
  5
158
330
148
100
AcDbEntity
  8
1
100
AcDbMText
 10
2.1491941306
 20
13.372611752
 30
0.0039370079
 40
0.375
 41
0.0
 71
     1
 72
     1
  1
402.35
  7
SLDTEXTSTYLE0
 73
     1
 44
1.0
  0
ENDBLK
  5
14A
330
148
100
AcDbEntity
  8
0
100
AcDbBlockEnd
  0
BLOCK
  5
15C
330
15B
100
AcDbEntity
  8
0
100
AcDbBlockBegin
  2
_D_3
 70
     0
 10
0.0
 20
0.0
 30
0.0
  3
_D_3
  1

  0
SOLID
  5
15E
330
15B
100
AcDbEntity
  8
1
100
AcDbTrace
 10
5.9645093979
 20
6.9340979377
 30
0.0
 11
5.6540729866
 21
6.7159634908
 31
0.0
 12
5.7339948509
 22
6.6327402664
 32
0.0
 13
5.7339948509
 23
6.6327402664
 33
0.0
  0
LINE
  5
15F
330
15B
100
AcDbEntity
  8
1
100
AcDbLine
 10
1.7934625536
 20
4.4318885231
 30
0.0
 11
2.1809625572
 21
4.4318885231
 31
0.0
  0
LINE
  5
160
330
15B
100
AcDbEntity
  8
1
100
AcDbLine
 10
1.2081327825
 20
3.8116801784
 30
0.0
 11
1.1320911147
 21
3.8116801784
 31
0.0
  0
LINE
  5
161
330
15B
100
AcDbEntity
  8
1
100
AcDbLine
 10
1.1320911147
 20
3.8116801784
 30
0.0
 11
1.1320911147
 21
3.2158468349
 31
0.0
  0
LINE
  5
162
330
15B
100
AcDbEntity
  8
1
100
AcDbLine
 10
1.1320911147
 20
3.2158468349
 30
0.0
 11
1.2081327825
 21
3.2158468349
 31
0.0
  0
LINE
  5
163
330
15B
100
AcDbEntity
  8
1
100
AcDbLine
 10
2.6447647055
 20
3.8116801784
 30
0.0
 11
2.7208063734
 21
3.8116801784
 31
0.0
  0
LINE
  5
164
330
15B
100
AcDbEntity
  8
1
100
AcDbLine
 10
2.7208063734
 20
3.8116801784
 30
0.0
 11
2.7208063734
 21
3.2158468349
 31
0.0
  0
LINE
  5
165
330
15B
100
AcDbEntity
  8
1
100
AcDbLine
 10
2.7208063734
 20
3.2158468349
 30
0.0
 11
2.6447647055
 21
3.2158468349
 31
0.0
  0
LINE
  5
166
330
15B
100
AcDbEntity
  8
1
100
AcDbLine
 10
5.9645093979
 20
6.9340979377
 30
0.0
 11
3.027837552
 21
4.1139201486
 31
0.0
  0
LINE
  5
167
330
15B
100
AcDbEntity
  8
1
100
AcDbLine
 10
3.027837552
 20
4.1139201486
 30
0.0
 11
2.777837552
 21
4.1139201486
 31
0.0
  0
MTEXT
  5
168
330
15B
100
AcDbEntity
  8
1
100
AcDbMText
 10
1.1576986813
 20
4.6392486933
 30
0.0039370079
 40
0.375
 41
0.0
 71
     1
 72
     1
  1
R3
  7
SLDTEXTSTYLE0
 73
     1
 44
1.0
  0
MTEXT
  5
169
330
15B
100
AcDbEntity
  8
1
100
AcDbMText
 10
1.8486708883
 20
4.8821639105
 30
0.0039370079
 40
0.375
 41
0.0
 71
     1
 72
     1
  1
1
  7
SLDTEXTSTYLE0
 73
     1
 44
1.0
  0
MTEXT
  5
16A
330
15B
100
AcDbEntity
  8
1
100
AcDbMText
 10
1.8486708883
 20
4.3711222509
 30
0.0039370079
 40
0.375
 41
0.0
 71
     1
 72
     1
  1
2
  7
SLDTEXTSTYLE0
 73
     1
 44
1.0
  0
MTEXT
  5
16B
330
15B
100
AcDbEntity
  8
1
100
AcDbMText
 10
2.2361708827
 20
4.6392486933
 30
0.0039370079
 40
0.375
 41
0.0
 71
     1
 72
     1
  1
"
  7
SLDTEXTSTYLE0
 73
     1
 44
1.0
  0
MTEXT
  5
16C
330
15B
100
AcDbEntity
  8
1
100
AcDbMText
 10
1.3031848707
 20
3.6992472556
 30
0.0039370079
 40
0.375
 41
0.0
 71
     1
 72
     1
  1
88.90
  7
SLDTEXTSTYLE0
 73
     1
 44
1.0
  0
ENDBLK
  5
15D
330
15B
100
AcDbEntity
  8
0
100
AcDbBlockEnd
  0
BLOCK
  5
16F
330
16E
100
AcDbEntity
  8
0
100
AcDbBlockBegin
  2
_D_4
 70
     0
 10
0.0
 20
0.0
 30
0.0
  3
_D_4
  1

  0
SOLID
  5
171
330
16E
100
AcDbEntity
  8
1
100
AcDbTrace
 10
33.2072909898
 20
21.2990165152
 30
0.0
 11
33.541295451
 21
21.4790010209
 31
0.0
 12
33.4717507691
 22
21.5710724425
 32
0.0
 13
33.4717507691
 23
21.5710724425
 33
0.0
  0
LINE
  5
172
330
16E
100
AcDbEntity
  8
1
100
AcDbLine
 10
35.7591135089
 20
22.7083506185
 30
0.0
 11
36.1466135125
 21
22.7083506185
 31
0.0
  0
LINE
  5
173
330
16E
100
AcDbEntity
  8
1
100
AcDbLine
 10
35.0352420982
 20
22.0881422738
 30
0.0
 11
34.9592004304
 21
22.0881422738
 31
0.0
  0
LINE
  5
174
330
16E
100
AcDbEntity
  8
1
100
AcDbLine
 10
34.9592004304
 20
22.0881422738
 30
0.0
 11
34.9592004304
 21
21.4923089303
 31
0.0
  0
LINE
  5
175
330
16E
100
AcDbEntity
  8
1
100
AcDbLine
 10
34.9592004304
 20
21.4923089303
 30
0.0
 11
35.0352420982
 21
21.4923089303
 31
0.0
  0
LINE
  5
176
330
16E
100
AcDbEntity
  8
1
100
AcDbLine
 10
36.7489573004
 20
22.0881422738
 30
0.0
 11
36.8249989682
 21
22.0881422738
 31
0.0
  0
LINE
  5
177
330
16E
100
AcDbEntity
  8
1
100
AcDbLine
 10
36.8249989682
 20
22.0881422738
 30
0.0
 11
36.8249989682
 21
21.4923089303
 31
0.0
  0
LINE
  5
178
330
16E
100
AcDbEntity
  8
1
100
AcDbLine
 10
36.8249989682
 20
21.4923089303
 30
0.0
 11
36.7489573004
 21
21.4923089303
 31
0.0
  0
LINE
  5
179
330
16E
100
AcDbEntity
  8
1
100
AcDbLine
 10
33.2072909898
 20
21.2990165152
 30
0.0
 11
34.6521691784
 21
22.390382244
 31
0.0
  0
LINE
  5
17A
330
16E
100
AcDbEntity
  8
1
100
AcDbLine
 10
34.6521691784
 20
22.390382244
 30
0.0
 11
34.9021691784
 21
22.390382244
 31
0.0
  0
MTEXT
  5
17B
330
16E
100
AcDbEntity
  8
1
100
AcDbMText
 10
35.1233496367
 20
22.9157107887
 30
0.0039370079
 40
0.375
 41
0.0
 71
     1
 72
     1
  1
R7
  7
SLDTEXTSTYLE0
 73
     1
 44
1.0
  0
MTEXT
  5
17C
330
16E
100
AcDbEntity
  8
1
100
AcDbMText
 10
35.8143218437
 20
23.1586260059
 30
0.0039370079
 40
0.375
 41
0.0
 71
     1
 72
     1
  1
1
  7
SLDTEXTSTYLE0
 73
     1
 44
1.0
  0
MTEXT
  5
17D
330
16E
100
AcDbEntity
  8
1
100
AcDbMText
 10
35.8143218437
 20
22.6475843463
 30
0.0039370079
 40
0.375
 41
0.0
 71
     1
 72
     1
  1
2
  7
SLDTEXTSTYLE0
 73
     1
 44
1.0
  0
MTEXT
  5
17E
330
16E
100
AcDbEntity
  8
1
100
AcDbMText
 10
36.2018218381
 20
22.9157107887
 30
0.0039370079
 40
0.375
 41
0.0
 71
     1
 72
     1
  1
"
  7
SLDTEXTSTYLE0
 73
     1
 44
1.0
  0
MTEXT
  5
17F
330
16E
100
AcDbEntity
  8
1
100
AcDbMText
 10
35.1302941864
 20
21.975709351
 30
0.0039370079
 40
0.375
 41
0.0
 71
     1
 72
     1
  1
190.50
  7
SLDTEXTSTYLE0
 73
     1
 44
1.0
  0
ENDBLK
  5
170
330
16E
100
AcDbEntity
  8
0
100
AcDbBlockEnd
  0
BLOCK
  5
183
330
182
100
AcDbEntity
  8
0
100
AcDbBlockBegin
  2
_D_5
 70
     0
 10
0.0
 20
0.0
 30
0.0
  3
_D_5
  1

  0
SOLID
  5
185
330
182
100
AcDbEntity
  8
1
100
AcDbTrace
 10
22.1265559918
 20
23.6075880426
 30
0.0
 11
22.0199324963
 21
23.9717100449
 31
0.0
 12
21.9154159867
 22
23.9228233526
 32
0.0
 13
21.9154159867
 23
23.9228233526
 33
0.0
  0
LINE
  5
186
330
182
100
AcDbEntity
  8
1
100
AcDbLine
 10
19.4149889861
 20
26.9767737678
 30
0.0
 11
19.8024889896
 21
26.9767737678
 31
0.0
  0
LINE
  5
187
330
182
100
AcDbEntity
  8
1
100
AcDbLine
 10
18.6911175754
 20
26.3565654231
 30
0.0
 11
18.6150759076
 21
26.3565654231
 31
0.0
  0
LINE
  5
188
330
182
100
AcDbEntity
  8
1
100
AcDbLine
 10
18.6150759076
 20
26.3565654231
 30
0.0
 11
18.6150759076
 21
25.7607320796
 31
0.0
  0
LINE
  5
189
330
182
100
AcDbEntity
  8
1
100
AcDbLine
 10
18.6150759076
 20
25.7607320796
 30
0.0
 11
18.6911175754
 21
25.7607320796
 31
0.0
  0
LINE
  5
18A
330
182
100
AcDbEntity
  8
1
100
AcDbLine
 10
20.4048327776
 20
26.3565654231
 30
0.0
 11
20.4808744454
 21
26.3565654231
 31
0.0
  0
LINE
  5
18B
330
182
100
AcDbEntity
  8
1
100
AcDbLine
 10
20.4808744454
 20
26.3565654231
 30
0.0
 11
20.4808744454
 21
25.7607320796
 31
0.0
  0
LINE
  5
18C
330
182
100
AcDbEntity
  8
1
100
AcDbLine
 10
20.4808744454
 20
25.7607320796
 30
0.0
 11
20.4048327776
 21
25.7607320796
 31
0.0
  0
LINE
  5
18D
330
182
100
AcDbEntity
  8
1
100
AcDbLine
 10
22.1265559918
 20
23.6075880426
 30
0.0
 11
20.787905624
 21
26.4695338431
 31
0.0
  0
LINE
  5
18E
330
182
100
AcDbEntity
  8
1
100
AcDbLine
 10
20.787905624
 20
26.4695338431
 30
0.0
 11
20.537905624
 21
26.4695338431
 31
0.0
  0
MTEXT
  5
18F
330
182
100
AcDbEntity
  8
1
100
AcDbMText
 10
18.7792251138
 20
27.184133938
 30
0.0039370079
 40
0.375
 41
0.0
 71
     1
 72
     1
  1
R7
  7
SLDTEXTSTYLE0
 73
     1
 44
1.0
  0
MTEXT
  5
190
330
182
100
AcDbEntity
  8
1
100
AcDbMText
 10
19.4701973208
 20
27.4270491551
 30
0.0039370079
 40
0.375
 41
0.0
 71
     1
 72
     1
  1
1
  7
SLDTEXTSTYLE0
 73
     1
 44
1.0
  0
MTEXT
  5
191
330
182
100
AcDbEntity
  8
1
100
AcDbMText
 10
19.4701973208
 20
26.9160074956
 30
0.0039370079
 40
0.375
 41
0.0
 71
     1
 72
     1
  1
2
  7
SLDTEXTSTYLE0
 73
     1
 44
1.0
  0
MTEXT
  5
192
330
182
100
AcDbEntity
  8
1
100
AcDbMText
 10
19.8576973152
 20
27.184133938
 30
0.0039370079
 40
0.375
 41
0.0
 71
     1
 72
     1
  1
"
  7
SLDTEXTSTYLE0
 73
     1
 44
1.0
  0
MTEXT
  5
193
330
182
100
AcDbEntity
  8
1
100
AcDbMText
 10
18.7861696636
 20
26.2441325003
 30
0.0039370079
 40
0.375
 41
0.0
 71
     1
 72
     1
  1
190.50
  7
SLDTEXTSTYLE0
 73
     1
 44
1.0
  0
ENDBLK
  5
184
330
182
100
AcDbEntity
  8
0
100
AcDbBlockEnd
  0
BLOCK
  5
196
330
195
100
AcDbEntity
  8
0
100
AcDbBlockBegin
  2
_D_6
 70
     0
 10
0.0
 20
0.0
 30
0.0
  3
_D_6
  1

  0
SOLID
  5
198
330
195
100
AcDbEntity
  8
1
100
AcDbTrace
 10
20.0116865565
 20
22.187848017
 30
0.0
 11
19.8548711992
 21
22.5333365785
 31
0.0
 12
19.7582765036
 22
22.4702249769
 32
0.0
 13
19.7582765036
 23
22.4702249769
 33
0.0
  0
LINE
  5
199
330
195
100
AcDbEntity
  8
1
100
AcDbLine
 10
18.3769739524
 20
23.6383445225
 30
0.0
 11
18.3009322846
 21
23.6383445225
 31
0.0
  0
LINE
  5
19A
330
195
100
AcDbEntity
  8
1
100
AcDbLine
 10
18.3009322846
 20
23.6383445225
 30
0.0
 11
18.3009322846
 21
23.0425111789
 31
0.0
  0
LINE
  5
19B
330
195
100
AcDbEntity
  8
1
100
AcDbLine
 10
18.3009322846
 20
23.0425111789
 30
0.0
 11
18.3769739524
 21
23.0425111789
 31
0.0
  0
LINE
  5
19C
330
195
100
AcDbEntity
  8
1
100
AcDbLine
 10
19.8136058755
 20
23.6383445225
 30
0.0
 11
19.8896475433
 21
23.6383445225
 31
0.0
  0
LINE
  5
19D
330
195
100
AcDbEntity
  8
1
100
AcDbLine
 10
19.8896475433
 20
23.6383445225
 30
0.0
 11
19.8896475433
 21
23.0425111789
 31
0.0
  0
LINE
  5
19E
330
195
100
AcDbEntity
  8
1
100
AcDbLine
 10
19.8896475433
 20
23.0425111789
 30
0.0
 11
19.8136058755
 21
23.0425111789
 31
0.0
  0
LINE
  5
19F
330
195
100
AcDbEntity
  8
1
100
AcDbLine
 10
18.370784916
 20
24.6993101024
 30
0.0
 11
18.6876172883
 21
24.2143861613
 31
0.0
  0
LINE
  5
1A0
330
195
100
AcDbEntity
  8
1
100
AcDbLine
 10
20.0116865565
 20
22.187848017
 30
0.0
 11
19.5029624663
 21
22.9664694974
 31
0.0
  0
MTEXT
  5
1A1
330
195
100
AcDbEntity
  8
1
100
AcDbMText
 10
18.5754982153
 20
24.1977865881
 30
0.0039370079
 40
0.375
 41
0.0
 71
     1
 72
     1
  1
R3"
  7
SLDTEXTSTYLE0
 73
     1
 44
1.0
  0
MTEXT
  5
1A2
330
195
100
AcDbEntity
  8
1
100
AcDbMText
 10
18.4720260406
 20
23.5259115997
 30
0.0039370079
 40
0.375
 41
0.0
 71
     1
 72
     1
  1
76.20
  7
SLDTEXTSTYLE0
 73
     1
 44
1.0
  0
ENDBLK
  5
197
330
195
100
AcDbEntity
  8
0
100
AcDbBlockEnd
  0
BLOCK
  5
1A5
330
1A4
100
AcDbEntity
  8
0
100
AcDbBlockBegin
  2
_D_7
 70
     0
 10
0.0
 20
0.0
 30
0.0
  3
_D_7
  1

  0
SOLID
  5
1A7
330
1A4
100
AcDbEntity
  8
1
100
AcDbTrace
 10
7.6145780032
 20
20.8878992688
 30
0.0
 11
7.4677184169
 21
21.2377358939
 31
0.0
 12
7.3693564064
 22
21.1774157119
 32
0.0
 13
7.3693564064
 23
21.1774157119
 33
0.0
  0
LINE
  5
1A8
330
1A4
100
AcDbEntity
  8
1
100
AcDbLine
 10
4.0475653756
 20
24.783703211
 30
0.0
 11
4.4350653792
 21
24.783703211
 31
0.0
  0
LINE
  5
1A9
330
1A4
100
AcDbEntity
  8
1
100
AcDbLine
 10
3.3236939649
 20
24.1634948663
 30
0.0
 11
3.2476522971
 21
24.1634948663
 31
0.0
  0
LINE
  5
1AA
330
1A4
100
AcDbEntity
  8
1
100
AcDbLine
 10
3.2476522971
 20
24.1634948663
 30
0.0
 11
3.2476522971
 21
23.5676615228
 31
0.0
  0
LINE
  5
1AB
330
1A4
100
AcDbEntity
  8
1
100
AcDbLine
 10
3.2476522971
 20
23.5676615228
 30
0.0
 11
3.3236939649
 21
23.5676615228
 31
0.0
  0
LINE
  5
1AC
330
1A4
100
AcDbEntity
  8
1
100
AcDbLine
 10
5.0374091671
 20
24.1634948663
 30
0.0
 11
5.1134508349
 21
24.1634948663
 31
0.0
  0
LINE
  5
1AD
330
1A4
100
AcDbEntity
  8
1
100
AcDbLine
 10
5.1134508349
 20
24.1634948663
 30
0.0
 11
5.1134508349
 21
23.5676615228
 31
0.0
  0
LINE
  5
1AE
330
1A4
100
AcDbEntity
  8
1
100
AcDbLine
 10
5.1134508349
 20
23.5676615228
 30
0.0
 11
5.0374091671
 21
23.5676615228
 31
0.0
  0
LINE
  5
1AF
330
1A4
100
AcDbEntity
  8
1
100
AcDbLine
 10
7.6145780032
 20
20.8878992688
 30
0.0
 11
5.4204820136
 21
24.4657348365
 31
0.0
  0
LINE
  5
1B0
330
1A4
100
AcDbEntity
  8
1
100
AcDbLine
 10
5.4204820136
 20
24.4657348365
 30
0.0
 11
5.1704820136
 21
24.4657348365
 31
0.0
  0
MTEXT
  5
1B1
330
1A4
100
AcDbEntity
  8
1
100
AcDbMText
 10
3.4118015034
 20
24.9910633812
 30
0.0039370079
 40
0.375
 41
0.0
 71
     1
 72
     1
  1
R5
  7
SLDTEXTSTYLE0
 73
     1
 44
1.0
  0
MTEXT
  5
1B2
330
1A4
100
AcDbEntity
  8
1
100
AcDbMText
 10
4.1027737104
 20
25.2339785984
 30
0.0039370079
 40
0.375
 41
0.0
 71
     1
 72
     1
  1
1
  7
SLDTEXTSTYLE0
 73
     1
 44
1.0
  0
MTEXT
  5
1B3
330
1A4
100
AcDbEntity
  8
1
100
AcDbMText
 10
4.1027737104
 20
24.7229369388
 30
0.0039370079
 40
0.375
 41
0.0
 71
     1
 72
     1
  1
2
  7
SLDTEXTSTYLE0
 73
     1
 44
1.0
  0
MTEXT
  5
1B4
330
1A4
100
AcDbEntity
  8
1
100
AcDbMText
 10
4.4902737048
 20
24.9910633812
 30
0.0039370079
 40
0.375
 41
0.0
 71
     1
 72
     1
  1
"
  7
SLDTEXTSTYLE0
 73
     1
 44
1.0
  0
MTEXT
  5
1B5
330
1A4
100
AcDbEntity
  8
1
100
AcDbMText
 10
3.4187460531
 20
24.0510619435
 30
0.0039370079
 40
0.375
 41
0.0
 71
     1
 72
     1
  1
139.70
  7
SLDTEXTSTYLE0
 73
     1
 44
1.0
  0
ENDBLK
  5
1A6
330
1A4
100
AcDbEntity
  8
0
100
AcDbBlockEnd
  0
BLOCK
  5
1B8
330
1B7
100
AcDbEntity
  8
0
100
AcDbBlockBegin
  2
_D_8
 70
     0
 10
0.0
 20
0.0
 30
0.0
  3
_D_8
  1

  0
SOLID
  5
1BA
330
1B7
100
AcDbEntity
  8
1
100
AcDbTrace
 10
28.3072164948
 20
23.576706113
 30
0.0
 11
28.2495241871
 21
23.201706113
 31
0.0
 12
28.3649088025
 22
23.201706113
 32
0.0
 13
28.3649088025
 23
23.201706113
 33
0.0
  0
SOLID
  5
1BB
330
1B7
100
AcDbEntity
  8
1
100
AcDbTrace
 10
28.3072164948
 20
6.4703312143
 30
0.0
 11
28.3649088025
 21
6.8453312143
 31
0.0
 12
28.2495241871
 22
6.8453312143
 32
0.0
 13
28.2495241871
 23
6.8453312143
 33
0.0
  0
LINE
  5
1BC
330
1B7
100
AcDbEntity
  8
1
100
AcDbLine
 10
27.4503589304
 20
13.4850446748
 30
0.0
 11
27.3743172626
 21
13.4850446748
 31
0.0
  0
LINE
  5
1BD
330
1B7
100
AcDbEntity
  8
1
100
AcDbLine
 10
27.3743172626
 20
13.4850446748
 30
0.0
 11
27.3743172626
 21
12.8892113312
 31
0.0
  0
LINE
  5
1BE
330
1B7
100
AcDbEntity
  8
1
100
AcDbLine
 10
27.3743172626
 20
12.8892113312
 30
0.0
 11
27.4503589304
 21
12.8892113312
 31
0.0
  0
LINE
  5
1BF
330
1B7
100
AcDbEntity
  8
1
100
AcDbLine
 10
29.1640741326
 20
13.4850446748
 30
0.0
 11
29.2401158004
 21
13.4850446748
 31
0.0
  0
LINE
  5
1C0
330
1B7
100
AcDbEntity
  8
1
100
AcDbLine
 10
29.2401158004
 20
13.4850446748
 30
0.0
 11
29.2401158004
 21
12.8892113312
 31
0.0
  0
LINE
  5
1C1
330
1B7
100
AcDbEntity
  8
1
100
AcDbLine
 10
29.2401158004
 20
12.8892113312
 30
0.0
 11
29.1640741326
 21
12.8892113312
 31
0.0
  0
LINE
  5
1C2
330
1B7
100
AcDbEntity
  8
1
100
AcDbLine
 10
28.2856148761
 20
23.576706113
 30
0.0
 11
28.1822164948
 21
23.576706113
 31
0.0
  0
LINE
  5
1C3
330
1B7
100
AcDbEntity
  8
1
100
AcDbLine
 10
28.3072164948
 20
23.576706113
 30
0.0
 11
28.3072164948
 21
14.0610863136
 31
0.0
  0
LINE
  5
1C4
330
1B7
100
AcDbEntity
  8
1
100
AcDbLine
 10
28.3072164948
 20
6.4703312143
 30
0.0
 11
28.3072164948
 21
12.8131696497
 31
0.0
  0
MTEXT
  5
1C5
330
1B7
100
AcDbEntity
  8
1
100
AcDbMText
 10
27.8006192904
 20
14.0444867404
 30
0.0039370079
 40
0.375
 41
0.0
 71
     1
 72
     1
  1
17"
  7
SLDTEXTSTYLE0
 73
     1
 44
1.0
  0
MTEXT
  5
1C6
330
1B7
100
AcDbEntity
  8
1
100
AcDbMText
 10
27.5454110186
 20
13.372611752
 30
0.0039370079
 40
0.375
 41
0.0
 71
     1
 72
     1
  1
434.50
  7
SLDTEXTSTYLE0
 73
     1
 44
1.0
  0
ENDBLK
  5
1B9
330
1B7
100
AcDbEntity
  8
0
100
AcDbBlockEnd
  0
BLOCK
  5
1C9
330
1C8
100
AcDbEntity
  8
0
100
AcDbBlockBegin
  2
_D_9
 70
     0
 10
0.0
 20
0.0
 30
0.0
  3
_D_9
  1

  0
SOLID
  5
1CB
330
1C8
100
AcDbEntity
  8
1
100
AcDbTrace
 10
10.0453608247
 20
21.0879075649
 30
0.0
 11
9.987668517
 21
20.7129075649
 31
0.0
 12
10.1030531324
 22
20.7129075649
 32
0.0
 13
10.1030531324
 23
20.7129075649
 33
0.0
  0
SOLID
  5
1CC
330
1C8
100
AcDbEntity
  8
1
100
AcDbTrace
 10
10.0453608247
 20
6.4703312143
 30
0.0
 11
10.1030531324
 21
6.8453312143
 31
0.0
 12
9.987668517
 22
6.8453312143
 32
0.0
 13
9.987668517
 23
6.8453312143
 33
0.0
  0
LINE
  5
1CD
330
1C8
100
AcDbEntity
  8
1
100
AcDbLine
 10
9.8991802868
 20
14.9394082733
 30
0.0
 11
10.2866802903
 21
14.9394082733
 31
0.0
  0
LINE
  5
1CE
330
1C8
100
AcDbEntity
  8
1
100
AcDbLine
 10
9.1885032603
 20
14.3191999286
 30
0.0
 11
9.1124615925
 21
14.3191999286
 31
0.0
  0
LINE
  5
1CF
330
1C8
100
AcDbEntity
  8
1
100
AcDbLine
 10
9.1124615925
 20
14.3191999286
 30
0.0
 11
9.1124615925
 21
13.7233665851
 31
0.0
  0
LINE
  5
1D0
330
1C8
100
AcDbEntity
  8
1
100
AcDbLine
 10
9.1124615925
 20
13.7233665851
 30
0.0
 11
9.1885032603
 21
13.7233665851
 31
0.0
  0
LINE
  5
1D1
330
1C8
100
AcDbEntity
  8
1
100
AcDbLine
 10
10.9022184625
 20
14.3191999286
 30
0.0
 11
10.9782601303
 21
14.3191999286
 31
0.0
  0
LINE
  5
1D2
330
1C8
100
AcDbEntity
  8
1
100
AcDbLine
 10
10.9782601303
 20
14.3191999286
 30
0.0
 11
10.9782601303
 21
13.7233665851
 31
0.0
  0
LINE
  5
1D3
330
1C8
100
AcDbEntity
  8
1
100
AcDbLine
 10
10.9782601303
 20
13.7233665851
 30
0.0
 11
10.9022184625
 21
13.7233665851
 31
0.0
  0
LINE
  5
1D4
330
1C8
100
AcDbEntity
  8
1
100
AcDbLine
 10
10.4398400136
 20
21.0879075649
 30
0.0
 11
9.9203608247
 21
21.0879075649
 31
0.0
  0
LINE
  5
1D5
330
1C8
100
AcDbEntity
  8
1
100
AcDbLine
 10
10.0453608247
 20
21.0879075649
 30
0.0
 11
10.0453608247
 21
15.4062832706
 31
0.0
  0
LINE
  5
1D6
330
1C8
100
AcDbEntity
  8
1
100
AcDbLine
 10
10.0453608247
 20
6.4703312143
 30
0.0
 11
10.0453608247
 21
13.6473249769
 31
0.0
  0
MTEXT
  5
1D7
330
1C8
100
AcDbEntity
  8
1
100
AcDbMText
 10
9.289805293
 20
15.1467684435
 30
0.0039370079
 40
0.375
 41
0.0
 71
     1
 72
     1
  1
14
  7
SLDTEXTSTYLE0
 73
     1
 44
1.0
  0
MTEXT
  5
1D8
330
1C8
100
AcDbEntity
  8
1
100
AcDbMText
 10
9.9543886215
 20
15.3896836607
 30
0.0039370079
 40
0.375
 41
0.0
 71
     1
 72
     1
  1
1
  7
SLDTEXTSTYLE0
 73
     1
 44
1.0
  0
MTEXT
  5
1D9
330
1C8
100
AcDbEntity
  8
1
100
AcDbMText
 10
9.9543886215
 20
14.8786420012
 30
0.0039370079
 40
0.375
 41
0.0
 71
     1
 72
     1
  1
2
  7
SLDTEXTSTYLE0
 73
     1
 44
1.0
  0
MTEXT
  5
1DA
330
1C8
100
AcDbEntity
  8
1
100
AcDbMText
 10
10.3418885792
 20
15.1467684435
 30
0.0039370079
 40
0.375
 41
0.0
 71
     1
 72
     1
  1
"
  7
SLDTEXTSTYLE0
 73
     1
 44
1.0
  0
MTEXT
  5
1DB
330
1C8
100
AcDbEntity
  8
1
100
AcDbMText
 10
9.2835553485
 20
14.2067670058
 30
0.0039370079
 40
0.375
 41
0.0
 71
     1
 72
     1
  1
371.29
  7
SLDTEXTSTYLE0
 73
     1
 44
1.0
  0
ENDBLK
  5
1CA
330
1C8
100
AcDbEntity
  8
0
100
AcDbBlockEnd
  0
BLOCK
  5
1DE
330
1DD
100
AcDbEntity
  8
0
100
AcDbBlockBegin
  2
_D_10
 70
     0
 10
0.0
 20
0.0
 30
0.0
  3
_D_10
  1

  0
SOLID
  5
1E0
330
1DD
100
AcDbEntity
  8
1
100
AcDbTrace
 10
5.6013161561
 20
9.7427863949
 30
0.0
 11
5.9763161561
 21
9.6850940872
 31
0.0
 12
5.9763161561
 22
9.8004787026
 32
0.0
 13
5.9763161561
 23
9.8004787026
 33
0.0
  0
SOLID
  5
1E1
330
1DD
100
AcDbEntity
  8
1
100
AcDbTrace
 10
34.1112460484
 20
9.7427863949
 30
0.0
 11
33.7362460484
 21
9.8004787026
 31
0.0
 12
33.7362460484
 22
9.6850940872
 32
0.0
 13
33.7362460484
 23
9.6850940872
 33
0.0
  0
LINE
  5
1E2
330
1DD
100
AcDbEntity
  8
1
100
AcDbLine
 10
26.5069502889
 20
10.1553905445
 30
0.0
 11
26.8944502925
 21
10.1553905445
 31
0.0
  0
LINE
  5
1E3
330
1DD
100
AcDbEntity
  8
1
100
AcDbLine
 10
25.7962732625
 20
9.5351821998
 30
0.0
 11
25.7202315947
 21
9.5351821998
 31
0.0
  0
LINE
  5
1E4
330
1DD
100
AcDbEntity
  8
1
100
AcDbLine
 10
25.7202315947
 20
9.5351821998
 30
0.0
 11
25.7202315947
 21
8.9393488562
 31
0.0
  0
LINE
  5
1E5
330
1DD
100
AcDbEntity
  8
1
100
AcDbLine
 10
25.7202315947
 20
8.9393488562
 30
0.0
 11
25.7962732625
 21
8.9393488562
 31
0.0
  0
LINE
  5
1E6
330
1DD
100
AcDbEntity
  8
1
100
AcDbLine
 10
27.5099884647
 20
9.5351821998
 30
0.0
 11
27.5860301325
 21
9.5351821998
 31
0.0
  0
LINE
  5
1E7
330
1DD
100
AcDbEntity
  8
1
100
AcDbLine
 10
27.5860301325
 20
9.5351821998
 30
0.0
 11
27.5860301325
 21
8.9393488562
 31
0.0
  0
LINE
  5
1E8
330
1DD
100
AcDbEntity
  8
1
100
AcDbLine
 10
27.5860301325
 20
8.9393488562
 30
0.0
 11
27.5099884647
 21
8.9393488562
 31
0.0
  0
LINE
  5
1E9
330
1DD
100
AcDbEntity
  8
1
100
AcDbLine
 10
5.6013161561
 20
9.7427863949
 30
0.0
 11
25.5871013912
 21
9.7427863949
 31
0.0
  0
LINE
  5
1EA
330
1DD
100
AcDbEntity
  8
1
100
AcDbLine
 10
34.1112460484
 20
9.7427863949
 30
0.0
 11
27.7191602627
 21
9.7427863949
 31
0.0
  0
MTEXT
  5
1EB
330
1DD
100
AcDbEntity
  8
1
100
AcDbMText
 10
25.8975752952
 20
10.3627507147
 30
0.0039370079
 40
0.375
 41
0.0
 71
     1
 72
     1
  1
28
  7
SLDTEXTSTYLE0
 73
     1
 44
1.0
  0
MTEXT
  5
1EC
330
1DD
100
AcDbEntity
  8
1
100
AcDbMText
 10
26.5621586237
 20
10.6056659318
 30
0.0039370079
 40
0.375
 41
0.0
 71
     1
 72
     1
  1
1
  7
SLDTEXTSTYLE0
 73
     1
 44
1.0
  0
MTEXT
  5
1ED
330
1DD
100
AcDbEntity
  8
1
100
AcDbMText
 10
26.5621586237
 20
10.0946242723
 30
0.0039370079
 40
0.375
 41
0.0
 71
     1
 72
     1
  1
2
  7
SLDTEXTSTYLE0
 73
     1
 44
1.0
  0
MTEXT
  5
1EE
330
1DD
100
AcDbEntity
  8
1
100
AcDbMText
 10
26.9496585814
 20
10.3627507147
 30
0.0039370079
 40
0.375
 41
0.0
 71
     1
 72
     1
  1
"
  7
SLDTEXTSTYLE0
 73
     1
 44
1.0
  0
MTEXT
  5
1EF
330
1DD
100
AcDbEntity
  8
1
100
AcDbMText
 10
25.8913253507
 20
9.422749277
 30
0.0039370079
 40
0.375
 41
0.0
 71
     1
 72
     1
  1
724.15
  7
SLDTEXTSTYLE0
 73
     1
 44
1.0
  0
ENDBLK
  5
1DF
330
1DD
100
AcDbEntity
  8
0
100
AcDbBlockEnd
  0
BLOCK
  5
1F2
330
1F1
100
AcDbEntity
  8
0
100
AcDbBlockBegin
  2
_D_11
 70
     0
 10
0.0
 20
0.0
 30
0.0
  3
_D_11
  1

  0
SOLID
  5
1F4
330
1F1
100
AcDbEntity
  8
1
100
AcDbTrace
 10
7.3523112198
 20
19.9482163719
 30
0.0
 11
7.5487459336
 21
19.6236138372
 31
0.0
 12
7.6372306394
 22
19.6976683193
 32
0.0
 13
7.6372306394
 23
19.6976683193
 33
0.0
  0
LINE
  5
1F5
330
1F1
100
AcDbEntity
  8
1
100
AcDbLine
 10
7.3658228479
 20
18.9561641158
 30
0.0
 11
7.2897811801
 21
18.9561641158
 31
0.0
  0
LINE
  5
1F6
330
1F1
100
AcDbEntity
  8
1
100
AcDbLine
 10
7.2897811801
 20
18.9561641158
 30
0.0
 11
7.2897811801
 21
18.3603307723
 31
0.0
  0
LINE
  5
1F7
330
1F1
100
AcDbEntity
  8
1
100
AcDbLine
 10
7.2897811801
 20
18.3603307723
 30
0.0
 11
7.3658228479
 21
18.3603307723
 31
0.0
  0
LINE
  5
1F8
330
1F1
100
AcDbEntity
  8
1
100
AcDbLine
 10
9.0795380501
 20
18.9561641158
 30
0.0
 11
9.1555797179
 21
18.9561641158
 31
0.0
  0
LINE
  5
1F9
330
1F1
100
AcDbEntity
  8
1
100
AcDbLine
 10
9.1555797179
 20
18.9561641158
 30
0.0
 11
9.1555797179
 21
18.3603307723
 31
0.0
  0
LINE
  5
1FA
330
1F1
100
AcDbEntity
  8
1
100
AcDbLine
 10
9.1555797179
 20
18.3603307723
 30
0.0
 11
9.0795380501
 21
18.3603307723
 31
0.0
  0
LINE
  5
1FB
330
1F1
100
AcDbEntity
  8
1
100
AcDbLine
 10
10.4898400136
 20
16.1993101024
 30
0.0
 11
8.7448826474
 21
18.2842890907
 31
0.0
  0
LINE
  5
1FC
330
1F1
100
AcDbEntity
  8
1
100
AcDbLine
 10
7.3523112198
 20
19.9482163719
 30
0.0
 11
7.7004781774
 21
19.5322057547
 31
0.0
  0
MTEXT
  5
1FD
330
1F1
100
AcDbEntity
  8
1
100
AcDbMText
 10
7.7028887504
 20
19.5156061815
 30
0.0039370079
 40
0.375
 41
0.0
 71
     1
 72
     1
  1
R5"
  7
SLDTEXTSTYLE0
 73
     1
 44
1.0
  0
MTEXT
  5
1FE
330
1F1
100
AcDbEntity
  8
1
100
AcDbMText
 10
7.4608749361
 20
18.843731193
 30
0.0039370079
 40
0.375
 41
0.0
 71
     1
 72
     1
  1
124.17
  7
SLDTEXTSTYLE0
 73
     1
 44
1.0
  0
ENDBLK
  5
1F3
330
1F1
100
AcDbEntity
  8
0
100
AcDbBlockEnd
  0
BLOCK
  5
201
330
200
100
AcDbEntity
  8
0
100
AcDbBlockBegin
  2
_D_12
 70
     0
 10
0.0
 20
0.0
 30
0.0
  3
_D_12
  1

  0
SOLID
  5
203
330
200
100
AcDbEntity
  8
1
100
AcDbTrace
 10
19.3054846722
 20
21.2109631223
 30
0.0
 11
19.3468153242
 21
20.8338090694
 31
0.0
 12
19.4582683041
 22
20.8636728054
 32
0.0
 13
19.4582683041
 23
20.8636728054
 33
0.0
  0
LINE
  5
204
330
200
100
AcDbEntity
  8
1
100
AcDbLine
 10
20.9970290655
 20
18.8301299228
 30
0.0
 11
21.384529069
 21
18.8301299228
 31
0.0
  0
LINE
  5
205
330
200
100
AcDbEntity
  8
1
100
AcDbLine
 10
20.4116992943
 20
18.2099215781
 30
0.0
 11
20.3356576265
 21
18.2099215781
 31
0.0
  0
LINE
  5
206
330
200
100
AcDbEntity
  8
1
100
AcDbLine
 10
20.3356576265
 20
18.2099215781
 30
0.0
 11
20.3356576265
 21
17.6140882346
 31
0.0
  0
LINE
  5
207
330
200
100
AcDbEntity
  8
1
100
AcDbLine
 10
20.3356576265
 20
17.6140882346
 30
0.0
 11
20.4116992943
 21
17.6140882346
 31
0.0
  0
LINE
  5
208
330
200
100
AcDbEntity
  8
1
100
AcDbLine
 10
21.8483312174
 20
18.2099215781
 30
0.0
 11
21.9243728852
 21
18.2099215781
 31
0.0
  0
LINE
  5
209
330
200
100
AcDbEntity
  8
1
100
AcDbLine
 10
21.9243728852
 20
18.2099215781
 30
0.0
 11
21.9243728852
 21
17.6140882346
 31
0.0
  0
LINE
  5
20A
330
200
100
AcDbEntity
  8
1
100
AcDbLine
 10
21.9243728852
 20
17.6140882346
 30
0.0
 11
21.8483312174
 21
17.6140882346
 31
0.0
  0
LINE
  5
20B
330
200
100
AcDbEntity
  8
1
100
AcDbLine
 10
19.3054846722
 20
21.2109631223
 30
0.0
 11
20.0286263745
 21
18.5121615483
 31
0.0
  0
LINE
  5
20C
330
200
100
AcDbEntity
  8
1
100
AcDbLine
 10
20.0286263745
 20
18.5121615483
 30
0.0
 11
20.2786263745
 21
18.5121615483
 31
0.0
  0
MTEXT
  5
20D
330
200
100
AcDbEntity
  8
1
100
AcDbMText
 10
20.3612651932
 20
19.037490093
 30
0.0039370079
 40
0.375
 41
0.0
 71
     1
 72
     1
  1
R3
  7
SLDTEXTSTYLE0
 73
     1
 44
1.0
  0
MTEXT
  5
20E
330
200
100
AcDbEntity
  8
1
100
AcDbMText
 10
21.0522374002
 20
19.2804053102
 30
0.0039370079
 40
0.375
 41
0.0
 71
     1
 72
     1
  1
1
  7
SLDTEXTSTYLE0
 73
     1
 44
1.0
  0
MTEXT
  5
20F
330
200
100
AcDbEntity
  8
1
100
AcDbMText
 10
21.0522374002
 20
18.7693636506
 30
0.0039370079
 40
0.375
 41
0.0
 71
     1
 72
     1
  1
2
  7
SLDTEXTSTYLE0
 73
     1
 44
1.0
  0
MTEXT
  5
210
330
200
100
AcDbEntity
  8
1
100
AcDbMText
 10
21.4397373946
 20
19.037490093
 30
0.0039370079
 40
0.375
 41
0.0
 71
     1
 72
     1
  1
"
  7
SLDTEXTSTYLE0
 73
     1
 44
1.0
  0
MTEXT
  5
211
330
200
100
AcDbEntity
  8
1
100
AcDbMText
 10
20.5067513825
 20
18.0974886553
 30
0.0039370079
 40
0.375
 41
0.0
 71
     1
 72
     1
  1
91.73
  7
SLDTEXTSTYLE0
 73
     1
 44
1.0
  0
ENDBLK
  5
202
330
200
100
AcDbEntity
  8
0
100
AcDbBlockEnd
  0
BLOCK
  5
214
330
213
100
AcDbEntity
  8
0
100
AcDbBlockBegin
  2
_D_13
 70
     0
 10
0.0
 20
0.0
 30
0.0
  3
_D_13
  1

  0
SOLID
  5
216
330
213
100
AcDbEntity
  8
1
100
AcDbTrace
 10
33.46721353
 20
19.6869078486
 30
0.0
 11
33.1029161304
 21
19.5808851763
 31
0.0
 12
33.1516303394
 22
19.4762881625
 32
0.0
 13
33.1516303394
 23
19.4762881625
 33
0.0
  0
LINE
  5
217
330
213
100
AcDbEntity
  8
1
100
AcDbLine
 10
30.9384504362
 20
18.9561641158
 30
0.0
 11
30.8624087684
 21
18.9561641158
 31
0.0
  0
LINE
  5
218
330
213
100
AcDbEntity
  8
1
100
AcDbLine
 10
30.8624087684
 20
18.9561641158
 30
0.0
 11
30.8624087684
 21
18.3603307723
 31
0.0
  0
LINE
  5
219
330
213
100
AcDbEntity
  8
1
100
AcDbLine
 10
30.8624087684
 20
18.3603307723
 30
0.0
 11
30.9384504362
 21
18.3603307723
 31
0.0
  0
LINE
  5
21A
330
213
100
AcDbEntity
  8
1
100
AcDbLine
 10
32.6521656384
 20
18.9561641158
 30
0.0
 11
32.7282073062
 21
18.9561641158
 31
0.0
  0
LINE
  5
21B
330
213
100
AcDbEntity
  8
1
100
AcDbLine
 10
32.7282073062
 20
18.9561641158
 30
0.0
 11
32.7282073062
 21
18.3603307723
 31
0.0
  0
LINE
  5
21C
330
213
100
AcDbEntity
  8
1
100
AcDbLine
 10
32.7282073062
 20
18.3603307723
 30
0.0
 11
32.6521656384
 21
18.3603307723
 31
0.0
  0
LINE
  5
21D
330
213
100
AcDbEntity
  8
1
100
AcDbLine
 10
27.2226485859
 20
16.7786121863
 30
0.0
 11
30.7292785649
 21
18.41176307
 31
0.0
  0
LINE
  5
21E
330
213
100
AcDbEntity
  8
1
100
AcDbLine
 10
33.46721353
 20
19.6869078486
 30
0.0
 11
32.8613374364
 21
19.4047317754
 31
0.0
  0
MTEXT
  5
21F
330
213
100
AcDbEntity
  8
1
100
AcDbMText
 10
31.2755163386
 20
19.5156061815
 30
0.0039370079
 40
0.375
 41
0.0
 71
     1
 72
     1
  1
R7"
  7
SLDTEXTSTYLE0
 73
     1
 44
1.0
  0
MTEXT
  5
220
330
213
100
AcDbEntity
  8
1
100
AcDbMText
 10
31.0335025244
 20
18.843731193
 30
0.0039370079
 40
0.375
 41
0.0
 71
     1
 72
     1
  1
174.97
  7
SLDTEXTSTYLE0
 73
     1
 44
1.0
  0
ENDBLK
  5
215
330
213
100
AcDbEntity
  8
0
100
AcDbBlockEnd
  0
BLOCK
  5
223
330
222
100
AcDbEntity
  8
0
100
AcDbBlockBegin
  2
_D_14
 70
     0
 10
0.0
 20
0.0
 30
0.0
  3
_D_14
  1

  0
SOLID
  5
225
330
222
100
AcDbEntity
  8
1
100
AcDbTrace
 10
6.8237163765
 20
6.9980975595
 30
0.0
 11
7.0870388181
 21
7.2712544633
 31
0.0
 12
6.9927570925
 22
7.3377718722
 32
0.0
 13
6.9927570925
 23
7.3377718722
 33
0.0
  0
LINE
  5
226
330
222
100
AcDbEntity
  8
1
100
AcDbLine
 10
6.7341830767
 20
7.9372502755
 30
0.0
 11
6.6581414089
 21
7.9372502755
 31
0.0
  0
LINE
  5
227
330
222
100
AcDbEntity
  8
1
100
AcDbLine
 10
6.6581414089
 20
7.9372502755
 30
0.0
 11
6.6581414089
 21
7.341416932
 31
0.0
  0
LINE
  5
228
330
222
100
AcDbEntity
  8
1
100
AcDbLine
 10
6.6581414089
 20
7.341416932
 30
0.0
 11
6.7341830767
 21
7.341416932
 31
0.0
  0
LINE
  5
229
330
222
100
AcDbEntity
  8
1
100
AcDbLine
 10
8.1708149997
 20
7.9372502755
 30
0.0
 11
8.2468566675
 21
7.9372502755
 31
0.0
  0
LINE
  5
22A
330
222
100
AcDbEntity
  8
1
100
AcDbLine
 10
8.2468566675
 20
7.9372502755
 30
0.0
 11
8.2468566675
 21
7.341416932
 31
0.0
  0
LINE
  5
22B
330
222
100
AcDbEntity
  8
1
100
AcDbLine
 10
8.2468566675
 20
7.341416932
 30
0.0
 11
8.1708149997
 21
7.341416932
 31
0.0
  0
LINE
  5
22C
330
222
100
AcDbEntity
  8
1
100
AcDbLine
 10
8.488947203
 20
9.3583944889
 30
0.0
 11
7.892712534
 21
8.5132919144
 31
0.0
  0
LINE
  5
22D
330
222
100
AcDbEntity
  8
1
100
AcDbLine
 10
6.8237163765
 20
6.9980975595
 30
0.0
 11
7.0122854691
 21
7.2653752504
 31
0.0
  0
MTEXT
  5
22E
330
222
100
AcDbEntity
  8
1
100
AcDbMText
 10
6.9327073395
 20
8.4966923412
 30
0.0039370079
 40
0.375
 41
0.0
 71
     1
 72
     1
  1
R3"
  7
SLDTEXTSTYLE0
 73
     1
 44
1.0
  0
MTEXT
  5
22F
330
222
100
AcDbEntity
  8
1
100
AcDbMText
 10
6.8292351649
 20
7.8248173527
 30
0.0039370079
 40
0.375
 41
0.0
 71
     1
 72
     1
  1
73.37
  7
SLDTEXTSTYLE0
 73
     1
 44
1.0
  0
ENDBLK
  5
224
330
222
100
AcDbEntity
  8
0
100
AcDbBlockEnd
  0
BLOCK
  5
232
330
231
100
AcDbEntity
  8
0
100
AcDbBlockBegin
  2
_D_15
 70
     0
 10
0.0
 20
0.0
 30
0.0
  3
_D_15
  1

  0
SOLID
  5
234
330
231
100
AcDbEntity
  8
1
100
AcDbTrace
 10
22.9176656391
 20
23.2760015894
 30
0.0
 11
22.9934633742
 21
22.9042380816
 31
0.0
 12
23.1017022212
 22
22.9442125919
 32
0.0
 13
23.1017022212
 23
22.9442125919
 33
0.0
  0
LINE
  5
235
330
231
100
AcDbEntity
  8
1
100
AcDbLine
 10
22.442652132
 20
22.2900004154
 30
0.0
 11
22.3666104641
 21
22.2900004154
 31
0.0
  0
LINE
  5
236
330
231
100
AcDbEntity
  8
1
100
AcDbLine
 10
22.3666104641
 20
22.2900004154
 30
0.0
 11
22.3666104641
 21
21.6941670718
 31
0.0
  0
LINE
  5
237
330
231
100
AcDbEntity
  8
1
100
AcDbLine
 10
22.3666104641
 20
21.6941670718
 30
0.0
 11
22.442652132
 21
21.6941670718
 31
0.0
  0
LINE
  5
238
330
231
100
AcDbEntity
  8
1
100
AcDbLine
 10
24.1563673341
 20
22.2900004154
 30
0.0
 11
24.2324090019
 21
22.2900004154
 31
0.0
  0
LINE
  5
239
330
231
100
AcDbEntity
  8
1
100
AcDbLine
 10
24.2324090019
 20
22.2900004154
 30
0.0
 11
24.2324090019
 21
21.6941670718
 31
0.0
  0
LINE
  5
23A
330
231
100
AcDbEntity
  8
1
100
AcDbLine
 10
24.2324090019
 20
21.6941670718
 30
0.0
 11
24.1563673341
 21
21.6941670718
 31
0.0
  0
LINE
  5
23B
330
231
100
AcDbEntity
  8
1
100
AcDbLine
 10
25.3041909971
 20
16.81401492
 30
0.0
 11
23.5299484852
 21
21.6181253903
 31
0.0
  0
LINE
  5
23C
330
231
100
AcDbEntity
  8
1
100
AcDbLine
 10
22.9176656391
 20
23.2760015894
 30
0.0
 11
23.0690709075
 21
22.8660420542
 31
0.0
  0
MTEXT
  5
23D
330
231
100
AcDbEntity
  8
1
100
AcDbMText
 10
22.7797180344
 20
22.849442481
 30
0.0039370079
 40
0.375
 41
0.0
 71
     1
 72
     1
  1
R7"
  7
SLDTEXTSTYLE0
 73
     1
 44
1.0
  0
MTEXT
  5
23E
330
231
100
AcDbEntity
  8
1
100
AcDbMText
 10
22.5377042202
 20
22.1775674926
 30
0.0039370079
 40
0.375
 41
0.0
 71
     1
 72
     1
  1
174.97
  7
SLDTEXTSTYLE0
 73
     1
 44
1.0
  0
ENDBLK
  5
233
330
231
100
AcDbEntity
  8
0
100
AcDbBlockEnd
  0
BLOCK
  5
241
330
240
100
AcDbEntity
  8
0
100
AcDbBlockBegin
  2
SW_NOTE_0
 70
     0
 10
0.0
 20
0.0
 30
0.0
  3
SW_NOTE_0
  1

  0
MTEXT
  5
243
330
240
100
AcDbEntity
  8
1
 62
     0
100
AcDbMText
 10
0.0237845258
 20
0.6241807742
 30
0.0
 40
0.4814814815
 41
0.0
 71
     1
 72
     1
  1
TEMPLATE OUTLINE
  7
SLDTEXTSTYLE0
 73
     1
 44
1.0
  0
MTEXT
  5
244
330
240
100
AcDbEntity
  8
1
 62
     0
100
AcDbMText
 10
0.0237845258
 20
0.0015984529
 30
0.0
 40
0.4814814815
 41
0.0
 71
     1
 72
     1
  1
FOR 1/2" REVEAL
  7
SLDTEXTSTYLE0
 73
     1
 44
1.0
  0
ENDBLK
  5
242
330
240
100
AcDbEntity
  8
0
100
AcDbBlockEnd
  0
BLOCK
  5
249
330
248
100
AcDbEntity
  8
0
100
AcDbBlockBegin
  2
SW_NOTE_1
 70
     0
 10
0.0
 20
0.0
 30
0.0
  3
SW_NOTE_1
  1

  0
MTEXT
  5
24B
330
248
100
AcDbEntity
  8
1
 62
     0
100
AcDbMText
 10
0.0205540526
 20
0.6246906407
 30
0.0
 40
0.4814814815
 41
0.0
 71
     1
 72
     1
  1
TEMPLATE OUTLINE
  7
SLDTEXTSTYLE0
 73
     1
 44
1.0
  0
MTEXT
  5
24C
330
248
100
AcDbEntity
  8
1
 62
     0
100
AcDbMText
 10
0.0205540526
 20
0.0021083195
 30
0.0
 40
0.4814814815
 41
0.0
 71
     1
 72
     1
  1
FOR 1/8" REVEAL
  7
SLDTEXTSTYLE0
 73
     1
 44
1.0
  0
ENDBLK
  5
24A
330
248
100
AcDbEntity
  8
0
100
AcDbBlockEnd
  0
ENDSEC
  0
SECTION
  2
ENTITIES
  0
LINE
  5
FA
330
1F
100
AcDbEntity
  8
1
  6
Continuous
 62
     7
370
     0
100
AcDbLine
 10
10.4898400136
 20
21.6993101024
 30
0.0
 11
18.370784916
 21
21.6993101024
 31
0.0
  0
LINE
  5
FB
330
1F
100
AcDbEntity
  8
1
  6
Continuous
 62
     7
370
     0
100
AcDbLine
 10
4.9899136185
 20
16.2277644281
 30
0.0
 11
4.9899136185
 21
9.2761511018
 31
0.0
  0
LINE
  5
FC
330
1F
100
AcDbEntity
  8
1
  6
Continuous
 62
     7
370
     0
100
AcDbLine
 10
8.4277995924
 20
5.8589286768
 30
0.0
 11
13.9279819669
 21
5.8589286768
 31
0.0
  0
LINE
  5
FD
330
1F
100
AcDbEntity
  8
1
  6
Continuous
 62
     7
370
     0
100
AcDbLine
 10
13.9279819669
 20
5.8589286768
 30
0.0
 11
21.19451274
 21
5.8589286768
 31
0.0
  0
LINE
  5
FE
330
1F
100
AcDbEntity
  8
1
  6
Continuous
 62
     7
370
     0
100
AcDbLine
 10
31.1453049806
 20
5.8589286768
 30
0.0
 11
21.19451274
 21
5.8589286768
 31
0.0
  0
LINE
  5
FF
330
1F
100
AcDbEntity
  8
1
  6
Continuous
 62
     7
370
     0
100
AcDbLine
 10
34.7226485859
 20
16.7786121863
 30
0.0
 11
34.7226485859
 21
9.27983685
 31
0.0
  0
LINE
  5
100
330
1F
100
AcDbEntity
  8
1
100
AcDbLine
 10
4.9899136185
 20
12.751957765
 30
0.0
 11
6.94395906
 21
12.751957765
 31
0.0
  0
LINE
  5
101
330
1F
100
AcDbEntity
  8
1
100
AcDbLine
 10
34.7226485859
 20
13.0292245181
 30
0.0
 11
32.7594229776
 21
13.0292245181
 31
0.0
  0
LINE
  5
102
330
1F
100
AcDbEntity
  8
1
100
AcDbLine
 10
21.19451274
 20
5.8589286768
 30
0.0
 11
21.19451274
 21
7.8705980277
 31
0.0
  0
LINE
  5
103
330
1F
100
AcDbEntity
  8
1
100
AcDbLine
 10
21.19451274
 20
23.0878131812
 30
0.0
 11
21.19451274
 21
19.5252372029
 31
0.0
  0
LINE
  5
104
330
1F
100
AcDbEntity
  8
1
100
AcDbLine
 10
31.152137621
 20
6.4703312143
 30
0.0
 11
21.19451274
 21
6.4703312143
 31
0.0
  0
LINE
  5
105
330
1F
100
AcDbEntity
  8
1
100
AcDbLine
 10
13.9279819669
 20
6.4703312143
 30
0.0
 11
21.19451274
 21
6.4703312143
 31
0.0
  0
LINE
  5
106
330
1F
100
AcDbEntity
  8
1
100
AcDbLine
 10
8.4333970225
 20
6.4703312143
 30
0.0
 11
13.9279819669
 21
6.4703312143
 31
0.0
  0
LINE
  5
107
330
1F
100
AcDbEntity
  8
1
100
AcDbLine
 10
5.6013161561
 20
16.2261362871
 30
0.0
 11
5.6013161561
 21
9.2836801201
 31
0.0
  0
LINE
  5
108
330
1F
100
AcDbEntity
  8
1
100
AcDbLine
 10
10.4898400136
 20
21.0879075649
 30
0.0
 11
18.370784916
 21
21.0879075649
 31
0.0
  0
LINE
  5
109
330
1F
100
AcDbEntity
  8
1
100
AcDbLine
 10
34.1112460484
 20
16.7786121863
 30
0.0
 11
34.1112460484
 21
9.2869933469
 31
0.0
  0
ARC
  5
10A
330
1F
100
AcDbEntity
  8
1
  6
Continuous
 62
     7
370
     0
100
AcDbCircle
 10
25.3041909971
 20
16.81401492
 30
0.0
 40
7.500000000000002
100
AcDbArc
 50
97.1489895536
 51
131.3246172088
  0
ARC
  5
10B
330
1F
100
AcDbEntity
  8
1
  6
Continuous
 62
     7
370
     0
100
AcDbCircle
 10
18.370784916
 20
24.6993101024
 30
0.0
 40
3.000000000000004
100
AcDbArc
 50
270.0
 51
311.3246172088
  0
ARC
  5
10C
330
1F
100
AcDbEntity
  8
1
  6
Continuous
 62
     7
370
     0
100
AcDbCircle
 10
10.4898400136
 20
16.1993101024
 30
0.0
 40
5.499999999999975
100
AcDbArc
 50
90.0
 51
179.703578174
  0
ARC
  5
10D
330
1F
100
AcDbEntity
  8
1
  6
Continuous
 62
     7
370
     0
100
AcDbCircle
 10
8.488947203
 20
9.3583944889
 30
0.0
 40
3.499999999999999
100
AcDbArc
 50
181.3464664932
 51
268.998949066
  0
ARC
  5
10E
330
1F
100
AcDbEntity
  8
1
100
AcDbCircle
 10
27.2226485859
 20
16.7786121863
 30
0.0
 40
7.50000000000002
100
AcDbArc
 50
0.0
 51
80.709673509
  0
ARC
  5
10F
330
1F
100
AcDbEntity
  8
1
100
AcDbCircle
 10
8.488947203
 20
9.3583944889
 30
0.0
 40
2.888597462481472
100
AcDbArc
 50
181.4821364068
 51
268.8980856119
  0
ARC
  5
110
330
1F
100
AcDbEntity
  8
1
100
AcDbCircle
 10
10.4898400136
 20
16.1993101024
 30
0.0
 40
4.888597462481449
100
AcDbArc
 50
90.0
 51
179.6855877601
  0
ARC
  5
111
330
1F
100
AcDbEntity
  8
1
100
AcDbCircle
 10
18.370784916
 20
24.6993101024
 30
0.0
 40
3.611402537518529
100
AcDbArc
 50
270.0
 51
311.3246172088
  0
ARC
  5
112
330
1F
100
AcDbEntity
  8
1
100
AcDbCircle
 10
25.3041909971
 20
16.81401492
 30
0.0
 40
6.888597462481475
100
AcDbArc
 50
97.1559369384
 51
131.3246172088
  0
ARC
  5
113
330
1F
100
AcDbEntity
  8
1
100
AcDbCircle
 10
27.2226485859
 20
16.7786121863
 30
0.0
 40
6.888597462481513
100
AcDbArc
 50
0.0
 51
80.7021692755
  0
SPLINE
  5
114
330
1F
100
AcDbEntity
  8
1
  6
Continuous
 62
     5
370
     0
100
AcDbSpline
210
0.0
220
0.0
230
1.0
 70
     8
 71
     3
 72
    21
 73
    17
 74
     0
 42
0.00000001
 43
0.00000001
 12
1.0
 22
0.0
 32
0.0
 13
1.0
 23
0.0
 33
0.0
 40
0.0
 40
0.0
 40
0.0
 40
0.0
 40
0.03125
 40
0.0625
 40
0.125
 40
0.1875
 40
0.25
 40
0.375
 40
0.5
 40
0.625
 40
0.75
 40
0.8125
 40
0.875
 40
0.9375
 40
0.96875
 40
1.0
 40
1.0
 40
1.0
 40
1.0
 10
31.14530498061737
 20
5.858928676802965
 30
0.0
 10
31.19733586014218
 20
5.857765604455692
 30
0.0
 10
31.30082393753706
 20
5.857746376015539
 30
0.0
 10
31.51270149131897
 20
5.86718613785241
 30
0.0
 10
31.7824997137852
 20
5.897683571639225
 30
0.0
 10
32.11119384296113
 20
5.966854422466859
 30
0.0
 10
32.54916283462868
 20
6.104319050706549
 30
0.0
 10
33.08366288269534
 20
6.364107273394183
 30
0.0
 10
33.65994945038996
 20
6.810211938916284
 30
0.0
 10
34.13135969834203
 20
7.365988835549835
 30
0.0
 10
34.41477239025203
 20
7.888346441117884
 30
0.0
 10
34.57167021283492
 20
8.319735401278102
 30
0.0
 10
34.65545956212452
 20
8.64501033438017
 30
0.0
 10
34.6979823792033
 20
8.91317629855387
 30
0.0
 10
34.71688039171175
 20
9.12442040385239
 30
0.0
 10
34.72148551359835
 20
9.227805970470904
 30
0.0
 10
34.72264858594561
 20
9.279836849995725
 30
0.0
  0
SPLINE
  5
115
330
1F
100
AcDbEntity
  8
1
  6
Continuous
 62
     5
370
     0
100
AcDbSpline
210
0.0
220
0.0
230
1.0
 70
     8
 71
     3
 72
    11
 73
     7
 74
     0
 42
0.00000001
 43
0.00000001
 12
1.0
 22
0.0
 32
0.0
 13
1.0
 23
0.0
 33
0.0
 40
0.3339970884130886
 40
0.3339970884130886
 40
0.3339970884130886
 40
0.3339970884130886
 40
0.4171644172797786
 40
0.5003317461464687
 40
0.5834990750131587
 40
0.6666664038798487
 40
0.6666664038798487
 40
0.6666664038798487
 40
0.6666664038798487
 10
28.43342761166371
 20
24.18023458616454
 30
0.0
 10
28.09848312948258
 20
24.2340005157314
 30
0.0
 10
27.42530437071102
 20
24.31799812858925
 30
0.0
 10
26.40502385640929
 20
24.3730108772522
 30
0.0
 10
25.38339629177204
 20
24.35593548775282
 30
0.0
 10
24.70753707841059
 20
24.29699814861534
 30
0.0
 10
24.37081671675354
 20
24.25570911233023
 30
0.0
  0
SPLINE
  5
116
330
1F
100
AcDbEntity
  8
1
100
AcDbSpline
210
0.0
220
0.0
230
1.0
 70
     8
 71
     3
 72
    11
 73
     7
 74
     0
 42
0.00000001
 43
0.00000001
 12
1.0
 22
0.0
 32
0.0
 13
1.0
 23
0.0
 33
0.0
 40
0.3340756931283897
 40
0.3340756931283897
 40
0.3340756931283897
 40
0.3340756931283897
 40
0.417205178388466
 40
0.5003346636485424
 40
0.5834641489086188
 40
0.6665936341686951
 40
0.6665936341686951
 40
0.6665936341686951
 40
0.6665936341686951
 10
24.44607692861527
 20
23.64895568382523
 30
0.0
 10
24.76844850309835
 20
23.68846520334667
 30
0.0
 10
25.41549466662916
 20
23.74486120686508
 30
0.0
 10
26.39362211685838
 20
23.76119839504101
 30
0.0
 10
27.37046207767873
 20
23.70854392819853
 30
0.0
 10
28.01494269092779
 20
23.62815925308667
 30
0.0
 10
28.33561487609372
 20
23.57670611301602
 30
0.0
  0
SPLINE
  5
117
330
1F
100
AcDbEntity
  8
1
100
AcDbSpline
210
0.0
220
0.0
230
1.0
 70
     8
 71
     3
 72
    25
 73
    21
 74
     0
 42
0.00000001
 43
0.00000001
 12
1.0
 22
0.0
 32
0.0
 13
1.0
 23
0.0
 33
0.0
 40
-0.0013675640802728
 40
-0.0013675640802728
 40
-0.0013675640802728
 40
-0.0013675640802728
 40
0.0298759356592829
 40
0.0611194353988388
 40
0.1236064348779503
 40
0.1860934343570618
 40
0.2485804338361733
 40
0.3735544327943965
 40
0.4985284317526196
 40
0.6235024307108427
 40
0.7484764296690658
 40
0.8109634291481773
 40
0.8734504286272888
 40
0.9359374281064005
 40
0.9671809278459562
 40
0.9828026777157342
 40
0.990613552650623
 40
0.9945189901180675
 40
0.9964717088517897
 40
0.998424427585512
 40
0.998424427585512
 40
0.998424427585512
 40
0.998424427585512
 10
34.11124604842662
 20
9.28699334686601
 30
0.0
 10
34.11019137788232
 20
9.244086319611936
 30
0.0
 10
34.10620927866136
 20
9.158953696497424
 30
0.0
 10
34.09016827888298
 20
8.984062295544462
 30
0.0
 10
34.05459829319884
 20
8.763120742050964
 30
0.0
 10
33.98470662485781
 20
8.494406391895252
 30
0.0
 10
33.85440582885276
 20
8.138825245591116
 30
0.0
 10
33.6193522562187
 20
7.708056225298428
 30
0.0
 10
33.22918967334661
 20
7.250395812450159
 30
0.0
 10
32.75285973980198
 20
6.883487475024216
 30
0.0
 10
32.31136170019754
 20
6.670193862094943
 30
0.0
 10
31.95008884331697
 20
6.55769038046232
 30
0.0
 10
31.67870444042777
 20
6.501182477180194
 30
0.0
 10
31.45648070506335
 20
6.476535347488956
 30
0.0
 10
31.30333920018151
 20
6.470007784876868
 30
0.0
 10
31.22822499344494
 20
6.469322087337063
 30
0.0
 10
31.19104417877796
 20
6.469601975496065
 30
0.0
 10
31.17193276798156
 20
6.469909659251758
 30
0.0
 10
31.16174341540214
 20
6.470113901466833
 30
0.0
 10
31.15522052739611
 20
6.470262300568165
 30
0.0
 10
31.15213762098402
 20
6.470331214321495
 30
0.0
  0
DIMENSION
  5
118
330
1F
100
AcDbEntity
  8
1
100
AcDbDimension
  2
_D
 10
34.7226485859
 20
1.9450720562
 30
0.0
 11
19.3889271504
 21
1.9450720562
 31
0.0
 70
   160
  1
<>
 71
     2
 42
-1.0
  3
SLDDIMSTYLE0
100
AcDbAlignedDimension
 13
4.9899136185
 23
9.2761511018
 33
0.0
 14
34.7226485859
 24
9.27983685
 34
0.0
 50
0.0
100
AcDbRotatedDimension
  0
DIMENSION
  5
130
330
1F
100
AcDbEntity
  8
1
100
AcDbDimension
  2
_D_1
 10
38.3811373072
 20
5.8589286768
 30
0.0
 11
38.3811373072
 21
15.1487994427
 31
0.0
 70
   160
  1
<>
 71
     2
 42
-1.0
  3
SLDDIMSTYLE1
100
AcDbAlignedDimension
 13
28.4334276117
 23
24.1802345862
 33
0.0
 14
31.1453049806
 24
5.8589286768
 34
0.0
 50
90.0
100
AcDbRotatedDimension
  0
DIMENSION
  5
147
330
1F
100
AcDbEntity
  8
1
100
AcDbDimension
  2
_D_2
 10
2.9109996068
 20
5.8589286768
 30
0.0
 11
2.9109996068
 21
13.4371279816
 31
0.0
 70
   160
  1
<>
 71
     2
 42
-1.0
  3
SLDDIMSTYLE1
100
AcDbAlignedDimension
 13
10.4898400136
 23
21.6993101024
 33
0.0
 14
8.4277995924
 24
5.8589286768
 34
0.0
 50
90.0
100
AcDbRotatedDimension
  0
DIMENSION
  5
159
330
1F
100
AcDbEntity
  8
1
100
AcDbDimension
  2
_D_3
 10
8.488947203
 20
9.3583944889
 30
0.0
 11
1.9264487073
 21
4.0192843735
 31
0.0
 70
   164
  1
<>
 71
     1
 42
-1.0
  3
SLDDIMSTYLE2
100
AcDbRadialDimension
 15
5.9645093979
 25
6.9340979377
 35
0.0
 40
0.0
  0
DIMENSION
  5
16D
330
1F
100
AcDbEntity
  8
1
100
AcDbDimension
  2
_D_4
 10
27.2226485859
 20
16.7786121863
 30
0.0
 11
35.8920996627
 21
22.2957464689
 31
0.0
 70
   164
  1
<>
 71
     1
 42
-1.0
  3
SLDDIMSTYLE2
100
AcDbRadialDimension
 15
33.2072909898
 25
21.2990165152
 35
0.0
 40
0.0
  0
DIMENSION
  5
180
330
1F
100
AcDbEntity
  8
1
100
AcDbDimension
  2
_D_5
 10
25.3041909971
 20
16.81401492
 30
0.0
 11
19.5479751398
 21
26.5641696182
 31
0.0
 70
   164
  1
<>
 71
     1
 42
-1.0
  3
SLDDIMSTYLE3
100
AcDbRadialDimension
 15
22.1265559918
 25
23.6075880426
 35
0.0
 40
0.0
  0
DIMENSION
  5
194
330
1F
100
AcDbEntity
  8
1
100
AcDbDimension
  2
_D_6
 10
18.370784916
 20
24.6993101024
 30
0.0
 11
19.095290271
 21
23.590428223
 31
0.0
 70
   164
  1
<>
 71
     1
 42
-1.0
  3
SLDDIMSTYLE3
100
AcDbRadialDimension
 15
20.0116865565
 25
22.187848017
 35
0.0
 40
0.0
  0
DIMENSION
  5
1A3
330
1F
100
AcDbEntity
  8
1
100
AcDbDimension
  2
_D_7
 10
10.4898400136
 20
16.1993101024
 30
0.0
 11
4.1805515294
 21
24.3710990614
 31
0.0
 70
   164
  1
<>
 71
     1
 42
-1.0
  3
SLDDIMSTYLE2
100
AcDbRadialDimension
 15
7.6145780032
 25
20.8878992688
 35
0.0
 40
0.0
  0
DIMENSION
  5
1B6
330
1F
100
AcDbEntity
  8
1
100
AcDbDimension
  2
_D_8
 10
28.3072164948
 20
6.4703312143
 30
0.0
 11
28.3072164948
 21
13.4371279816
 31
0.0
 70
   160
  1
<>
 71
     2
 42
-1.0
  3
SLDDIMSTYLE1
100
AcDbAlignedDimension
 13
28.3356148761
 23
23.576706113
 33
0.0
 14
31.152137621
 24
6.4703312143
 34
0.0
 50
90.0
100
AcDbRotatedDimension
  0
DIMENSION
  5
1C7
330
1F
100
AcDbEntity
  8
1
100
AcDbDimension
  2
_D_9
 10
10.0453608247
 20
6.4703312143
 30
0.0
 11
10.0453608247
 21
14.5268041237
 31
0.0
 70
   160
  1
<>
 71
     2
 42
-1.0
  3
SLDDIMSTYLE1
100
AcDbAlignedDimension
 13
10.4898400136
 23
21.0879075649
 33
0.0
 14
8.4333970225
 24
6.4703312143
 34
0.0
 50
90.0
100
AcDbRotatedDimension
  0
DIMENSION
  5
1DC
330
1F
100
AcDbEntity
  8
1
100
AcDbDimension
  2
_D_10
 10
34.1112460484
 20
9.7427863949
 30
0.0
 11
26.6531308269
 21
9.7427863949
 31
0.0
 70
   160
  1
<>
 71
     2
 42
-1.0
  3
SLDDIMSTYLE1
100
AcDbAlignedDimension
 13
5.6013161561
 23
9.2836801201
 33
0.0
 14
34.1112460484
 24
9.2869933469
 34
0.0
 50
0.0
100
AcDbRotatedDimension
  0
DIMENSION
  5
1F0
330
1F
100
AcDbEntity
  8
1
100
AcDbDimension
  2
_D_11
 10
10.4898400136
 20
16.1993101024
 30
0.0
 11
8.2226808061
 21
18.9082478164
 31
0.0
 70
   164
  1
<>
 71
     1
 42
-1.0
  3
SLDDIMSTYLE2
100
AcDbRadialDimension
 15
7.3523112198
 25
19.9482163719
 35
0.0
 40
0.0
  0
DIMENSION
  5
1FF
330
1F
100
AcDbEntity
  8
1
100
AcDbDimension
  2
_D_12
 10
18.370784916
 20
24.6993101024
 30
0.0
 11
21.1300152192
 21
18.4175257732
 31
0.0
 70
   164
  1
<>
 71
     1
 42
-1.0
  3
SLDDIMSTYLE2
100
AcDbRadialDimension
 15
19.3054846722
 25
21.2109631223
 35
0.0
 40
0.0
  0
DIMENSION
  5
212
330
1F
100
AcDbEntity
  8
1
100
AcDbDimension
  2
_D_13
 10
27.2226485859
 20
16.7786121863
 30
0.0
 11
31.7953083943
 21
18.9082478164
 31
0.0
 70
   164
  1
<>
 71
     1
 42
-1.0
  3
SLDDIMSTYLE2
100
AcDbRadialDimension
 15
33.46721353
 25
19.6869078486
 35
0.0
 40
0.0
  0
DIMENSION
  5
221
330
1F
100
AcDbEntity
  8
1
100
AcDbDimension
  2
_D_14
 10
8.488947203
 20
9.3583944889
 30
0.0
 11
7.4524993952
 21
7.8893339761
 31
0.0
 70
   164
  1
<>
 71
     1
 42
-1.0
  3
SLDDIMSTYLE2
100
AcDbRadialDimension
 15
6.8237163765
 25
6.9980975595
 35
0.0
 40
0.0
  0
DIMENSION
  5
230
330
1F
100
AcDbEntity
  8
1
100
AcDbDimension
  2
_D_15
 10
25.3041909971
 20
16.81401492
 30
0.0
 11
23.2995100901
 21
22.242084116
 31
0.0
 70
   164
  1
<>
 71
     1
 42
-1.0
  3
SLDDIMSTYLE3
100
AcDbRadialDimension
 15
22.9176656391
 25
23.2760015894
 35
0.0
 40
0.0
  0
MTEXT
  5
23F
330
1F
100
AcDbEntity
  8
1
100
AcDbMText
 10
18.3510177508
 20
13.3071775697
 30
0.0
 40
0.7291666667
 41
0.0
 71
     1
 72
     1
  1
0000000787
  7
SLDTEXTSTYLE0
 73
     1
 44
1.0
  0
INSERT
  5
245
102
{ACAD_REACTORS
330
247
102
}
330
1F
100
AcDbEntity
  8
1
100
AcDbBlockReference
  2
SW_NOTE_0
 10
29.6059122197
 20
26.1891002157
 30
0.0
  0
LEADER
  5
247
330
1F
100
AcDbEntity
  8
1
100
AcDbLeader
  3
SLDDIMSTYLE4
 73
     2
 76
     3
 10
28.1929244053
 20
24.2167767143
 30
0.0
 10
29.3559122197
 20
26.1891002157
 30
0.0
 10
29.6059122197
 20
26.1891002157
 30
0.0
340
245
  0
INSERT
  5
24D
102
{ACAD_REACTORS
330
24E
102
}
330
1F
100
AcDbEntity
  8
1
100
AcDbBlockReference
  2
SW_NOTE_1
 10
13.7753222361
 20
8.3667867205
 30
0.0
  0
LEADER
  5
24E
330
1F
100
AcDbEntity
  8
1
100
AcDbLeader
  3
SLDDIMSTYLE4
 73
     2
 76
     3
 10
12.3237113402
 20
6.4703312143
 30
0.0
 10
13.5253222361
 20
8.3667867205
 30
0.0
 10
13.7753222361
 20
8.3667867205
 30
0.0
340
24D
  0
ENDSEC
  0
SECTION
  2
OBJECTS
  0
DICTIONARY
  5
C
330
0
100
AcDbDictionary
281
     1
  3
ACAD_GROUP
350
D
  3
ACAD_LAYOUT
350
1A
  3
ACAD_MLINESTYLE
350
17
  3
ACAD_PLOTSETTINGS
350
19
  3
ACAD_PLOTSTYLENAME
350
E
  0
DICTIONARY
  5
D
102
{ACAD_REACTORS
330
C
102
}
330
C
100
AcDbDictionary
281
     1
  0
DICTIONARY
  5
1A
102
{ACAD_REACTORS
330
C
102
}
330
C
100
AcDbDictionary
281
     1
  3
Layout1
350
1E
  3
Layout2
350
26
  3
Model
350
22
  0
DICTIONARY
  5
17
102
{ACAD_REACTORS
330
C
102
}
330
C
100
AcDbDictionary
281
     1
  3
Standard
350
18
  0
DICTIONARY
  5
19
102
{ACAD_REACTORS
330
C
102
}
330
C
100
AcDbDictionary
281
     1
  0
ACDBDICTIONARYWDFLT
  5
E
102
{ACAD_REACTORS
330
C
102
}
330
C
100
AcDbDictionary
281
     1
  3
Normal
350
F
100
AcDbDictionaryWithDefault
340
F
  0
LAYOUT
  5
1E
102
{ACAD_REACTORS
330
1A
102
}
330
1A
100
AcDbPlotSettings
  1

  2
none_device
  4

  6

 40
0.0
 41
0.0
 42
0.0
 43
0.0
 44
0.0
 45
0.0
 46
0.0
 47
0.0
 48
0.0
 49
0.0
140
0.0
141
0.0
142
1.0
143
1.0
 70
   688
 72
     0
 73
     0
 74
     5
  7

 75
    16
147
1.0
148
0.0
149
0.0
100
AcDbLayout
  1
Layout1
 70
     1
 71
     1
 10
0.0
 20
0.0
 11
12.0
 21
9.0
 12
0.0
 22
0.0
 32
0.0
 14
1.0000000000E+20
 24
1.0000000000E+20
 34
1.0000000000E+20
 15
-1.0000000000E+20
 25
-1.0000000000E+20
 35
-1.0000000000E+20
146
0.0
 13
0.0
 23
0.0
 33
0.0
 16
1.0
 26
0.0
 36
0.0
 17
0.0
 27
1.0
 37
0.0
 76
     0
330
1B
  0
LAYOUT
  5
26
102
{ACAD_REACTORS
330
1A
102
}
330
1A
100
AcDbPlotSettings
  1

  2
none_device
  4

  6

 40
0.0
 41
0.0
 42
0.0
 43
0.0
 44
0.0
 45
0.0
 46
0.0
 47
0.0
 48
0.0
 49
0.0
140
0.0
141
0.0
142
1.0
143
1.0
 70
   688
 72
     0
 73
     0
 74
     5
  7

 75
    16
147
1.0
148
0.0
149
0.0
100
AcDbLayout
  1
Layout2
 70
     1
 71
     2
 10
0.0
 20
0.0
 11
0.0
 21
0.0
 12
0.0
 22
0.0
 32
0.0
 14
0.0
 24
0.0
 34
0.0
 15
0.0
 25
0.0
 35
0.0
146
0.0
 13
0.0
 23
0.0
 33
0.0
 16
1.0
 26
0.0
 36
0.0
 17
0.0
 27
1.0
 37
0.0
 76
     0
330
23
  0
LAYOUT
  5
22
102
{ACAD_REACTORS
330
1A
102
}
330
1A
100
AcDbPlotSettings
  1

  2
none_device
  4

  6

 40
0.0
 41
0.0
 42
0.0
 43
0.0
 44
0.0
 45
0.0
 46
0.0
 47
0.0
 48
0.0
 49
0.0
140
0.0
141
0.0
142
1.0
143
1.0
 70
  1712
 72
     0
 73
     0
 74
     0
  7

 75
     0
147
1.0
148
0.0
149
0.0
100
AcDbLayout
  1
Model
 70
     1
 71
     0
 10
0.0
 20
0.0
 11
40.0
 21
30.0
 12
0.0
 22
0.0
 32
0.0
 14
0.0
 24
0.0
 34
0.0
 15
40.0
 25
30.0
 35
0.0
146
0.0
 13
0.0
 23
0.0
 33
0.0
 16
1.0
 26
0.0
 36
0.0
 17
0.0
 27
1.0
 37
0.0
 76
     0
330
1F
331
29
  0
MLINESTYLE
  5
18
102
{ACAD_REACTORS
330
17
102
}
330
17
100
AcDbMlineStyle
  2
Standard
 70
     0
  3

 62
   256
 51
90.0
 52
90.0
 71
     2
 49
0.5
 62
   256
  6
BYLAYER
 49
-0.5
 62
   256
  6
BYLAYER
  0
ACDBPLACEHOLDER
  5
F
102
{ACAD_REACTORS
330
E
102
}
330
E
  0
ENDSEC
  0
EOF
