  0
SECTION
  2
HEADER
  9
$ACADVER
  1
AC1015
  9
$ACADMAINTVER
 70
     6
  9
$DWGCODEPAGE
  3
ANSI_1252
  9
$INSBASE
 10
0.0
 20
0.0
 30
0.0
  9
$EXTMIN
 10
0.0
 20
0.0
 30
0.0
  9
$EXTMAX
 10
40.0
 20
30.0
 30
0.0
  9
$LIMMIN
 10
0.0
 20
0.0
  9
$LIMMAX
 10
40.0
 20
30.0
  9
$ORTHOMODE
 70
     0
  9
$REGENMODE
 70
     1
  9
$FILLMODE
 70
     1
  9
$QTEXTMODE
 70
     0
  9
$MIRRTEXT
 70
     1
  9
$LTSCALE
 40
1.0
  9
$ATTMODE
 70
     1
  9
$TEXTSIZE
 40
0.4814814815
  9
$TRACEWID
 40
0.05
  9
$TEXTSTYLE
  7
Standard
  9
$CLAYER
  8
0
  9
$CELTYPE
  6
ByLayer
  9
$CECOLOR
 62
   256
  9
$CELTSCALE
 40
1.0
  9
$DISPSILH
 70
     0
  9
$DIMSCALE
 40
1.0
  9
$DIMASZ
 40
0.375
  9
$DIMEXO
 40
0.05
  9
$DIMDLI
 40
0.38
  9
$DIMRND
 40
0.0
  9
$DIMDLE
 40
0.0
  9
$DIMEXE
 40
0.125
  9
$DIMTP
 40
0.0
  9
$DIMTM
 40
0.0
  9
$DIMTXT
 40
0.5
  9
$DIMCEN
 40
0.09
  9
$DIMTSZ
 40
0.0
  9
$DIMTOL
 70
     0
  9
$DIMLIM
 70
     0
  9
$DIMTIH
 70
     1
  9
$DIMTOH
 70
     1
  9
$DIMSE1
 70
     0
  9
$DIMSE2
 70
     0
  9
$DIMTAD
 70
     0
  9
$DIMZIN
 70
     0
  9
$DIMBLK
  1

  9
$DIMASO
 70
     1
  9
$DIMSHO
 70
     1
  9
$DIMPOST
  1

  9
$DIMAPOST
  1

  9
$DIMALT
 70
     0
  9
$DIMALTD
 70
     2
  9
$DIMALTF
 40
25.4
  9
$DIMLFAC
 40
1.0
  9
$DIMTOFL
 70
     0
  9
$DIMTVP
 40
0.0
  9
$DIMTIX
 70
     0
  9
$DIMSOXD
 70
     0
  9
$DIMSAH
 70
     0
  9
$DIMBLK1
  1

  9
$DIMBLK2
  1

  9
$DIMSTYLE
  2
Standard
  9
$DIMCLRD
 70
     0
  9
$DIMCLRE
 70
     0
  9
$DIMCLRT
 70
     0
  9
$DIMTFAC
 40
1.0
  9
$DIMGAP
 40
0.06
  9
$DIMJUST
 70
     0
  9
$DIMSD1
 70
     0
  9
$DIMSD2
 70
     0
  9
$DIMTOLJ
 70
     1
  9
$DIMTZIN
 70
     0
  9
$DIMALTZ
 70
     0
  9
$DIMALTTZ
 70
     0
  9
$DIMUPT
 70
     0
  9
$DIMDEC
 70
     2
  9
$DIMTDEC
 70
     2
  9
$DIMALTU
 70
     2
  9
$DIMALTTD
 70
     2
  9
$DIMTXSTY
  7
Standard
  9
$DIMAUNIT
 70
     0
  9
$DIMADEC
 70
     2
  9
$DIMALTRND
 40
0.0
  9
$DIMAZIN
 70
     0
  9
$DIMDSEP
 70
    46
  9
$DIMATFIT
 70
     3
  9
$DIMFRAC
 70
     0
  9
$DIMLDRBLK
  1

  9
$DIMLUNIT
 70
     2
  9
$DIMLWD
 70
    -2
  9
$DIMLWE
 70
    -2
  9
$DIMTMOVE
 70
     0
  9
$LUNITS
 70
     2
  9
$LUPREC
 70
     3
  9
$SKETCHINC
 40
0.1
  9
$FILLETRAD
 40
0.5
  9
$AUNITS
 70
     0
  9
$AUPREC
 70
     2
  9
$MENU
  1
.
  9
$ELEVATION
 40
0.0
  9
$PELEVATION
 40
0.0
  9
$THICKNESS
 40
0.0
  9
$LIMCHECK
 70
     0
  9
$CHAMFERA
 40
0.5
  9
$CHAMFERB
 40
0.5
  9
$CHAMFERC
 40
1.0
  9
$CHAMFERD
 40
0.0
  9
$SKPOLY
 70
     0
  9
$TDCREATE
 40
2456408.582771169
  9
$TDUCREATE
 40
2456408.791104503
  9
$TDUPDATE
 40
2456408.582772801
  9
$TDUUPDATE
 40
2456408.791106134
  9
$TDINDWG
 40
0.0000000116
  9
$TDUSRTIMER
 40
0.0000000116
  9
$USRTIMER
 70
     1
  9
$ANGBASE
 50
0.0
  9
$ANGDIR
 70
     0
  9
$PDMODE
 70
     0
  9
$PDSIZE
 40
-1.0
  9
$PLINEWID
 40
0.0
  9
$SPLFRAME
 70
     0
  9
$SPLINETYPE
 70
     6
  9
$SPLINESEGS
 70
     8
  9
$HANDSEED
  5
246
  9
$SURFTAB1
 70
     6
  9
$SURFTAB2
 70
     6
  9
$SURFTYPE
 70
     6
  9
$SURFU
 70
     6
  9
$SURFV
 70
     6
  9
$UCSBASE
  2

  9
$UCSNAME
  2

  9
$UCSORG
 10
0.0
 20
0.0
 30
0.0
  9
$UCSXDIR
 10
1.0
 20
0.0
 30
0.0
  9
$UCSYDIR
 10
0.0
 20
1.0
 30
0.0
  9
$UCSORTHOREF
  2

  9
$UCSORTHOVIEW
 70
     0
  9
$UCSORGTOP
 10
0.0
 20
0.0
 30
0.0
  9
$UCSORGBOTTOM
 10
0.0
 20
0.0
 30
0.0
  9
$UCSORGLEFT
 10
0.0
 20
0.0
 30
0.0
  9
$UCSORGRIGHT
 10
0.0
 20
0.0
 30
0.0
  9
$UCSORGFRONT
 10
0.0
 20
0.0
 30
0.0
  9
$UCSORGBACK
 10
0.0
 20
0.0
 30
0.0
  9
$PUCSBASE
  2

  9
$PUCSNAME
  2

  9
$PUCSORG
 10
0.0
 20
0.0
 30
0.0
  9
$PUCSXDIR
 10
1.0
 20
0.0
 30
0.0
  9
$PUCSYDIR
 10
0.0
 20
1.0
 30
0.0
  9
$PUCSORTHOREF
  2

  9
$PUCSORTHOVIEW
 70
     0
  9
$PUCSORGTOP
 10
0.0
 20
0.0
 30
0.0
  9
$PUCSORGBOTTOM
 10
0.0
 20
0.0
 30
0.0
  9
$PUCSORGLEFT
 10
0.0
 20
0.0
 30
0.0
  9
$PUCSORGRIGHT
 10
0.0
 20
0.0
 30
0.0
  9
$PUCSORGFRONT
 10
0.0
 20
0.0
 30
0.0
  9
$PUCSORGBACK
 10
0.0
 20
0.0
 30
0.0
  9
$USERI1
 70
     0
  9
$USERI2
 70
     0
  9
$USERI3
 70
     0
  9
$USERI4
 70
     0
  9
$USERI5
 70
     0
  9
$USERR1
 40
0.0
  9
$USERR2
 40
0.0
  9
$USERR3
 40
0.0
  9
$USERR4
 40
0.0
  9
$USERR5
 40
0.0
  9
$WORLDVIEW
 70
     1
  9
$SHADEDGE
 70
     3
  9
$SHADEDIF
 70
    70
  9
$TILEMODE
 70
     1
  9
$MAXACTVP
 70
    64
  9
$PINSBASE
 10
0.0
 20
0.0
 30
0.0
  9
$PLIMCHECK
 70
     0
  9
$PEXTMIN
 10
1.0000000000E+20
 20
1.0000000000E+20
 30
1.0000000000E+20
  9
$PEXTMAX
 10
-1.0000000000E+20
 20
-1.0000000000E+20
 30
-1.0000000000E+20
  9
$PLIMMIN
 10
0.0
 20
0.0
  9
$PLIMMAX
 10
12.0
 20
9.0
  9
$UNITMODE
 70
     0
  9
$VISRETAIN
 70
     1
  9
$PLINEGEN
 70
     0
  9
$PSLTSCALE
 70
     1
  9
$TREEDEPTH
 70
  3020
  9
$CMLSTYLE
  2
Standard
  9
$CMLJUST
 70
     0
  9
$CMLSCALE
 40
1.0
  9
$PROXYGRAPHICS
 70
     1
  9
$MEASUREMENT
 70
     0
  9
$CELWEIGHT
370
    -1
  9
$ENDCAPS
280
     0
  9
$JOINSTYLE
280
     0
  9
$LWDISPLAY
290
     1
  9
$INSUNITS
 70
     1
  9
$HYPERLINKBASE
  1

  9
$STYLESHEET
  1

  9
$XEDIT
290
     1
  9
$CEPSNTYPE
380
     0
  9
$PSTYLEMODE
290
     1
  9
$FINGERPRINTGUID
  2
{2F333444-DEFE-41E9-B34C-92BED7008BB9}
  9
$VERSIONGUID
  2
{FAEB1C32-E019-11D5-929B-00C0DF256EC4}
  9
$EXTNAMES
290
     1
  9
$PSVPSCALE
 40
0.0
  9
$OLESTARTUP
290
     0
  0
ENDSEC
  0
SECTION
  2
CLASSES
  0
CLASS
  1
ACDBDICTIONARYWDFLT
  2
AcDbDictionaryWithDefault
  3
ObjectDBX Classes
 90
        0
280
     0
281
     0
  0
CLASS
  1
VISUALSTYLE
  2
AcDbVisualStyle
  3
ObjectDBX Classes
 90
     4095
280
     0
281
     0
  0
CLASS
  1
MATERIAL
  2
AcDbMaterial
  3
ObjectDBX Classes
 90
     1153
280
     0
281
     0
  0
CLASS
  1
ACDBPLACEHOLDER
  2
AcDbPlaceHolder
  3
ObjectDBX Classes
 90
        0
280
     0
281
     0
  0
CLASS
  1
LAYOUT
  2
AcDbLayout
  3
ObjectDBX Classes
 90
        0
280
     0
281
     0
  0
ENDSEC
  0
SECTION
  2
TABLES
  0
TABLE
  2
VPORT
  5
8
330
0
100
AcDbSymbolTable
 70
     1
  0
VPORT
  5
29
330
8
100
AcDbSymbolTableRecord
100
AcDbViewportTableRecord
  2
*Active
 70
     0
 10
0.0
 20
0.0
 11
1.0
 21
1.0
 12
20.0
 22
15.0
 13
0.0
 23
0.0
 14
0.5
 24
0.5
 15
0.5
 25
0.5
 16
0.0
 26
0.0
 36
1.0
 17
0.0
 27
0.0
 37
0.0
 40
30.0
 41
1.3333333333
 42
50.0
 43
0.0
 44
0.0
 50
0.0
 51
0.0
 71
     0
 72
  2000
 73
     1
 74
     3
 75
     0
 76
     0
 77
     0
 78
     0
281
     0
 65
     1
110
0.0
120
0.0
130
0.0
111
1.0
121
0.0
131
0.0
112
0.0
122
1.0
132
0.0
 79
     0
146
0.0
  0
ENDTAB
  0
TABLE
  2
LTYPE
  5
5
330
0
100
AcDbSymbolTable
 70
     6
  0
LTYPE
  5
14
330
5
100
AcDbSymbolTableRecord
100
AcDbLinetypeTableRecord
  2
ByBlock
 70
     0
  3

 72
    65
 73
     0
 40
0.0
  0
LTYPE
  5
15
330
5
100
AcDbSymbolTableRecord
100
AcDbLinetypeTableRecord
  2
ByLayer
 70
     0
  3

 72
    65
 73
     0
 40
0.0
  0
LTYPE
  5
16
330
5
100
AcDbSymbolTableRecord
100
AcDbLinetypeTableRecord
  2
Continuous
 70
     0
  3
Solid line
 72
    65
 73
     0
 40
0.0
  0
LTYPE
  5
3F
330
5
100
AcDbSymbolTableRecord
100
AcDbLinetypeTableRecord
  2
HIDDEN
 70
     0
  3
Hidden __ __ __ __ __ __ __ __ __ __ __ __ __ __
 72
    65
 73
     2
 40
0.075
 49
0.05
 74
     0
 49
-0.025
 74
     0
  0
LTYPE
  5
40
330
5
100
AcDbSymbolTableRecord
100
AcDbLinetypeTableRecord
  2
PHANTOM
 70
     0
  3
Phantom ______  __  __  ______  __  __  ______
 72
    65
 73
     6
 40
0.5
 49
0.25
 74
     0
 49
-0.05
 74
     0
 49
0.05
 74
     0
 49
-0.05
 74
     0
 49
0.05
 74
     0
 49
-0.05
 74
     0
  0
LTYPE
  5
41
330
5
100
AcDbSymbolTableRecord
100
AcDbLinetypeTableRecord
  2
CENTER
 70
     0
  3
Center ____ _ ____ _ ____ _ ____ _ ____ _ ____
 72
    65
 73
     4
 40
0.4
 49
0.25
 74
     0
 49
-0.05
 74
     0
 49
0.05
 74
     0
 49
-0.05
 74
     0
  0
LTYPE
  5
42
330
5
100
AcDbSymbolTableRecord
100
AcDbLinetypeTableRecord
  2
CENTERX2
 70
     0
  3
Center (2x) ________  __  ________  __  _____
 72
    65
 73
     4
 40
0.8
 49
0.5
 74
     0
 49
-0.1
 74
     0
 49
0.1
 74
     0
 49
-0.1
 74
     0
  0
LTYPE
  5
43
330
5
100
AcDbSymbolTableRecord
100
AcDbLinetypeTableRecord
  2
DOT2
 70
     0
  3
Dot (.5x) ........................................
 72
    65
 73
     2
 40
0.025
 49
0.0
 74
     0
 49
-0.025
 74
     0
  0
ENDTAB
  0
TABLE
  2
LAYER
  5
2
330
0
100
AcDbSymbolTable
 70
   183
  0
LAYER
  5
10
330
2
100
AcDbSymbolTableRecord
100
AcDbLayerTableRecord
  2
0
 70
     0
 62
     7
  6
Continuous
370
    -3
390
F
  0
LAYER
  5
44
330
2
100
AcDbSymbolTableRecord
100
AcDbLayerTableRecord
  2
SLD-0
 70
     0
 62
   179
  6
Continuous
370
    -3
390
F
  0
LAYER
  5
45
330
2
100
AcDbSymbolTableRecord
100
AcDbLayerTableRecord
  2
1
 70
     0
 62
   179
  6
Continuous
370
    -3
390
F
  0
LAYER
  5
46
330
2
100
AcDbSymbolTableRecord
100
AcDbLayerTableRecord
  2
2
 70
     0
 62
   179
  6
Continuous
370
    -3
390
F
  0
LAYER
  5
47
330
2
100
AcDbSymbolTableRecord
100
AcDbLayerTableRecord
  2
3
 70
     0
 62
   179
  6
Continuous
370
    -3
390
F
  0
LAYER
  5
48
330
2
100
AcDbSymbolTableRecord
100
AcDbLayerTableRecord
  2
4
 70
     0
 62
   179
  6
Continuous
370
    -3
390
F
  0
LAYER
  5
49
330
2
100
AcDbSymbolTableRecord
100
AcDbLayerTableRecord
  2
5
 70
     0
 62
   179
  6
Continuous
370
    -3
390
F
  0
LAYER
  5
4A
330
2
100
AcDbSymbolTableRecord
100
AcDbLayerTableRecord
  2
6
 70
     0
 62
   179
  6
Continuous
370
    -3
390
F
  0
LAYER
  5
4B
330
2
100
AcDbSymbolTableRecord
100
AcDbLayerTableRecord
  2
7
 70
     0
 62
   179
  6
Continuous
370
    -3
390
F
  0
LAYER
  5
4C
330
2
100
AcDbSymbolTableRecord
100
AcDbLayerTableRecord
  2
8
 70
     0
 62
   179
  6
Continuous
370
    -3
390
F
  0
LAYER
  5
4D
330
2
100
AcDbSymbolTableRecord
100
AcDbLayerTableRecord
  2
9
 70
     0
 62
   179
  6
Continuous
370
    -3
390
F
  0
LAYER
  5
4E
330
2
100
AcDbSymbolTableRecord
100
AcDbLayerTableRecord
  2
10
 70
     0
 62
   179
  6
Continuous
370
    -3
390
F
  0
LAYER
  5
4F
330
2
100
AcDbSymbolTableRecord
100
AcDbLayerTableRecord
  2
11
 70
     0
 62
   179
  6
Continuous
370
    -3
390
F
  0
LAYER
  5
50
330
2
100
AcDbSymbolTableRecord
100
AcDbLayerTableRecord
  2
12
 70
     0
 62
   179
  6
Continuous
370
    -3
390
F
  0
LAYER
  5
51
330
2
100
AcDbSymbolTableRecord
100
AcDbLayerTableRecord
  2
13
 70
     0
 62
   179
  6
Continuous
370
    -3
390
F
  0
LAYER
  5
52
330
2
100
AcDbSymbolTableRecord
100
AcDbLayerTableRecord
  2
14
 70
     0
 62
   179
  6
Continuous
370
    -3
390
F
  0
LAYER
  5
53
330
2
100
AcDbSymbolTableRecord
100
AcDbLayerTableRecord
  2
15
 70
     0
 62
   179
  6
Continuous
370
    -3
390
F
  0
LAYER
  5
54
330
2
100
AcDbSymbolTableRecord
100
AcDbLayerTableRecord
  2
16
 70
     0
 62
   179
  6
Continuous
370
    -3
390
F
  0
LAYER
  5
55
330
2
100
AcDbSymbolTableRecord
100
AcDbLayerTableRecord
  2
17
 70
     0
 62
   179
  6
Continuous
370
    -3
390
F
  0
LAYER
  5
56
330
2
100
AcDbSymbolTableRecord
100
AcDbLayerTableRecord
  2
18
 70
     0
 62
   179
  6
Continuous
370
    -3
390
F
  0
LAYER
  5
57
330
2
100
AcDbSymbolTableRecord
100
AcDbLayerTableRecord
  2
19
 70
     0
 62
   179
  6
Continuous
370
    -3
390
F
  0
LAYER
  5
58
330
2
100
AcDbSymbolTableRecord
100
AcDbLayerTableRecord
  2
20
 70
     0
 62
   179
  6
Continuous
370
    -3
390
F
  0
LAYER
  5
59
330
2
100
AcDbSymbolTableRecord
100
AcDbLayerTableRecord
  2
21
 70
     0
 62
   179
  6
Continuous
370
    -3
390
F
  0
LAYER
  5
5A
330
2
100
AcDbSymbolTableRecord
100
AcDbLayerTableRecord
  2
22
 70
     0
 62
   179
  6
Continuous
370
    -3
390
F
  0
LAYER
  5
5B
330
2
100
AcDbSymbolTableRecord
100
AcDbLayerTableRecord
  2
23
 70
     0
 62
   179
  6
Continuous
370
    -3
390
F
  0
LAYER
  5
5C
330
2
100
AcDbSymbolTableRecord
100
AcDbLayerTableRecord
  2
24
 70
     0
 62
   179
  6
Continuous
370
    -3
390
F
  0
LAYER
  5
5D
330
2
100
AcDbSymbolTableRecord
100
AcDbLayerTableRecord
  2
25
 70
     0
 62
   179
  6
Continuous
370
    -3
390
F
  0
LAYER
  5
5E
330
2
100
AcDbSymbolTableRecord
100
AcDbLayerTableRecord
  2
26
 70
     0
 62
   179
  6
Continuous
370
    -3
390
F
  0
LAYER
  5
5F
330
2
100
AcDbSymbolTableRecord
100
AcDbLayerTableRecord
  2
27
 70
     0
 62
   179
  6
Continuous
370
    -3
390
F
  0
LAYER
  5
60
330
2
100
AcDbSymbolTableRecord
100
AcDbLayerTableRecord
  2
28
 70
     0
 62
   179
  6
Continuous
370
    -3
390
F
  0
LAYER
  5
61
330
2
100
AcDbSymbolTableRecord
100
AcDbLayerTableRecord
  2
29
 70
     0
 62
   179
  6
Continuous
370
    -3
390
F
  0
LAYER
  5
62
330
2
100
AcDbSymbolTableRecord
100
AcDbLayerTableRecord
  2
30
 70
     0
 62
   179
  6
Continuous
370
    -3
390
F
  0
LAYER
  5
63
330
2
100
AcDbSymbolTableRecord
100
AcDbLayerTableRecord
  2
31
 70
     0
 62
   179
  6
Continuous
370
    -3
390
F
  0
LAYER
  5
64
330
2
100
AcDbSymbolTableRecord
100
AcDbLayerTableRecord
  2
32
 70
     0
 62
   179
  6
Continuous
370
    -3
390
F
  0
LAYER
  5
65
330
2
100
AcDbSymbolTableRecord
100
AcDbLayerTableRecord
  2
33
 70
     0
 62
   179
  6
Continuous
370
    -3
390
F
  0
LAYER
  5
66
330
2
100
AcDbSymbolTableRecord
100
AcDbLayerTableRecord
  2
34
 70
     0
 62
   179
  6
Continuous
370
    -3
390
F
  0
LAYER
  5
67
330
2
100
AcDbSymbolTableRecord
100
AcDbLayerTableRecord
  2
35
 70
     0
 62
   179
  6
Continuous
370
    -3
390
F
  0
LAYER
  5
68
330
2
100
AcDbSymbolTableRecord
100
AcDbLayerTableRecord
  2
36
 70
     0
 62
   179
  6
Continuous
370
    -3
390
F
  0
LAYER
  5
69
330
2
100
AcDbSymbolTableRecord
100
AcDbLayerTableRecord
  2
37
 70
     0
 62
   179
  6
Continuous
370
    -3
390
F
  0
LAYER
  5
6A
330
2
100
AcDbSymbolTableRecord
100
AcDbLayerTableRecord
  2
38
 70
     0
 62
   179
  6
Continuous
370
    -3
390
F
  0
LAYER
  5
6B
330
2
100
AcDbSymbolTableRecord
100
AcDbLayerTableRecord
  2
39
 70
     0
 62
   179
  6
Continuous
370
    -3
390
F
  0
LAYER
  5
6C
330
2
100
AcDbSymbolTableRecord
100
AcDbLayerTableRecord
  2
40
 70
     0
 62
   179
  6
Continuous
370
    -3
390
F
  0
LAYER
  5
6D
330
2
100
AcDbSymbolTableRecord
100
AcDbLayerTableRecord
  2
41
 70
     0
 62
   179
  6
Continuous
370
    -3
390
F
  0
LAYER
  5
6E
330
2
100
AcDbSymbolTableRecord
100
AcDbLayerTableRecord
  2
42
 70
     0
 62
   179
  6
Continuous
370
    -3
390
F
  0
LAYER
  5
6F
330
2
100
AcDbSymbolTableRecord
100
AcDbLayerTableRecord
  2
43
 70
     0
 62
   179
  6
Continuous
370
    -3
390
F
  0
LAYER
  5
70
330
2
100
AcDbSymbolTableRecord
100
AcDbLayerTableRecord
  2
44
 70
     0
 62
   179
  6
Continuous
370
    -3
390
F
  0
LAYER
  5
71
330
2
100
AcDbSymbolTableRecord
100
AcDbLayerTableRecord
  2
45
 70
     0
 62
   179
  6
Continuous
370
    -3
390
F
  0
LAYER
  5
72
330
2
100
AcDbSymbolTableRecord
100
AcDbLayerTableRecord
  2
46
 70
     0
 62
  -179
  6
Continuous
370
    -3
390
F
  0
LAYER
  5
73
330
2
100
AcDbSymbolTableRecord
100
AcDbLayerTableRecord
  2
47
 70
     0
 62
   179
  6
Continuous
370
    -3
390
F
  0
LAYER
  5
74
330
2
100
AcDbSymbolTableRecord
100
AcDbLayerTableRecord
  2
48
 70
     0
 62
   179
  6
Continuous
370
    -3
390
F
  0
LAYER
  5
75
330
2
100
AcDbSymbolTableRecord
100
AcDbLayerTableRecord
  2
49
 70
     0
 62
   179
  6
Continuous
370
    -3
390
F
  0
LAYER
  5
76
330
2
100
AcDbSymbolTableRecord
100
AcDbLayerTableRecord
  2
50
 70
     0
 62
   179
  6
Continuous
370
    -3
390
F
  0
LAYER
  5
77
330
2
100
AcDbSymbolTableRecord
100
AcDbLayerTableRecord
  2
51
 70
     0
 62
   179
  6
Continuous
370
    -3
390
F
  0
LAYER
  5
78
330
2
100
AcDbSymbolTableRecord
100
AcDbLayerTableRecord
  2
52
 70
     0
 62
   179
  6
Continuous
370
    -3
390
F
  0
LAYER
  5
79
330
2
100
AcDbSymbolTableRecord
100
AcDbLayerTableRecord
  2
53
 70
     0
 62
   179
  6
Continuous
370
    -3
390
F
  0
LAYER
  5
7A
330
2
100
AcDbSymbolTableRecord
100
AcDbLayerTableRecord
  2
54
 70
     0
 62
   179
  6
Continuous
370
    -3
390
F
  0
LAYER
  5
7B
330
2
100
AcDbSymbolTableRecord
100
AcDbLayerTableRecord
  2
55
 70
     0
 62
   179
  6
Continuous
370
    -3
390
F
  0
LAYER
  5
7C
330
2
100
AcDbSymbolTableRecord
100
AcDbLayerTableRecord
  2
56
 70
     0
 62
   179
  6
Continuous
370
    -3
390
F
  0
LAYER
  5
7D
330
2
100
AcDbSymbolTableRecord
100
AcDbLayerTableRecord
  2
57
 70
     0
 62
   179
  6
Continuous
370
    -3
390
F
  0
LAYER
  5
7E
330
2
100
AcDbSymbolTableRecord
100
AcDbLayerTableRecord
  2
58
 70
     0
 62
   179
  6
Continuous
370
    -3
390
F
  0
LAYER
  5
7F
330
2
100
AcDbSymbolTableRecord
100
AcDbLayerTableRecord
  2
59
 70
     0
 62
   179
  6
Continuous
370
    -3
390
F
  0
LAYER
  5
80
330
2
100
AcDbSymbolTableRecord
100
AcDbLayerTableRecord
  2
60
 70
     0
 62
   179
  6
Continuous
370
    -3
390
F
  0
LAYER
  5
81
330
2
100
AcDbSymbolTableRecord
100
AcDbLayerTableRecord
  2
61
 70
     0
 62
   179
  6
Continuous
370
    -3
390
F
  0
LAYER
  5
82
330
2
100
AcDbSymbolTableRecord
100
AcDbLayerTableRecord
  2
62
 70
     0
 62
   179
  6
Continuous
370
    -3
390
F
  0
LAYER
  5
83
330
2
100
AcDbSymbolTableRecord
100
AcDbLayerTableRecord
  2
63
 70
     0
 62
   179
  6
Continuous
370
    -3
390
F
  0
LAYER
  5
84
330
2
100
AcDbSymbolTableRecord
100
AcDbLayerTableRecord
  2
64
 70
     0
 62
   179
  6
Continuous
370
    -3
390
F
  0
LAYER
  5
85
330
2
100
AcDbSymbolTableRecord
100
AcDbLayerTableRecord
  2
65
 70
     0
 62
   179
  6
Continuous
370
    -3
390
F
  0
LAYER
  5
86
330
2
100
AcDbSymbolTableRecord
100
AcDbLayerTableRecord
  2
66
 70
     0
 62
   179
  6
Continuous
370
    -3
390
F
  0
LAYER
  5
87
330
2
100
AcDbSymbolTableRecord
100
AcDbLayerTableRecord
  2
67
 70
     0
 62
   179
  6
Continuous
370
    -3
390
F
  0
LAYER
  5
88
330
2
100
AcDbSymbolTableRecord
100
AcDbLayerTableRecord
  2
68
 70
     0
 62
   179
  6
Continuous
370
    -3
390
F
  0
LAYER
  5
89
330
2
100
AcDbSymbolTableRecord
100
AcDbLayerTableRecord
  2
69
 70
     0
 62
   179
  6
Continuous
370
    -3
390
F
  0
LAYER
  5
8A
330
2
100
AcDbSymbolTableRecord
100
AcDbLayerTableRecord
  2
70
 70
     0
 62
   179
  6
Continuous
370
    -3
390
F
  0
LAYER
  5
8B
330
2
100
AcDbSymbolTableRecord
100
AcDbLayerTableRecord
  2
71
 70
     0
 62
   179
  6
Continuous
370
    -3
390
F
  0
LAYER
  5
8C
330
2
100
AcDbSymbolTableRecord
100
AcDbLayerTableRecord
  2
72
 70
     0
 62
   179
  6
Continuous
370
    -3
390
F
  0
LAYER
  5
8D
330
2
100
AcDbSymbolTableRecord
100
AcDbLayerTableRecord
  2
73
 70
     0
 62
   179
  6
Continuous
370
    -3
390
F
  0
LAYER
  5
8E
330
2
100
AcDbSymbolTableRecord
100
AcDbLayerTableRecord
  2
74
 70
     0
 62
   179
  6
Continuous
370
    -3
390
F
  0
LAYER
  5
8F
330
2
100
AcDbSymbolTableRecord
100
AcDbLayerTableRecord
  2
75
 70
     0
 62
   179
  6
Continuous
370
    -3
390
F
  0
LAYER
  5
90
330
2
100
AcDbSymbolTableRecord
100
AcDbLayerTableRecord
  2
76
 70
     0
 62
   179
  6
Continuous
370
    -3
390
F
  0
LAYER
  5
91
330
2
100
AcDbSymbolTableRecord
100
AcDbLayerTableRecord
  2
77
 70
     0
 62
   179
  6
Continuous
370
    -3
390
F
  0
LAYER
  5
92
330
2
100
AcDbSymbolTableRecord
100
AcDbLayerTableRecord
  2
78
 70
     0
 62
   179
  6
Continuous
370
    -3
390
F
  0
LAYER
  5
93
330
2
100
AcDbSymbolTableRecord
100
AcDbLayerTableRecord
  2
79
 70
     0
 62
   179
  6
Continuous
370
    -3
390
F
  0
LAYER
  5
94
330
2
100
AcDbSymbolTableRecord
100
AcDbLayerTableRecord
  2
80
 70
     0
 62
   179
  6
Continuous
370
    -3
390
F
  0
LAYER
  5
95
330
2
100
AcDbSymbolTableRecord
100
AcDbLayerTableRecord
  2
81
 70
     0
 62
   179
  6
Continuous
370
    -3
390
F
  0
LAYER
  5
96
330
2
100
AcDbSymbolTableRecord
100
AcDbLayerTableRecord
  2
82
 70
     0
 62
   179
  6
Continuous
370
    -3
390
F
  0
LAYER
  5
97
330
2
100
AcDbSymbolTableRecord
100
AcDbLayerTableRecord
  2
83
 70
     0
 62
   179
  6
Continuous
370
    -3
390
F
  0
LAYER
  5
98
330
2
100
AcDbSymbolTableRecord
100
AcDbLayerTableRecord
  2
84
 70
     0
 62
   179
  6
Continuous
370
    -3
390
F
  0
LAYER
  5
99
330
2
100
AcDbSymbolTableRecord
100
AcDbLayerTableRecord
  2
85
 70
     0
 62
   179
  6
Continuous
370
    -3
390
F
  0
LAYER
  5
9A
330
2
100
AcDbSymbolTableRecord
100
AcDbLayerTableRecord
  2
86
 70
     0
 62
   179
  6
Continuous
370
    -3
390
F
  0
LAYER
  5
9B
330
2
100
AcDbSymbolTableRecord
100
AcDbLayerTableRecord
  2
87
 70
     0
 62
   179
  6
Continuous
370
    -3
390
F
  0
LAYER
  5
9C
330
2
100
AcDbSymbolTableRecord
100
AcDbLayerTableRecord
  2
88
 70
     0
 62
   179
  6
Continuous
370
    -3
390
F
  0
LAYER
  5
9D
330
2
100
AcDbSymbolTableRecord
100
AcDbLayerTableRecord
  2
89
 70
     0
 62
   179
  6
Continuous
370
    -3
390
F
  0
LAYER
  5
9E
330
2
100
AcDbSymbolTableRecord
100
AcDbLayerTableRecord
  2
90
 70
     0
 62
   179
  6
Continuous
370
    -3
390
F
  0
LAYER
  5
9F
330
2
100
AcDbSymbolTableRecord
100
AcDbLayerTableRecord
  2
91
 70
     0
 62
   179
  6
Continuous
370
    -3
390
F
  0
LAYER
  5
A0
330
2
100
AcDbSymbolTableRecord
100
AcDbLayerTableRecord
  2
92
 70
     0
 62
   179
  6
Continuous
370
    -3
390
F
  0
LAYER
  5
A1
330
2
100
AcDbSymbolTableRecord
100
AcDbLayerTableRecord
  2
93
 70
     0
 62
   179
  6
Continuous
370
    -3
390
F
  0
LAYER
  5
A2
330
2
100
AcDbSymbolTableRecord
100
AcDbLayerTableRecord
  2
94
 70
     0
 62
   179
  6
Continuous
370
    -3
390
F
  0
LAYER
  5
A3
330
2
100
AcDbSymbolTableRecord
100
AcDbLayerTableRecord
  2
95
 70
     0
 62
   179
  6
Continuous
370
    -3
390
F
  0
LAYER
  5
A4
330
2
100
AcDbSymbolTableRecord
100
AcDbLayerTableRecord
  2
96
 70
     0
 62
   179
  6
Continuous
370
    -3
390
F
  0
LAYER
  5
A5
330
2
100
AcDbSymbolTableRecord
100
AcDbLayerTableRecord
  2
97
 70
     0
 62
   179
  6
Continuous
370
    -3
390
F
  0
LAYER
  5
A6
330
2
100
AcDbSymbolTableRecord
100
AcDbLayerTableRecord
  2
98
 70
     0
 62
   179
  6
Continuous
370
    -3
390
F
  0
LAYER
  5
A7
330
2
100
AcDbSymbolTableRecord
100
AcDbLayerTableRecord
  2
99
 70
     0
 62
   179
  6
Continuous
370
    -3
390
F
  0
LAYER
  5
A8
330
2
100
AcDbSymbolTableRecord
100
AcDbLayerTableRecord
  2
100
 70
     0
 62
   179
  6
Continuous
370
    -3
390
F
  0
LAYER
  5
A9
330
2
100
AcDbSymbolTableRecord
100
AcDbLayerTableRecord
  2
101
 70
     0
 62
   179
  6
Continuous
370
    -3
390
F
  0
LAYER
  5
AA
330
2
100
AcDbSymbolTableRecord
100
AcDbLayerTableRecord
  2
102
 70
     0
 62
   179
  6
Continuous
370
    -3
390
F
  0
LAYER
  5
AB
330
2
100
AcDbSymbolTableRecord
100
AcDbLayerTableRecord
  2
103
 70
     0
 62
   179
  6
Continuous
370
    -3
390
F
  0
LAYER
  5
AC
330
2
100
AcDbSymbolTableRecord
100
AcDbLayerTableRecord
  2
104
 70
     0
 62
   179
  6
Continuous
370
    -3
390
F
  0
LAYER
  5
AD
330
2
100
AcDbSymbolTableRecord
100
AcDbLayerTableRecord
  2
105
 70
     0
 62
   179
  6
Continuous
370
    -3
390
F
  0
LAYER
  5
AE
330
2
100
AcDbSymbolTableRecord
100
AcDbLayerTableRecord
  2
106
 70
     0
 62
   179
  6
Continuous
370
    -3
390
F
  0
LAYER
  5
AF
330
2
100
AcDbSymbolTableRecord
100
AcDbLayerTableRecord
  2
107
 70
     0
 62
   179
  6
Continuous
370
    -3
390
F
  0
LAYER
  5
B0
330
2
100
AcDbSymbolTableRecord
100
AcDbLayerTableRecord
  2
108
 70
     0
 62
   179
  6
Continuous
370
    -3
390
F
  0
LAYER
  5
B1
330
2
100
AcDbSymbolTableRecord
100
AcDbLayerTableRecord
  2
109
 70
     0
 62
   179
  6
Continuous
370
    -3
390
F
  0
LAYER
  5
B2
330
2
100
AcDbSymbolTableRecord
100
AcDbLayerTableRecord
  2
110
 70
     0
 62
   179
  6
Continuous
370
    -3
390
F
  0
LAYER
  5
B3
330
2
100
AcDbSymbolTableRecord
100
AcDbLayerTableRecord
  2
111
 70
     0
 62
   179
  6
Continuous
370
    -3
390
F
  0
LAYER
  5
B4
330
2
100
AcDbSymbolTableRecord
100
AcDbLayerTableRecord
  2
112
 70
     0
 62
   179
  6
Continuous
370
    -3
390
F
  0
LAYER
  5
B5
330
2
100
AcDbSymbolTableRecord
100
AcDbLayerTableRecord
  2
113
 70
     0
 62
   179
  6
Continuous
370
    -3
390
F
  0
LAYER
  5
B6
330
2
100
AcDbSymbolTableRecord
100
AcDbLayerTableRecord
  2
114
 70
     0
 62
   179
  6
Continuous
370
    -3
390
F
  0
LAYER
  5
B7
330
2
100
AcDbSymbolTableRecord
100
AcDbLayerTableRecord
  2
115
 70
     0
 62
   179
  6
Continuous
370
    -3
390
F
  0
LAYER
  5
B8
330
2
100
AcDbSymbolTableRecord
100
AcDbLayerTableRecord
  2
116
 70
     0
 62
   179
  6
Continuous
370
    -3
390
F
  0
LAYER
  5
B9
330
2
100
AcDbSymbolTableRecord
100
AcDbLayerTableRecord
  2
117
 70
     0
 62
   179
  6
Continuous
370
    -3
390
F
  0
LAYER
  5
BA
330
2
100
AcDbSymbolTableRecord
100
AcDbLayerTableRecord
  2
118
 70
     0
 62
   179
  6
Continuous
370
    -3
390
F
  0
LAYER
  5
BB
330
2
100
AcDbSymbolTableRecord
100
AcDbLayerTableRecord
  2
119
 70
     0
 62
   179
  6
Continuous
370
    -3
390
F
  0
LAYER
  5
BC
330
2
100
AcDbSymbolTableRecord
100
AcDbLayerTableRecord
  2
120
 70
     0
 62
   179
  6
Continuous
370
    -3
390
F
  0
LAYER
  5
BD
330
2
100
AcDbSymbolTableRecord
100
AcDbLayerTableRecord
  2
121
 70
     0
 62
   179
  6
Continuous
370
    -3
390
F
  0
LAYER
  5
BE
330
2
100
AcDbSymbolTableRecord
100
AcDbLayerTableRecord
  2
122
 70
     0
 62
   179
  6
Continuous
370
    -3
390
F
  0
LAYER
  5
BF
330
2
100
AcDbSymbolTableRecord
100
AcDbLayerTableRecord
  2
123
 70
     0
 62
   179
  6
Continuous
370
    -3
390
F
  0
LAYER
  5
C0
330
2
100
AcDbSymbolTableRecord
100
AcDbLayerTableRecord
  2
124
 70
     0
 62
   179
  6
Continuous
370
    -3
390
F
  0
LAYER
  5
C1
330
2
100
AcDbSymbolTableRecord
100
AcDbLayerTableRecord
  2
125
 70
     0
 62
   179
  6
Continuous
370
    -3
390
F
  0
LAYER
  5
C2
330
2
100
AcDbSymbolTableRecord
100
AcDbLayerTableRecord
  2
126
 70
     0
 62
   179
  6
Continuous
370
    -3
390
F
  0
LAYER
  5
C3
330
2
100
AcDbSymbolTableRecord
100
AcDbLayerTableRecord
  2
127
 70
     0
 62
   179
  6
Continuous
370
    -3
390
F
  0
LAYER
  5
C4
330
2
100
AcDbSymbolTableRecord
100
AcDbLayerTableRecord
  2
128
 70
     0
 62
   179
  6
Continuous
370
    -3
390
F
  0
LAYER
  5
C5
330
2
100
AcDbSymbolTableRecord
100
AcDbLayerTableRecord
  2
129
 70
     0
 62
   179
  6
Continuous
370
    -3
390
F
  0
LAYER
  5
C6
330
2
100
AcDbSymbolTableRecord
100
AcDbLayerTableRecord
  2
130
 70
     0
 62
   179
  6
Continuous
370
    -3
390
F
  0
LAYER
  5
C7
330
2
100
AcDbSymbolTableRecord
100
AcDbLayerTableRecord
  2
131
 70
     0
 62
   179
  6
Continuous
370
    -3
390
F
  0
LAYER
  5
C8
330
2
100
AcDbSymbolTableRecord
100
AcDbLayerTableRecord
  2
132
 70
     0
 62
   179
  6
Continuous
370
    -3
390
F
  0
LAYER
  5
C9
330
2
100
AcDbSymbolTableRecord
100
AcDbLayerTableRecord
  2
133
 70
     0
 62
   179
  6
Continuous
370
    -3
390
F
  0
LAYER
  5
CA
330
2
100
AcDbSymbolTableRecord
100
AcDbLayerTableRecord
  2
134
 70
     0
 62
   179
  6
Continuous
370
    -3
390
F
  0
LAYER
  5
CB
330
2
100
AcDbSymbolTableRecord
100
AcDbLayerTableRecord
  2
135
 70
     0
 62
   179
  6
Continuous
370
    -3
390
F
  0
LAYER
  5
CC
330
2
100
AcDbSymbolTableRecord
100
AcDbLayerTableRecord
  2
136
 70
     0
 62
   179
  6
Continuous
370
    -3
390
F
  0
LAYER
  5
CD
330
2
100
AcDbSymbolTableRecord
100
AcDbLayerTableRecord
  2
137
 70
     0
 62
   179
  6
Continuous
370
    -3
390
F
  0
LAYER
  5
CE
330
2
100
AcDbSymbolTableRecord
100
AcDbLayerTableRecord
  2
138
 70
     0
 62
   179
  6
Continuous
370
    -3
390
F
  0
LAYER
  5
CF
330
2
100
AcDbSymbolTableRecord
100
AcDbLayerTableRecord
  2
139
 70
     0
 62
   179
  6
Continuous
370
    -3
390
F
  0
LAYER
  5
D0
330
2
100
AcDbSymbolTableRecord
100
AcDbLayerTableRecord
  2
140
 70
     0
 62
   179
  6
Continuous
370
    -3
390
F
  0
LAYER
  5
D1
330
2
100
AcDbSymbolTableRecord
100
AcDbLayerTableRecord
  2
141
 70
     0
 62
   179
  6
Continuous
370
    -3
390
F
  0
LAYER
  5
D2
330
2
100
AcDbSymbolTableRecord
100
AcDbLayerTableRecord
  2
142
 70
     0
 62
   179
  6
Continuous
370
    -3
390
F
  0
LAYER
  5
D3
330
2
100
AcDbSymbolTableRecord
100
AcDbLayerTableRecord
  2
143
 70
     0
 62
   179
  6
Continuous
370
    -3
390
F
  0
LAYER
  5
D4
330
2
100
AcDbSymbolTableRecord
100
AcDbLayerTableRecord
  2
144
 70
     0
 62
   179
  6
Continuous
370
    -3
390
F
  0
LAYER
  5
D5
330
2
100
AcDbSymbolTableRecord
100
AcDbLayerTableRecord
  2
145
 70
     0
 62
   179
  6
Continuous
370
    -3
390
F
  0
LAYER
  5
D6
330
2
100
AcDbSymbolTableRecord
100
AcDbLayerTableRecord
  2
146
 70
     0
 62
   179
  6
Continuous
370
    -3
390
F
  0
LAYER
  5
D7
330
2
100
AcDbSymbolTableRecord
100
AcDbLayerTableRecord
  2
147
 70
     0
 62
   179
  6
Continuous
370
    -3
390
F
  0
LAYER
  5
D8
330
2
100
AcDbSymbolTableRecord
100
AcDbLayerTableRecord
  2
148
 70
     0
 62
   179
  6
Continuous
370
    -3
390
F
  0
LAYER
  5
D9
330
2
100
AcDbSymbolTableRecord
100
AcDbLayerTableRecord
  2
149
 70
     0
 62
   179
  6
Continuous
370
    -3
390
F
  0
LAYER
  5
DA
330
2
100
AcDbSymbolTableRecord
100
AcDbLayerTableRecord
  2
150
 70
     0
 62
   179
  6
Continuous
370
    -3
390
F
  0
LAYER
  5
DB
330
2
100
AcDbSymbolTableRecord
100
AcDbLayerTableRecord
  2
151
 70
     0
 62
   179
  6
Continuous
370
    -3
390
F
  0
LAYER
  5
DC
330
2
100
AcDbSymbolTableRecord
100
AcDbLayerTableRecord
  2
152
 70
     0
 62
   179
  6
Continuous
370
    -3
390
F
  0
LAYER
  5
DD
330
2
100
AcDbSymbolTableRecord
100
AcDbLayerTableRecord
  2
153
 70
     0
 62
   179
  6
Continuous
370
    -3
390
F
  0
LAYER
  5
DE
330
2
100
AcDbSymbolTableRecord
100
AcDbLayerTableRecord
  2
154
 70
     0
 62
   179
  6
Continuous
370
    -3
390
F
  0
LAYER
  5
DF
330
2
100
AcDbSymbolTableRecord
100
AcDbLayerTableRecord
  2
155
 70
     0
 62
   179
  6
Continuous
370
    -3
390
F
  0
LAYER
  5
E0
330
2
100
AcDbSymbolTableRecord
100
AcDbLayerTableRecord
  2
156
 70
     0
 62
   179
  6
Continuous
370
    -3
390
F
  0
LAYER
  5
E1
330
2
100
AcDbSymbolTableRecord
100
AcDbLayerTableRecord
  2
157
 70
     0
 62
   179
  6
Continuous
370
    -3
390
F
  0
LAYER
  5
E2
330
2
100
AcDbSymbolTableRecord
100
AcDbLayerTableRecord
  2
158
 70
     0
 62
   179
  6
Continuous
370
    -3
390
F
  0
LAYER
  5
E3
330
2
100
AcDbSymbolTableRecord
100
AcDbLayerTableRecord
  2
159
 70
     0
 62
   179
  6
Continuous
370
    -3
390
F
  0
LAYER
  5
E4
330
2
100
AcDbSymbolTableRecord
100
AcDbLayerTableRecord
  2
160
 70
     0
 62
   179
  6
Continuous
370
    -3
390
F
  0
LAYER
  5
E5
330
2
100
AcDbSymbolTableRecord
100
AcDbLayerTableRecord
  2
161
 70
     0
 62
   179
  6
Continuous
370
    -3
390
F
  0
LAYER
  5
E6
330
2
100
AcDbSymbolTableRecord
100
AcDbLayerTableRecord
  2
162
 70
     0
 62
   179
  6
Continuous
370
    -3
390
F
  0
LAYER
  5
E7
330
2
100
AcDbSymbolTableRecord
100
AcDbLayerTableRecord
  2
163
 70
     0
 62
   179
  6
Continuous
370
    -3
390
F
  0
LAYER
  5
E8
330
2
100
AcDbSymbolTableRecord
100
AcDbLayerTableRecord
  2
164
 70
     0
 62
   179
  6
Continuous
370
    -3
390
F
  0
LAYER
  5
E9
330
2
100
AcDbSymbolTableRecord
100
AcDbLayerTableRecord
  2
165
 70
     0
 62
   179
  6
Continuous
370
    -3
390
F
  0
LAYER
  5
EA
330
2
100
AcDbSymbolTableRecord
100
AcDbLayerTableRecord
  2
166
 70
     0
 62
   179
  6
Continuous
370
    -3
390
F
  0
LAYER
  5
EB
330
2
100
AcDbSymbolTableRecord
100
AcDbLayerTableRecord
  2
167
 70
     0
 62
   179
  6
Continuous
370
    -3
390
F
  0
LAYER
  5
EC
330
2
100
AcDbSymbolTableRecord
100
AcDbLayerTableRecord
  2
168
 70
     0
 62
   179
  6
Continuous
370
    -3
390
F
  0
LAYER
  5
ED
330
2
100
AcDbSymbolTableRecord
100
AcDbLayerTableRecord
  2
169
 70
     0
 62
   179
  6
Continuous
370
    -3
390
F
  0
LAYER
  5
EE
330
2
100
AcDbSymbolTableRecord
100
AcDbLayerTableRecord
  2
170
 70
     0
 62
   179
  6
Continuous
370
    -3
390
F
  0
LAYER
  5
EF
330
2
100
AcDbSymbolTableRecord
100
AcDbLayerTableRecord
  2
171
 70
     0
 62
   179
  6
Continuous
370
    -3
390
F
  0
LAYER
  5
F0
330
2
100
AcDbSymbolTableRecord
100
AcDbLayerTableRecord
  2
172
 70
     0
 62
   179
  6
Continuous
370
    -3
390
F
  0
LAYER
  5
F1
330
2
100
AcDbSymbolTableRecord
100
AcDbLayerTableRecord
  2
173
 70
     0
 62
   179
  6
Continuous
370
    -3
390
F
  0
LAYER
  5
F2
330
2
100
AcDbSymbolTableRecord
100
AcDbLayerTableRecord
  2
174
 70
     0
 62
   179
  6
Continuous
370
    -3
390
F
  0
LAYER
  5
F3
330
2
100
AcDbSymbolTableRecord
100
AcDbLayerTableRecord
  2
175
 70
     0
 62
   179
  6
Continuous
370
    -3
390
F
  0
LAYER
  5
F4
330
2
100
AcDbSymbolTableRecord
100
AcDbLayerTableRecord
  2
176
 70
     0
 62
   179
  6
Continuous
370
    -3
390
F
  0
LAYER
  5
F5
330
2
100
AcDbSymbolTableRecord
100
AcDbLayerTableRecord
  2
177
 70
     0
 62
   179
  6
Continuous
370
    -3
390
F
  0
LAYER
  5
F6
330
2
100
AcDbSymbolTableRecord
100
AcDbLayerTableRecord
  2
178
 70
     0
 62
   179
  6
Continuous
370
    -3
390
F
  0
LAYER
  5
F7
330
2
100
AcDbSymbolTableRecord
100
AcDbLayerTableRecord
  2
179
 70
     0
 62
   179
  6
Continuous
370
    -3
390
F
  0
LAYER
  5
F8
330
2
100
AcDbSymbolTableRecord
100
AcDbLayerTableRecord
  2
180
 70
     0
 62
   179
  6
Continuous
370
    -3
390
F
  0
LAYER
  5
F9
330
2
100
AcDbSymbolTableRecord
100
AcDbLayerTableRecord
  2
DRAFTING_HIDDEN_ENTITIES
 70
     0
 62
   179
  6
Continuous
370
    -3
390
F
  0
ENDTAB
  0
TABLE
  2
STYLE
  5
3
330
0
100
AcDbSymbolTable
 70
     2
  0
STYLE
  5
11
330
3
100
AcDbSymbolTableRecord
100
AcDbTextStyleTableRecord
  2
Standard
 70
     0
 40
0.0
 41
1.0
 50
0.0
 71
     0
 42
0.4814814815
  3
txt
  4

  0
STYLE
  5
115
330
3
100
AcDbSymbolTableRecord
100
AcDbTextStyleTableRecord
  2
SLDTEXTSTYLE0
 70
     0
 40
0.0
 41
0.75
 50
0.0
 71
     0
 42
0.2
  3
TXT
  4

  0
ENDTAB
  0
TABLE
  2
VIEW
  5
6
330
0
100
AcDbSymbolTable
 70
     0
  0
ENDTAB
  0
TABLE
  2
UCS
  5
7
330
0
100
AcDbSymbolTable
 70
     0
  0
ENDTAB
  0
TABLE
  2
APPID
  5
9
330
0
100
AcDbSymbolTable
 70
     1
  0
APPID
  5
12
330
9
100
AcDbSymbolTableRecord
100
AcDbRegAppTableRecord
  2
ACAD
 70
     0
  0
ENDTAB
  0
TABLE
  2
DIMSTYLE
  5
A
330
0
100
AcDbSymbolTable
 70
     5
100
AcDbDimStyleTable
  0
DIMSTYLE
105
27
330
A
100
AcDbSymbolTableRecord
100
AcDbDimStyleTableRecord
  2
Standard
 70
     0
178
     0
340
11
  0
DIMSTYLE
105
116
102
{ACAD_REACTORS
330
114
330
164
330
177
330
186
330
199
330
1AC
330
1BB
330
227
102
}
330
A
100
AcDbSymbolTableRecord
100
AcDbDimStyleTableRecord
  2
SLDDIMSTYLE0
 70
     0
 41
0.375
 44
0.0
 45
0.000000001
 78
    12
 79
     3
140
0.375
141
0.0
147
0.09375
148
0.000000001
170
     1
173
     1
178
     0
271
     2
272
     2
276
     2
277
     5
284
    12
340
115
  0
DIMSTYLE
105
12A
102
{ACAD_REACTORS
330
129
330
13C
330
14E
330
1DE
330
1EF
330
203
102
}
330
A
100
AcDbSymbolTableRecord
100
AcDbDimStyleTableRecord
  2
SLDDIMSTYLE1
 70
     0
 41
0.375
 44
0.0
 45
0.000000001
 78
    12
 79
     3
140
0.375
147
0.09375
148
0.000000001
170
     1
173
     1
178
     0
271
     2
272
     2
276
     2
277
     5
284
    12
340
115
  0
DIMSTYLE
105
1CF
102
{ACAD_REACTORS
330
1CE
330
218
102
}
330
A
100
AcDbSymbolTableRecord
100
AcDbDimStyleTableRecord
  2
SLDDIMSTYLE2
 70
     0
 41
0.375
 44
0.0
 45
0.000000001
 78
    12
 79
     3
140
0.375
141
0.0
147
0.09375
148
0.000000001
170
     1
173
     1
178
     0
271
     2
272
     2
276
     2
277
     5
284
    12
340
115
  0
DIMSTYLE
105
23D
330
A
100
AcDbSymbolTableRecord
100
AcDbDimStyleTableRecord
  2
SLDDIMSTYLE3
 70
     0
 41
0.375
 44
0.0
 45
0.000000001
140
0.0
146
0.375
147
0.0
173
     1
178
     0
271
     0
272
     0
276
     2
277
     5
340
11
  0
ENDTAB
  0
TABLE
  2
BLOCK_RECORD
  5
1
330
0
100
AcDbSymbolTable
 70
    19
  0
BLOCK_RECORD
  5
1F
330
1
100
AcDbSymbolTableRecord
100
AcDbBlockTableRecord
  2
*Model_Space
340
22
  0
BLOCK_RECORD
  5
1B
330
1
100
AcDbSymbolTableRecord
100
AcDbBlockTableRecord
  2
*Paper_Space
340
1E
  0
BLOCK_RECORD
  5
23
330
1
100
AcDbSymbolTableRecord
100
AcDbBlockTableRecord
  2
*Paper_Space0
340
26
  0
BLOCK_RECORD
  5
117
330
1
100
AcDbSymbolTableRecord
100
AcDbBlockTableRecord
  2
_D
340
0
  0
BLOCK_RECORD
  5
12B
330
1
100
AcDbSymbolTableRecord
100
AcDbBlockTableRecord
  2
_D_1
340
0
  0
BLOCK_RECORD
  5
13D
330
1
100
AcDbSymbolTableRecord
100
AcDbBlockTableRecord
  2
_D_2
340
0
  0
BLOCK_RECORD
  5
14F
330
1
100
AcDbSymbolTableRecord
100
AcDbBlockTableRecord
  2
_D_3
340
0
  0
BLOCK_RECORD
  5
165
330
1
100
AcDbSymbolTableRecord
100
AcDbBlockTableRecord
  2
_D_4
340
0
  0
BLOCK_RECORD
  5
178
330
1
100
AcDbSymbolTableRecord
100
AcDbBlockTableRecord
  2
_D_5
340
0
  0
BLOCK_RECORD
  5
187
330
1
100
AcDbSymbolTableRecord
100
AcDbBlockTableRecord
  2
_D_6
340
0
  0
BLOCK_RECORD
  5
19A
330
1
100
AcDbSymbolTableRecord
100
AcDbBlockTableRecord
  2
_D_7
340
0
  0
BLOCK_RECORD
  5
1AD
330
1
100
AcDbSymbolTableRecord
100
AcDbBlockTableRecord
  2
_D_8
340
0
  0
BLOCK_RECORD
  5
1BC
330
1
100
AcDbSymbolTableRecord
100
AcDbBlockTableRecord
  2
_D_9
340
0
  0
BLOCK_RECORD
  5
1D0
330
1
100
AcDbSymbolTableRecord
100
AcDbBlockTableRecord
  2
_D_10
340
0
  0
BLOCK_RECORD
  5
1DF
330
1
100
AcDbSymbolTableRecord
100
AcDbBlockTableRecord
  2
_D_11
340
0
  0
BLOCK_RECORD
  5
1F0
330
1
100
AcDbSymbolTableRecord
100
AcDbBlockTableRecord
  2
_D_12
340
0
  0
BLOCK_RECORD
  5
204
330
1
100
AcDbSymbolTableRecord
100
AcDbBlockTableRecord
  2
_D_13
340
0
  0
BLOCK_RECORD
  5
219
330
1
100
AcDbSymbolTableRecord
100
AcDbBlockTableRecord
  2
_D_14
340
0
  0
BLOCK_RECORD
  5
228
330
1
100
AcDbSymbolTableRecord
100
AcDbBlockTableRecord
  2
_D_15
340
0
  0
BLOCK_RECORD
  5
237
330
1
100
AcDbSymbolTableRecord
100
AcDbBlockTableRecord
  2
SW_NOTE_0
340
0
102
{BLKREFS
331
23C
102
}
  0
BLOCK_RECORD
  5
23F
330
1
100
AcDbSymbolTableRecord
100
AcDbBlockTableRecord
  2
SW_NOTE_1
340
0
102
{BLKREFS
331
244
102
}
  0
ENDTAB
  0
ENDSEC
  0
SECTION
  2
BLOCKS
  0
BLOCK
  5
20
330
1F
100
AcDbEntity
  8
0
100
AcDbBlockBegin
  2
*Model_Space
 70
     0
 10
0.0
 20
0.0
 30
0.0
  3
*Model_Space
  1

  0
ENDBLK
  5
21
330
1F
100
AcDbEntity
  8
0
100
AcDbBlockEnd
  0
BLOCK
  5
1C
330
1B
100
AcDbEntity
 67
     1
  8
0
100
AcDbBlockBegin
  2
*Paper_Space
 70
     0
 10
0.0
 20
0.0
 30
0.0
  3
*Paper_Space
  1

  0
ENDBLK
  5
1D
330
1B
100
AcDbEntity
 67
     1
  8
0
100
AcDbBlockEnd
  0
BLOCK
  5
24
330
23
100
AcDbEntity
  8
0
100
AcDbBlockBegin
  2
*Paper_Space0
 70
     0
 10
0.0
 20
0.0
 30
0.0
  3
*Paper_Space0
  1

  0
ENDBLK
  5
25
330
23
100
AcDbEntity
  8
0
100
AcDbBlockEnd
  0
BLOCK
  5
118
330
117
100
AcDbEntity
  8
0
100
AcDbBlockBegin
  2
_D
 70
     0
 10
0.0
 20
0.0
 30
0.0
  3
_D
  1

  0
SOLID
  5
11A
330
117
100
AcDbEntity
  8
1
100
AcDbTrace
 10
34.0761724263
 20
6.2251564632
 30
0.0
 11
34.2707395041
 21
5.899431035
 31
0.0
 12
34.3596480917
 22
5.9729760724
 32
0.0
 13
34.3596480917
 23
5.9729760724
 33
0.0
  0
LINE
  5
11B
330
117
100
AcDbEntity
  8
1
100
AcDbLine
 10
37.4521940551
 20
3.6325545713
 30
0.0
 11
37.8396940587
 21
3.6325545713
 31
0.0
  0
LINE
  5
11C
330
117
100
AcDbEntity
  8
1
100
AcDbLine
 10
36.866864284
 20
3.0123462267
 30
0.0
 11
36.7908226162
 21
3.0123462267
 31
0.0
  0
LINE
  5
11D
330
117
100
AcDbEntity
  8
1
100
AcDbLine
 10
36.7908226162
 20
3.0123462267
 30
0.0
 11
36.7908226162
 21
2.4165128831
 31
0.0
  0
LINE
  5
11E
330
117
100
AcDbEntity
  8
1
100
AcDbLine
 10
36.7908226162
 20
2.4165128831
 30
0.0
 11
36.866864284
 21
2.4165128831
 31
0.0
  0
LINE
  5
11F
330
117
100
AcDbEntity
  8
1
100
AcDbLine
 10
38.303496207
 20
3.0123462267
 30
0.0
 11
38.3795378749
 21
3.0123462267
 31
0.0
  0
LINE
  5
120
330
117
100
AcDbEntity
  8
1
100
AcDbLine
 10
38.3795378749
 20
3.0123462267
 30
0.0
 11
38.3795378749
 21
2.4165128831
 31
0.0
  0
LINE
  5
121
330
117
100
AcDbEntity
  8
1
100
AcDbLine
 10
38.3795378749
 20
2.4165128831
 30
0.0
 11
38.303496207
 21
2.4165128831
 31
0.0
  0
LINE
  5
122
330
117
100
AcDbEntity
  8
1
100
AcDbLine
 10
34.0761724263
 20
6.2251564632
 30
0.0
 11
36.4837913642
 21
3.3145861968
 31
0.0
  0
LINE
  5
123
330
117
100
AcDbEntity
  8
1
100
AcDbLine
 10
36.4837913642
 20
3.3145861968
 30
0.0
 11
36.7337913642
 21
3.3145861968
 31
0.0
  0
MTEXT
  5
124
330
117
100
AcDbEntity
  8
1
100
AcDbMText
 10
36.8164301828
 20
3.8399147416
 30
0.0039370079
 40
0.375
 41
0.0
 71
     1
 72
     1
  1
R3
  7
SLDTEXTSTYLE0
 73
     1
 44
1.0
  0
MTEXT
  5
125
330
117
100
AcDbEntity
  8
1
100
AcDbMText
 10
37.5074023898
 20
4.0828299587
 30
0.0039370079
 40
0.375
 41
0.0
 71
     1
 72
     1
  1
1
  7
SLDTEXTSTYLE0
 73
     1
 44
1.0
  0
MTEXT
  5
126
330
117
100
AcDbEntity
  8
1
100
AcDbMText
 10
37.5074023898
 20
3.5717882992
 30
0.0039370079
 40
0.375
 41
0.0
 71
     1
 72
     1
  1
2
  7
SLDTEXTSTYLE0
 73
     1
 44
1.0
  0
MTEXT
  5
127
330
117
100
AcDbEntity
  8
1
100
AcDbMText
 10
37.8949023842
 20
3.8399147416
 30
0.0039370079
 40
0.375
 41
0.0
 71
     1
 72
     1
  1
"
  7
SLDTEXTSTYLE0
 73
     1
 44
1.0
  0
MTEXT
  5
128
330
117
100
AcDbEntity
  8
1
100
AcDbMText
 10
36.9619163722
 20
2.8999133039
 30
0.0039370079
 40
0.375
 41
0.0
 71
     1
 72
     1
  1
90.07
  7
SLDTEXTSTYLE0
 73
     1
 44
1.0
  0
ENDBLK
  5
119
330
117
100
AcDbEntity
  8
0
100
AcDbBlockEnd
  0
BLOCK
  5
12C
330
12B
100
AcDbEntity
  8
0
100
AcDbBlockBegin
  2
_D_1
 70
     0
 10
0.0
 20
0.0
 30
0.0
  3
_D_1
  1

  0
SOLID
  5
12E
330
12B
100
AcDbEntity
  8
1
100
AcDbTrace
 10
5.5666425558
 20
2.7607006976
 30
0.0
 11
5.9416425558
 21
2.70300839
 31
0.0
 12
5.9416425558
 22
2.8183930053
 32
0.0
 13
5.9416425558
 23
2.8183930053
 33
0.0
  0
SOLID
  5
12F
330
12B
100
AcDbEntity
  8
1
100
AcDbTrace
 10
35.3617230023
 20
2.7607006976
 30
0.0
 11
34.9867230023
 21
2.8183930053
 31
0.0
 12
34.9867230023
 22
2.70300839
 32
0.0
 13
34.9867230023
 23
2.70300839
 33
0.0
  0
LINE
  5
130
330
12B
100
AcDbEntity
  8
1
100
AcDbLine
 10
19.6113541903
 20
2.8086173908
 30
0.0
 11
19.5353125225
 21
2.8086173908
 31
0.0
  0
LINE
  5
131
330
12B
100
AcDbEntity
  8
1
100
AcDbLine
 10
19.5353125225
 20
2.8086173908
 30
0.0
 11
19.5353125225
 21
2.2127840472
 31
0.0
  0
LINE
  5
132
330
12B
100
AcDbEntity
  8
1
100
AcDbLine
 10
19.5353125225
 20
2.2127840472
 30
0.0
 11
19.6113541903
 21
2.2127840472
 31
0.0
  0
LINE
  5
133
330
12B
100
AcDbEntity
  8
1
100
AcDbLine
 10
21.3250693925
 20
2.8086173908
 30
0.0
 11
21.4011110603
 21
2.8086173908
 31
0.0
  0
LINE
  5
134
330
12B
100
AcDbEntity
  8
1
100
AcDbLine
 10
21.4011110603
 20
2.8086173908
 30
0.0
 11
21.4011110603
 21
2.2127840472
 31
0.0
  0
LINE
  5
135
330
12B
100
AcDbEntity
  8
1
100
AcDbLine
 10
21.4011110603
 20
2.2127840472
 30
0.0
 11
21.3250693925
 21
2.2127840472
 31
0.0
  0
LINE
  5
136
330
12B
100
AcDbEntity
  8
1
100
AcDbLine
 10
5.5666425558
 20
8.8614777572
 30
0.0
 11
5.5666425558
 21
2.6357006976
 31
0.0
  0
LINE
  5
137
330
12B
100
AcDbEntity
  8
1
100
AcDbLine
 10
35.3617230023
 20
8.8614777572
 30
0.0
 11
35.3617230023
 21
2.6357006976
 31
0.0
  0
LINE
  5
138
330
12B
100
AcDbEntity
  8
1
100
AcDbLine
 10
5.5666425558
 20
2.7607006976
 30
0.0
 11
19.402182319
 21
2.7607006976
 31
0.0
  0
LINE
  5
139
330
12B
100
AcDbEntity
  8
1
100
AcDbLine
 10
35.3617230023
 20
2.7607006976
 30
0.0
 11
21.5342411905
 21
2.7607006976
 31
0.0
  0
MTEXT
  5
13A
330
12B
100
AcDbEntity
  8
1
100
AcDbMText
 10
19.9616145504
 20
3.3680594564
 30
0.0039370079
 40
0.375
 41
0.0
 71
     1
 72
     1
  1
30"
  7
SLDTEXTSTYLE0
 73
     1
 44
1.0
  0
MTEXT
  5
13B
330
12B
100
AcDbEntity
  8
1
100
AcDbMText
 10
19.7064062785
 20
2.696184468
 30
0.0039370079
 40
0.375
 41
0.0
 71
     1
 72
     1
  1
756.80
  7
SLDTEXTSTYLE0
 73
     1
 44
1.0
  0
ENDBLK
  5
12D
330
12B
100
AcDbEntity
  8
0
100
AcDbBlockEnd
  0
BLOCK
  5
13E
330
13D
100
AcDbEntity
  8
0
100
AcDbBlockBegin
  2
_D_2
 70
     0
 10
0.0
 20
0.0
 30
0.0
  3
_D_2
  1

  0
SOLID
  5
140
330
13D
100
AcDbEntity
  8
1
100
AcDbTrace
 10
38.0134890957
 20
21.3432361048
 30
0.0
 11
37.955796788
 21
20.9682361048
 31
0.0
 12
38.0711814034
 22
20.9682361048
 32
0.0
 13
38.0711814034
 23
20.9682361048
 33
0.0
  0
SOLID
  5
141
330
13D
100
AcDbEntity
  8
1
100
AcDbTrace
 10
38.0134890957
 20
5.4114723207
 30
0.0
 11
38.0711814034
 21
5.7864723207
 31
0.0
 12
37.955796788
 22
5.7864723207
 32
0.0
 13
37.955796788
 23
5.7864723207
 33
0.0
  0
LINE
  5
142
330
13D
100
AcDbEntity
  8
1
100
AcDbLine
 10
37.1566315313
 20
11.6181163709
 30
0.0
 11
37.0805898635
 21
11.6181163709
 31
0.0
  0
LINE
  5
143
330
13D
100
AcDbEntity
  8
1
100
AcDbLine
 10
37.0805898635
 20
11.6181163709
 30
0.0
 11
37.0805898635
 21
11.0222830274
 31
0.0
  0
LINE
  5
144
330
13D
100
AcDbEntity
  8
1
100
AcDbLine
 10
37.0805898635
 20
11.0222830274
 30
0.0
 11
37.1566315313
 21
11.0222830274
 31
0.0
  0
LINE
  5
145
330
13D
100
AcDbEntity
  8
1
100
AcDbLine
 10
38.8703467335
 20
11.6181163709
 30
0.0
 11
38.9463884013
 21
11.6181163709
 31
0.0
  0
LINE
  5
146
330
13D
100
AcDbEntity
  8
1
100
AcDbLine
 10
38.9463884013
 20
11.6181163709
 30
0.0
 11
38.9463884013
 21
11.0222830274
 31
0.0
  0
LINE
  5
147
330
13D
100
AcDbEntity
  8
1
100
AcDbLine
 10
38.9463884013
 20
11.0222830274
 30
0.0
 11
38.8703467335
 21
11.0222830274
 31
0.0
  0
LINE
  5
148
330
13D
100
AcDbEntity
  8
1
100
AcDbLine
 10
30.8579434999
 20
21.3432361048
 30
0.0
 11
38.1384890957
 21
21.3432361048
 31
0.0
  0
LINE
  5
149
330
13D
100
AcDbEntity
  8
1
100
AcDbLine
 10
31.8651202519
 20
5.4114723207
 30
0.0
 11
38.1384890957
 21
5.4114723207
 31
0.0
  0
LINE
  5
14A
330
13D
100
AcDbEntity
  8
1
100
AcDbLine
 10
38.0134890957
 20
21.3432361048
 30
0.0
 11
38.0134890957
 21
12.1941580098
 31
0.0
  0
LINE
  5
14B
330
13D
100
AcDbEntity
  8
1
100
AcDbLine
 10
38.0134890957
 20
5.4114723207
 30
0.0
 11
38.0134890957
 21
10.9462413458
 31
0.0
  0
MTEXT
  5
14C
330
13D
100
AcDbEntity
  8
1
100
AcDbMText
 10
37.5068918913
 20
12.1775584366
 30
0.0039370079
 40
0.375
 41
0.0
 71
     1
 72
     1
  1
16"
  7
SLDTEXTSTYLE0
 73
     1
 44
1.0
  0
MTEXT
  5
14D
330
13D
100
AcDbEntity
  8
1
100
AcDbMText
 10
37.2516836195
 20
11.5056834481
 30
0.0039370079
 40
0.375
 41
0.0
 71
     1
 72
     1
  1
404.67
  7
SLDTEXTSTYLE0
 73
     1
 44
1.0
  0
ENDBLK
  5
13F
330
13D
100
AcDbEntity
  8
0
100
AcDbBlockEnd
  0
BLOCK
  5
150
330
14F
100
AcDbEntity
  8
0
100
AcDbBlockBegin
  2
_D_3
 70
     0
 10
0.0
 20
0.0
 30
0.0
  3
_D_3
  1

  0
SOLID
  5
152
330
14F
100
AcDbEntity
  8
1
100
AcDbTrace
 10
2.8217138788
 20
23.760980639
 30
0.0
 11
2.7640215711
 21
23.385980639
 31
0.0
 12
2.8794061865
 22
23.385980639
 32
0.0
 13
2.8794061865
 23
23.385980639
 33
0.0
  0
SOLID
  5
153
330
14F
100
AcDbEntity
  8
1
100
AcDbTrace
 10
2.8217138788
 20
5.4114723207
 30
0.0
 11
2.8794061865
 21
5.7864723207
 31
0.0
 12
2.7640215711
 22
5.7864723207
 32
0.0
 13
2.7640215711
 23
5.7864723207
 33
0.0
  0
LINE
  5
154
330
14F
100
AcDbEntity
  8
1
100
AcDbLine
 10
2.6755333409
 20
14.5294826161
 30
0.0
 11
3.0630333444
 21
14.5294826161
 31
0.0
  0
LINE
  5
155
330
14F
100
AcDbEntity
  8
1
100
AcDbLine
 10
1.9648563144
 20
13.9092742714
 30
0.0
 11
1.8888146466
 21
13.9092742714
 31
0.0
  0
LINE
  5
156
330
14F
100
AcDbEntity
  8
1
100
AcDbLine
 10
1.8888146466
 20
13.9092742714
 30
0.0
 11
1.8888146466
 21
13.3134409278
 31
0.0
  0
LINE
  5
157
330
14F
100
AcDbEntity
  8
1
100
AcDbLine
 10
1.8888146466
 20
13.3134409278
 30
0.0
 11
1.9648563144
 21
13.3134409278
 31
0.0
  0
LINE
  5
158
330
14F
100
AcDbEntity
  8
1
100
AcDbLine
 10
3.6785715166
 20
13.9092742714
 30
0.0
 11
3.7546131844
 21
13.9092742714
 31
0.0
  0
LINE
  5
159
330
14F
100
AcDbEntity
  8
1
100
AcDbLine
 10
3.7546131844
 20
13.9092742714
 30
0.0
 11
3.7546131844
 21
13.3134409278
 31
0.0
  0
LINE
  5
15A
330
14F
100
AcDbEntity
  8
1
100
AcDbLine
 10
3.7546131844
 20
13.3134409278
 30
0.0
 11
3.6785715166
 21
13.3134409278
 31
0.0
  0
LINE
  5
15B
330
14F
100
AcDbEntity
  8
1
100
AcDbLine
 10
11.9462926498
 20
23.760980639
 30
0.0
 11
2.6967138788
 21
23.760980639
 31
0.0
  0
LINE
  5
15C
330
14F
100
AcDbEntity
  8
1
100
AcDbLine
 10
9.0160992434
 20
5.4114723207
 30
0.0
 11
2.6967138788
 21
5.4114723207
 31
0.0
  0
LINE
  5
15D
330
14F
100
AcDbEntity
  8
1
100
AcDbLine
 10
2.8217138788
 20
23.760980639
 30
0.0
 11
2.8217138788
 21
14.9963576133
 31
0.0
  0
LINE
  5
15E
330
14F
100
AcDbEntity
  8
1
100
AcDbLine
 10
2.8217138788
 20
5.4114723207
 30
0.0
 11
2.8217138788
 21
13.2373993196
 31
0.0
  0
MTEXT
  5
15F
330
14F
100
AcDbEntity
  8
1
100
AcDbMText
 10
2.0661583471
 20
14.7368427863
 30
0.0039370079
 40
0.375
 41
0.0
 71
     1
 72
     1
  1
18
  7
SLDTEXTSTYLE0
 73
     1
 44
1.0
  0
MTEXT
  5
160
330
14F
100
AcDbEntity
  8
1
100
AcDbMText
 10
2.7307416756
 20
14.9797580034
 30
0.0039370079
 40
0.375
 41
0.0
 71
     1
 72
     1
  1
1
  7
SLDTEXTSTYLE0
 73
     1
 44
1.0
  0
MTEXT
  5
161
330
14F
100
AcDbEntity
  8
1
100
AcDbMText
 10
2.7307416756
 20
14.4687163439
 30
0.0039370079
 40
0.375
 41
0.0
 71
     1
 72
     1
  1
2
  7
SLDTEXTSTYLE0
 73
     1
 44
1.0
  0
MTEXT
  5
162
330
14F
100
AcDbEntity
  8
1
100
AcDbMText
 10
3.1182416333
 20
14.7368427863
 30
0.0039370079
 40
0.375
 41
0.0
 71
     1
 72
     1
  1
"
  7
SLDTEXTSTYLE0
 73
     1
 44
1.0
  0
MTEXT
  5
163
330
14F
100
AcDbEntity
  8
1
100
AcDbMText
 10
2.0599084026
 20
13.7968413486
 30
0.0039370079
 40
0.375
 41
0.0
 71
     1
 72
     1
  1
466.08
  7
SLDTEXTSTYLE0
 73
     1
 44
1.0
  0
ENDBLK
  5
151
330
14F
100
AcDbEntity
  8
0
100
AcDbBlockEnd
  0
BLOCK
  5
166
330
165
100
AcDbEntity
  8
0
100
AcDbBlockBegin
  2
_D_4
 70
     0
 10
0.0
 20
0.0
 30
0.0
  3
_D_4
  1

  0
SOLID
  5
168
330
165
100
AcDbEntity
  8
1
100
AcDbTrace
 10
19.151080854
 20
22.9948295404
 30
0.0
 11
19.3688407181
 21
23.3055288226
 31
0.0
 12
19.2653815181
 22
23.3566150577
 32
0.0
 13
19.2653815181
 23
23.3566150577
 33
0.0
  0
LINE
  5
169
330
165
100
AcDbEntity
  8
1
100
AcDbLine
 10
21.5114080925
 20
25.8511331944
 30
0.0
 11
21.898908096
 21
25.8511331944
 31
0.0
  0
LINE
  5
16A
330
165
100
AcDbEntity
  8
1
100
AcDbLine
 10
20.7875366818
 20
25.2309248497
 30
0.0
 11
20.711495014
 21
25.2309248497
 31
0.0
  0
LINE
  5
16B
330
165
100
AcDbEntity
  8
1
100
AcDbLine
 10
20.711495014
 20
25.2309248497
 30
0.0
 11
20.711495014
 21
24.6350915062
 31
0.0
  0
LINE
  5
16C
330
165
100
AcDbEntity
  8
1
100
AcDbLine
 10
20.711495014
 20
24.6350915062
 30
0.0
 11
20.7875366818
 21
24.6350915062
 31
0.0
  0
LINE
  5
16D
330
165
100
AcDbEntity
  8
1
100
AcDbLine
 10
22.501251884
 20
25.2309248497
 30
0.0
 11
22.5772935518
 21
25.2309248497
 31
0.0
  0
LINE
  5
16E
330
165
100
AcDbEntity
  8
1
100
AcDbLine
 10
22.5772935518
 20
25.2309248497
 30
0.0
 11
22.5772935518
 21
24.6350915062
 31
0.0
  0
LINE
  5
16F
330
165
100
AcDbEntity
  8
1
100
AcDbLine
 10
22.5772935518
 20
24.6350915062
 30
0.0
 11
22.501251884
 21
24.6350915062
 31
0.0
  0
LINE
  5
170
330
165
100
AcDbEntity
  8
1
100
AcDbLine
 10
19.151080854
 20
22.9948295404
 30
0.0
 11
20.404463762
 21
25.5331648199
 31
0.0
  0
LINE
  5
171
330
165
100
AcDbEntity
  8
1
100
AcDbLine
 10
20.404463762
 20
25.5331648199
 30
0.0
 11
20.654463762
 21
25.5331648199
 31
0.0
  0
MTEXT
  5
172
330
165
100
AcDbEntity
  8
1
100
AcDbMText
 10
20.8756442202
 20
26.0584933646
 30
0.0039370079
 40
0.375
 41
0.0
 71
     1
 72
     1
  1
R7
  7
SLDTEXTSTYLE0
 73
     1
 44
1.0
  0
MTEXT
  5
173
330
165
100
AcDbEntity
  8
1
100
AcDbMText
 10
21.5666164272
 20
26.3014085818
 30
0.0039370079
 40
0.375
 41
0.0
 71
     1
 72
     1
  1
1
  7
SLDTEXTSTYLE0
 73
     1
 44
1.0
  0
MTEXT
  5
174
330
165
100
AcDbEntity
  8
1
100
AcDbMText
 10
21.5666164272
 20
25.7903669222
 30
0.0039370079
 40
0.375
 41
0.0
 71
     1
 72
     1
  1
2
  7
SLDTEXTSTYLE0
 73
     1
 44
1.0
  0
MTEXT
  5
175
330
165
100
AcDbEntity
  8
1
100
AcDbMText
 10
21.9541164216
 20
26.0584933646
 30
0.0039370079
 40
0.375
 41
0.0
 71
     1
 72
     1
  1
"
  7
SLDTEXTSTYLE0
 73
     1
 44
1.0
  0
MTEXT
  5
176
330
165
100
AcDbEntity
  8
1
100
AcDbMText
 10
20.88258877
 20
25.1184919269
 30
0.0039370079
 40
0.375
 41
0.0
 71
     1
 72
     1
  1
190.50
  7
SLDTEXTSTYLE0
 73
     1
 44
1.0
  0
ENDBLK
  5
167
330
165
100
AcDbEntity
  8
0
100
AcDbBlockEnd
  0
BLOCK
  5
179
330
178
100
AcDbEntity
  8
0
100
AcDbBlockBegin
  2
_D_5
 70
     0
 10
0.0
 20
0.0
 30
0.0
  3
_D_5
  1

  0
SOLID
  5
17B
330
178
100
AcDbEntity
  8
1
100
AcDbTrace
 10
21.5018570564
 20
21.5044566712
 30
0.0
 11
21.6928559792
 21
21.8322871363
 31
0.0
 12
21.5854850222
 22
21.8745374269
 32
0.0
 13
21.5854850222
 23
21.8745374269
 33
0.0
  0
LINE
  5
17C
330
178
100
AcDbEntity
  8
1
100
AcDbLine
 10
21.3340068881
 20
22.9512758174
 30
0.0
 11
21.2579652203
 21
22.9512758174
 31
0.0
  0
LINE
  5
17D
330
178
100
AcDbEntity
  8
1
100
AcDbLine
 10
21.2579652203
 20
22.9512758174
 30
0.0
 11
21.2579652203
 21
22.3554424739
 31
0.0
  0
LINE
  5
17E
330
178
100
AcDbEntity
  8
1
100
AcDbLine
 10
21.2579652203
 20
22.3554424739
 30
0.0
 11
21.3340068881
 21
22.3554424739
 31
0.0
  0
LINE
  5
17F
330
178
100
AcDbEntity
  8
1
100
AcDbLine
 10
22.7706388112
 20
22.9512758174
 30
0.0
 11
22.846680479
 21
22.9512758174
 31
0.0
  0
LINE
  5
180
330
178
100
AcDbEntity
  8
1
100
AcDbLine
 10
22.846680479
 20
22.9512758174
 30
0.0
 11
22.846680479
 21
22.3554424739
 31
0.0
  0
LINE
  5
181
330
178
100
AcDbEntity
  8
1
100
AcDbLine
 10
22.846680479
 20
22.3554424739
 30
0.0
 11
22.7706388112
 21
22.3554424739
 31
0.0
  0
LINE
  5
182
330
178
100
AcDbEntity
  8
1
100
AcDbLine
 10
22.6003646108
 20
24.2961015543
 30
0.0
 11
22.2978493645
 21
23.5273174563
 31
0.0
  0
LINE
  5
183
330
178
100
AcDbEntity
  8
1
100
AcDbLine
 10
21.5018570564
 20
21.5044566712
 30
0.0
 11
21.8067962614
 21
22.2794007923
 31
0.0
  0
MTEXT
  5
184
330
178
100
AcDbEntity
  8
1
100
AcDbMText
 10
21.532531151
 20
23.5107178831
 30
0.0039370079
 40
0.375
 41
0.0
 71
     1
 72
     1
  1
R3"
  7
SLDTEXTSTYLE0
 73
     1
 44
1.0
  0
MTEXT
  5
185
330
178
100
AcDbEntity
  8
1
100
AcDbMText
 10
21.4290589763
 20
22.8388428946
 30
0.0039370079
 40
0.375
 41
0.0
 71
     1
 72
     1
  1
76.20
  7
SLDTEXTSTYLE0
 73
     1
 44
1.0
  0
ENDBLK
  5
17A
330
178
100
AcDbEntity
  8
0
100
AcDbBlockEnd
  0
BLOCK
  5
188
330
187
100
AcDbEntity
  8
0
100
AcDbBlockBegin
  2
_D_6
 70
     0
 10
0.0
 20
0.0
 30
0.0
  3
_D_6
  1

  0
SOLID
  5
18A
330
187
100
AcDbEntity
  8
1
100
AcDbTrace
 10
32.8519777443
 20
20.5277286098
 30
0.0
 11
33.1055592854
 21
20.809951579
 31
0.0
 12
33.009002946
 22
20.8731218472
 32
0.0
 13
33.009002946
 23
20.8731218472
 33
0.0
  0
LINE
  5
18B
330
187
100
AcDbEntity
  8
1
100
AcDbLine
 10
35.5750501951
 20
23.3159637733
 30
0.0
 11
35.9625501987
 21
23.3159637733
 31
0.0
  0
LINE
  5
18C
330
187
100
AcDbEntity
  8
1
100
AcDbLine
 10
34.8511787844
 20
22.6957554286
 30
0.0
 11
34.7751371166
 21
22.6957554286
 31
0.0
  0
LINE
  5
18D
330
187
100
AcDbEntity
  8
1
100
AcDbLine
 10
34.7751371166
 20
22.6957554286
 30
0.0
 11
34.7751371166
 21
22.0999220851
 31
0.0
  0
LINE
  5
18E
330
187
100
AcDbEntity
  8
1
100
AcDbLine
 10
34.7751371166
 20
22.0999220851
 30
0.0
 11
34.8511787844
 21
22.0999220851
 31
0.0
  0
LINE
  5
18F
330
187
100
AcDbEntity
  8
1
100
AcDbLine
 10
36.5648939866
 20
22.6957554286
 30
0.0
 11
36.6409356544
 21
22.6957554286
 31
0.0
  0
LINE
  5
190
330
187
100
AcDbEntity
  8
1
100
AcDbLine
 10
36.6409356544
 20
22.6957554286
 30
0.0
 11
36.6409356544
 21
22.0999220851
 31
0.0
  0
LINE
  5
191
330
187
100
AcDbEntity
  8
1
100
AcDbLine
 10
36.6409356544
 20
22.0999220851
 30
0.0
 11
36.5648939866
 21
22.0999220851
 31
0.0
  0
LINE
  5
192
330
187
100
AcDbEntity
  8
1
100
AcDbLine
 10
32.8519777443
 20
20.5277286098
 30
0.0
 11
34.4681058646
 21
22.9979953988
 31
0.0
  0
LINE
  5
193
330
187
100
AcDbEntity
  8
1
100
AcDbLine
 10
34.4681058646
 20
22.9979953988
 30
0.0
 11
34.7181058646
 21
22.9979953988
 31
0.0
  0
MTEXT
  5
194
330
187
100
AcDbEntity
  8
1
100
AcDbMText
 10
34.9392863228
 20
23.5233239435
 30
0.0039370079
 40
0.375
 41
0.0
 71
     1
 72
     1
  1
R5
  7
SLDTEXTSTYLE0
 73
     1
 44
1.0
  0
MTEXT
  5
195
330
187
100
AcDbEntity
  8
1
100
AcDbMText
 10
35.6302585298
 20
23.7662391607
 30
0.0039370079
 40
0.375
 41
0.0
 71
     1
 72
     1
  1
1
  7
SLDTEXTSTYLE0
 73
     1
 44
1.0
  0
MTEXT
  5
196
330
187
100
AcDbEntity
  8
1
100
AcDbMText
 10
35.6302585298
 20
23.2551975011
 30
0.0039370079
 40
0.375
 41
0.0
 71
     1
 72
     1
  1
2
  7
SLDTEXTSTYLE0
 73
     1
 44
1.0
  0
MTEXT
  5
197
330
187
100
AcDbEntity
  8
1
100
AcDbMText
 10
36.0177585242
 20
23.5233239435
 30
0.0039370079
 40
0.375
 41
0.0
 71
     1
 72
     1
  1
"
  7
SLDTEXTSTYLE0
 73
     1
 44
1.0
  0
MTEXT
  5
198
330
187
100
AcDbEntity
  8
1
100
AcDbMText
 10
34.9462308726
 20
22.5833225058
 30
0.0039370079
 40
0.375
 41
0.0
 71
     1
 72
     1
  1
140.87
  7
SLDTEXTSTYLE0
 73
     1
 44
1.0
  0
ENDBLK
  5
189
330
187
100
AcDbEntity
  8
0
100
AcDbBlockEnd
  0
BLOCK
  5
19B
330
19A
100
AcDbEntity
  8
0
100
AcDbBlockBegin
  2
_D_7
 70
     0
 10
0.0
 20
0.0
 30
0.0
  3
_D_7
  1

  0
SOLID
  5
19D
330
19A
100
AcDbEntity
  8
1
100
AcDbTrace
 10
7.9516906552
 20
21.8229362834
 30
0.0
 11
7.7381367997
 21
22.1365413745
 31
0.0
 12
7.6537493206
 22
22.0578498068
 32
0.0
 13
7.6537493206
 23
22.0578498068
 33
0.0
  0
LINE
  5
19E
330
19A
100
AcDbEntity
  8
1
100
AcDbLine
 10
5.6485536657
 20
23.1384569094
 30
0.0
 11
6.0360536693
 21
23.1384569094
 31
0.0
  0
LINE
  5
19F
330
19A
100
AcDbEntity
  8
1
100
AcDbLine
 10
4.924682255
 20
22.5182485647
 30
0.0
 11
4.8486405872
 21
22.5182485647
 31
0.0
  0
LINE
  5
1A0
330
19A
100
AcDbEntity
  8
1
100
AcDbLine
 10
4.8486405872
 20
22.5182485647
 30
0.0
 11
4.8486405872
 21
21.9224152212
 31
0.0
  0
LINE
  5
1A1
330
19A
100
AcDbEntity
  8
1
100
AcDbLine
 10
4.8486405872
 20
21.9224152212
 30
0.0
 11
4.924682255
 21
21.9224152212
 31
0.0
  0
LINE
  5
1A2
330
19A
100
AcDbEntity
  8
1
100
AcDbLine
 10
6.6383974572
 20
22.5182485647
 30
0.0
 11
6.714439125
 21
22.5182485647
 31
0.0
  0
LINE
  5
1A3
330
19A
100
AcDbEntity
  8
1
100
AcDbLine
 10
6.714439125
 20
22.5182485647
 30
0.0
 11
6.714439125
 21
21.9224152212
 31
0.0
  0
LINE
  5
1A4
330
19A
100
AcDbEntity
  8
1
100
AcDbLine
 10
6.714439125
 20
21.9224152212
 30
0.0
 11
6.6383974572
 21
21.9224152212
 31
0.0
  0
LINE
  5
1A5
330
19A
100
AcDbEntity
  8
1
100
AcDbLine
 10
7.9516906552
 20
21.8229362834
 30
0.0
 11
7.0214703037
 21
22.8204885349
 31
0.0
  0
LINE
  5
1A6
330
19A
100
AcDbEntity
  8
1
100
AcDbLine
 10
7.0214703037
 20
22.8204885349
 30
0.0
 11
6.7714703037
 21
22.8204885349
 31
0.0
  0
MTEXT
  5
1A7
330
19A
100
AcDbEntity
  8
1
100
AcDbMText
 10
5.0127897934
 20
23.3458170796
 30
0.0039370079
 40
0.375
 41
0.0
 71
     1
 72
     1
  1
R7
  7
SLDTEXTSTYLE0
 73
     1
 44
1.0
  0
MTEXT
  5
1A8
330
19A
100
AcDbEntity
  8
1
100
AcDbMText
 10
5.7037620004
 20
23.5887322968
 30
0.0039370079
 40
0.375
 41
0.0
 71
     1
 72
     1
  1
1
  7
SLDTEXTSTYLE0
 73
     1
 44
1.0
  0
MTEXT
  5
1A9
330
19A
100
AcDbEntity
  8
1
100
AcDbMText
 10
5.7037620004
 20
23.0776906372
 30
0.0039370079
 40
0.375
 41
0.0
 71
     1
 72
     1
  1
2
  7
SLDTEXTSTYLE0
 73
     1
 44
1.0
  0
MTEXT
  5
1AA
330
19A
100
AcDbEntity
  8
1
100
AcDbMText
 10
6.0912619948
 20
23.3458170796
 30
0.0039370079
 40
0.375
 41
0.0
 71
     1
 72
     1
  1
"
  7
SLDTEXTSTYLE0
 73
     1
 44
1.0
  0
MTEXT
  5
1AB
330
19A
100
AcDbEntity
  8
1
100
AcDbMText
 10
5.0197343432
 20
22.4058156419
 30
0.0039370079
 40
0.375
 41
0.0
 71
     1
 72
     1
  1
190.50
  7
SLDTEXTSTYLE0
 73
     1
 44
1.0
  0
ENDBLK
  5
19C
330
19A
100
AcDbEntity
  8
0
100
AcDbBlockEnd
  0
BLOCK
  5
1AE
330
1AD
100
AcDbEntity
  8
0
100
AcDbBlockBegin
  2
_D_8
 70
     0
 10
0.0
 20
0.0
 30
0.0
  3
_D_8
  1

  0
SOLID
  5
1B0
330
1AD
100
AcDbEntity
  8
1
100
AcDbTrace
 10
32.1810921776
 20
20.2019284273
 30
0.0
 11
31.95024738
 21
19.9008236585
 31
0.0
 12
32.0514277636
 22
19.8453607029
 32
0.0
 13
32.0514277636
 23
19.8453607029
 33
0.0
  0
LINE
  5
1B1
330
1AD
100
AcDbEntity
  8
1
100
AcDbLine
 10
30.8459890606
 20
18.7458548375
 30
0.0
 11
30.7699473927
 21
18.7458548375
 31
0.0
  0
LINE
  5
1B2
330
1AD
100
AcDbEntity
  8
1
100
AcDbLine
 10
30.7699473927
 20
18.7458548375
 30
0.0
 11
30.7699473927
 21
18.1500214939
 31
0.0
  0
LINE
  5
1B3
330
1AD
100
AcDbEntity
  8
1
100
AcDbLine
 10
30.7699473927
 20
18.1500214939
 30
0.0
 11
30.8459890606
 21
18.1500214939
 31
0.0
  0
LINE
  5
1B4
330
1AD
100
AcDbEntity
  8
1
100
AcDbLine
 10
31.8673432209
 20
18.7458548375
 30
0.0
 11
31.9433848888
 21
18.7458548375
 31
0.0
  0
LINE
  5
1B5
330
1AD
100
AcDbEntity
  8
1
100
AcDbLine
 10
31.9433848888
 20
18.7458548375
 30
0.0
 11
31.9433848888
 21
18.1500214939
 31
0.0
  0
LINE
  5
1B6
330
1AD
100
AcDbEntity
  8
1
100
AcDbLine
 10
31.9433848888
 20
18.1500214939
 30
0.0
 11
31.8673432209
 21
18.1500214939
 31
0.0
  0
LINE
  5
1B7
330
1AD
100
AcDbEntity
  8
1
100
AcDbLine
 10
29.8156230023
 20
15.8866322856
 30
0.0
 11
31.0146376192
 21
18.0739798123
 31
0.0
  0
LINE
  5
1B8
330
1AD
100
AcDbEntity
  8
1
100
AcDbLine
 10
32.1810921776
 20
20.2019284273
 30
0.0
 11
31.6986945889
 21
19.3218964763
 31
0.0
  0
MTEXT
  5
1B9
330
1AD
100
AcDbEntity
  8
1
100
AcDbMText
 10
30.8368744421
 20
19.3052969031
 30
0.0039370079
 40
0.375
 41
0.0
 71
     1
 72
     1
  1
R5"
  7
SLDTEXTSTYLE0
 73
     1
 44
1.0
  0
MTEXT
  5
1BA
330
1AD
100
AcDbEntity
  8
1
100
AcDbMText
 10
30.9410411488
 20
18.6334219147
 30
0.0039370079
 40
0.375
 41
0.0
 71
     1
 72
     1
  1
125
  7
SLDTEXTSTYLE0
 73
     1
 44
1.0
  0
ENDBLK
  5
1AF
330
1AD
100
AcDbEntity
  8
0
100
AcDbBlockEnd
  0
BLOCK
  5
1BD
330
1BC
100
AcDbEntity
  8
0
100
AcDbBlockBegin
  2
_D_9
 70
     0
 10
0.0
 20
0.0
 30
0.0
  3
_D_9
  1

  0
SOLID
  5
1BF
330
1BC
100
AcDbEntity
  8
1
100
AcDbTrace
 10
20.7878646108
 20
21.1567594655
 30
0.0
 11
20.5504016067
 21
20.860846093
 31
0.0
 12
20.6503276149
 22
20.8031537853
 32
0.0
 13
20.6503276149
 23
20.8031537853
 33
0.0
  0
LINE
  5
1C0
330
1BC
100
AcDbEntity
  8
1
100
AcDbLine
 10
18.6802620212
 20
19.9622532856
 30
0.0
 11
19.0677620248
 21
19.9622532856
 31
0.0
  0
LINE
  5
1C1
330
1BC
100
AcDbEntity
  8
1
100
AcDbLine
 10
18.0949322501
 20
19.3420449409
 30
0.0
 11
18.0188905823
 21
19.3420449409
 31
0.0
  0
LINE
  5
1C2
330
1BC
100
AcDbEntity
  8
1
100
AcDbLine
 10
18.0188905823
 20
19.3420449409
 30
0.0
 11
18.0188905823
 21
18.7462115974
 31
0.0
  0
LINE
  5
1C3
330
1BC
100
AcDbEntity
  8
1
100
AcDbLine
 10
18.0188905823
 20
18.7462115974
 30
0.0
 11
18.0949322501
 21
18.7462115974
 31
0.0
  0
LINE
  5
1C4
330
1BC
100
AcDbEntity
  8
1
100
AcDbLine
 10
19.5315641732
 20
19.3420449409
 30
0.0
 11
19.607605841
 21
19.3420449409
 31
0.0
  0
LINE
  5
1C5
330
1BC
100
AcDbEntity
  8
1
100
AcDbLine
 10
19.607605841
 20
19.3420449409
 30
0.0
 11
19.607605841
 21
18.7462115974
 31
0.0
  0
LINE
  5
1C6
330
1BC
100
AcDbEntity
  8
1
100
AcDbLine
 10
19.607605841
 20
18.7462115974
 30
0.0
 11
19.5315641732
 21
18.7462115974
 31
0.0
  0
LINE
  5
1C7
330
1BC
100
AcDbEntity
  8
1
100
AcDbLine
 10
20.7878646108
 20
21.1567594655
 30
0.0
 11
19.9146370196
 21
19.6442849111
 31
0.0
  0
LINE
  5
1C8
330
1BC
100
AcDbEntity
  8
1
100
AcDbLine
 10
19.9146370196
 20
19.6442849111
 30
0.0
 11
19.6646370196
 21
19.6442849111
 31
0.0
  0
MTEXT
  5
1C9
330
1BC
100
AcDbEntity
  8
1
100
AcDbMText
 10
18.044498149
 20
20.1696134558
 30
0.0039370079
 40
0.375
 41
0.0
 71
     1
 72
     1
  1
R3
  7
SLDTEXTSTYLE0
 73
     1
 44
1.0
  0
MTEXT
  5
1CA
330
1BC
100
AcDbEntity
  8
1
100
AcDbMText
 10
18.735470356
 20
20.4125286729
 30
0.0039370079
 40
0.375
 41
0.0
 71
     1
 72
     1
  1
1
  7
SLDTEXTSTYLE0
 73
     1
 44
1.0
  0
MTEXT
  5
1CB
330
1BC
100
AcDbEntity
  8
1
100
AcDbMText
 10
18.735470356
 20
19.9014870134
 30
0.0039370079
 40
0.375
 41
0.0
 71
     1
 72
     1
  1
2
  7
SLDTEXTSTYLE0
 73
     1
 44
1.0
  0
MTEXT
  5
1CC
330
1BC
100
AcDbEntity
  8
1
100
AcDbMText
 10
19.1229703504
 20
20.1696134558
 30
0.0039370079
 40
0.375
 41
0.0
 71
     1
 72
     1
  1
"
  7
SLDTEXTSTYLE0
 73
     1
 44
1.0
  0
MTEXT
  5
1CD
330
1BC
100
AcDbEntity
  8
1
100
AcDbMText
 10
18.1899843383
 20
19.2296120181
 30
0.0039370079
 40
0.375
 41
0.0
 71
     1
 72
     1
  1
92.08
  7
SLDTEXTSTYLE0
 73
     1
 44
1.0
  0
ENDBLK
  5
1BE
330
1BC
100
AcDbEntity
  8
0
100
AcDbBlockEnd
  0
BLOCK
  5
1D1
330
1D0
100
AcDbEntity
  8
0
100
AcDbBlockBegin
  2
_D_10
 70
     0
 10
0.0
 20
0.0
 30
0.0
  3
_D_10
  1

  0
SOLID
  5
1D3
330
1D0
100
AcDbEntity
  8
1
100
AcDbTrace
 10
8.7675092094
 20
21.7027363882
 30
0.0
 11
8.9569865283
 21
21.3740241311
 31
0.0
 12
9.0470282556
 22
21.446177418
 32
0.0
 13
9.0470282556
 23
21.446177418
 33
0.0
  0
LINE
  5
1D4
330
1D0
100
AcDbEntity
  8
1
100
AcDbLine
 10
9.6359879031
 20
19.5975667365
 30
0.0
 11
9.5599462353
 21
19.5975667365
 31
0.0
  0
LINE
  5
1D5
330
1D0
100
AcDbEntity
  8
1
100
AcDbLine
 10
9.5599462353
 20
19.5975667365
 30
0.0
 11
9.5599462353
 21
19.001733393
 31
0.0
  0
LINE
  5
1D6
330
1D0
100
AcDbEntity
  8
1
100
AcDbLine
 10
9.5599462353
 20
19.001733393
 30
0.0
 11
9.6359879031
 21
19.001733393
 31
0.0
  0
LINE
  5
1D7
330
1D0
100
AcDbEntity
  8
1
100
AcDbLine
 10
11.3497031053
 20
19.5975667365
 30
0.0
 11
11.4257447731
 21
19.5975667365
 31
0.0
  0
LINE
  5
1D8
330
1D0
100
AcDbEntity
  8
1
100
AcDbLine
 10
11.4257447731
 20
19.5975667365
 30
0.0
 11
11.4257447731
 21
19.001733393
 31
0.0
  0
LINE
  5
1D9
330
1D0
100
AcDbEntity
  8
1
100
AcDbLine
 10
11.4257447731
 20
19.001733393
 30
0.0
 11
11.3497031053
 21
19.001733393
 31
0.0
  0
LINE
  5
1DA
330
1D0
100
AcDbEntity
  8
1
100
AcDbLine
 10
13.0666425558
 20
16.3377501375
 30
0.0
 11
10.9928430344
 21
18.9256917114
 31
0.0
  0
LINE
  5
1DB
330
1D0
100
AcDbEntity
  8
1
100
AcDbLine
 10
8.7675092094
 20
21.7027363882
 30
0.0
 11
9.9928479006
 21
20.1736083754
 31
0.0
  0
MTEXT
  5
1DC
330
1D0
100
AcDbEntity
  8
1
100
AcDbMText
 10
9.9730538055
 20
20.1570088022
 30
0.0039370079
 40
0.375
 41
0.0
 71
     1
 72
     1
  1
R7"
  7
SLDTEXTSTYLE0
 73
     1
 44
1.0
  0
MTEXT
  5
1DD
330
1D0
100
AcDbEntity
  8
1
100
AcDbMText
 10
9.7310399913
 20
19.4851338137
 30
0.0039370079
 40
0.375
 41
0.0
 71
     1
 72
     1
  1
174.63
  7
SLDTEXTSTYLE0
 73
     1
 44
1.0
  0
ENDBLK
  5
1D2
330
1D0
100
AcDbEntity
  8
0
100
AcDbBlockEnd
  0
BLOCK
  5
1E0
330
1DF
100
AcDbEntity
  8
0
100
AcDbBlockBegin
  2
_D_11
 70
     0
 10
0.0
 20
0.0
 30
0.0
  3
_D_11
  1

  0
SOLID
  5
1E2
330
1DF
100
AcDbEntity
  8
1
100
AcDbTrace
 10
14.5670109894
 20
23.1423781565
 30
0.0
 11
14.5093186817
 21
22.7673781565
 31
0.0
 12
14.6247032971
 22
22.7673781565
 32
0.0
 13
14.6247032971
 23
22.7673781565
 33
0.0
  0
SOLID
  5
1E3
330
1DF
100
AcDbEntity
  8
1
100
AcDbTrace
 10
14.5670109894
 20
6.0364723207
 30
0.0
 11
14.6247032971
 21
6.4114723207
 31
0.0
 12
14.5093186817
 22
6.4114723207
 32
0.0
 13
14.5093186817
 23
6.4114723207
 33
0.0
  0
LINE
  5
1E4
330
1DF
100
AcDbEntity
  8
1
100
AcDbLine
 10
13.710153425
 20
17.3437929818
 30
0.0
 11
13.6341117572
 21
17.3437929818
 31
0.0
  0
LINE
  5
1E5
330
1DF
100
AcDbEntity
  8
1
100
AcDbLine
 10
13.6341117572
 20
17.3437929818
 30
0.0
 11
13.6341117572
 21
16.7479596382
 31
0.0
  0
LINE
  5
1E6
330
1DF
100
AcDbEntity
  8
1
100
AcDbLine
 10
13.6341117572
 20
16.7479596382
 30
0.0
 11
13.710153425
 21
16.7479596382
 31
0.0
  0
LINE
  5
1E7
330
1DF
100
AcDbEntity
  8
1
100
AcDbLine
 10
15.4238686272
 20
17.3437929818
 30
0.0
 11
15.499910295
 21
17.3437929818
 31
0.0
  0
LINE
  5
1E8
330
1DF
100
AcDbEntity
  8
1
100
AcDbLine
 10
15.499910295
 20
17.3437929818
 30
0.0
 11
15.499910295
 21
16.7479596382
 31
0.0
  0
LINE
  5
1E9
330
1DF
100
AcDbEntity
  8
1
100
AcDbLine
 10
15.499910295
 20
16.7479596382
 30
0.0
 11
15.4238686272
 21
16.7479596382
 31
0.0
  0
LINE
  5
1EA
330
1DF
100
AcDbEntity
  8
1
100
AcDbLine
 10
12.1354888863
 20
23.1423781565
 30
0.0
 11
14.6920109894
 21
23.1423781565
 31
0.0
  0
LINE
  5
1EB
330
1DF
100
AcDbEntity
  8
1
100
AcDbLine
 10
14.5670109894
 20
23.1423781565
 30
0.0
 11
14.5670109894
 21
17.9198346206
 31
0.0
  0
LINE
  5
1EC
330
1DF
100
AcDbEntity
  8
1
100
AcDbLine
 10
14.5670109894
 20
6.0364723207
 30
0.0
 11
14.5670109894
 21
16.6719179567
 31
0.0
  0
MTEXT
  5
1ED
330
1DF
100
AcDbEntity
  8
1
100
AcDbMText
 10
14.060413785
 20
17.9032350474
 30
0.0039370079
 40
0.375
 41
0.0
 71
     1
 72
     1
  1
17"
  7
SLDTEXTSTYLE0
 73
     1
 44
1.0
  0
MTEXT
  5
1EE
330
1DF
100
AcDbEntity
  8
1
100
AcDbMText
 10
13.8052055132
 20
17.231360059
 30
0.0039370079
 40
0.375
 41
0.0
 71
     1
 72
     1
  1
434.49
  7
SLDTEXTSTYLE0
 73
     1
 44
1.0
  0
ENDBLK
  5
1E1
330
1DF
100
AcDbEntity
  8
0
100
AcDbBlockEnd
  0
BLOCK
  5
1F1
330
1F0
100
AcDbEntity
  8
0
100
AcDbBlockBegin
  2
_D_12
 70
     0
 10
0.0
 20
0.0
 30
0.0
  3
_D_12
  1

  0
SOLID
  5
1F3
330
1F0
100
AcDbEntity
  8
1
100
AcDbTrace
 10
6.1916425558
 20
8.9536082474
 30
0.0
 11
6.5666425558
 21
8.8959159397
 31
0.0
 12
6.5666425558
 22
9.0113005551
 32
0.0
 13
6.5666425558
 23
9.0113005551
 33
0.0
  0
SOLID
  5
1F4
330
1F0
100
AcDbEntity
  8
1
100
AcDbTrace
 10
34.7367474185
 20
8.9536082474
 30
0.0
 11
34.3617474185
 21
9.0113005551
 31
0.0
 12
34.3617474185
 22
8.8959159397
 32
0.0
 13
34.3617474185
 23
8.8959159397
 33
0.0
  0
LINE
  5
1F5
330
1F0
100
AcDbEntity
  8
1
100
AcDbLine
 10
24.165158075
 20
9.366212397
 30
0.0
 11
24.5526580786
 21
9.366212397
 31
0.0
  0
LINE
  5
1F6
330
1F0
100
AcDbEntity
  8
1
100
AcDbLine
 10
23.4544810485
 20
8.7460040524
 30
0.0
 11
23.3784393807
 21
8.7460040524
 31
0.0
  0
LINE
  5
1F7
330
1F0
100
AcDbEntity
  8
1
100
AcDbLine
 10
23.3784393807
 20
8.7460040524
 30
0.0
 11
23.3784393807
 21
8.1501707088
 31
0.0
  0
LINE
  5
1F8
330
1F0
100
AcDbEntity
  8
1
100
AcDbLine
 10
23.3784393807
 20
8.1501707088
 30
0.0
 11
23.4544810485
 21
8.1501707088
 31
0.0
  0
LINE
  5
1F9
330
1F0
100
AcDbEntity
  8
1
100
AcDbLine
 10
25.1681962507
 20
8.7460040524
 30
0.0
 11
25.2442379185
 21
8.7460040524
 31
0.0
  0
LINE
  5
1FA
330
1F0
100
AcDbEntity
  8
1
100
AcDbLine
 10
25.2442379185
 20
8.7460040524
 30
0.0
 11
25.2442379185
 21
8.1501707088
 31
0.0
  0
LINE
  5
1FB
330
1F0
100
AcDbEntity
  8
1
100
AcDbLine
 10
25.2442379185
 20
8.1501707088
 30
0.0
 11
25.1681962507
 21
8.1501707088
 31
0.0
  0
LINE
  5
1FC
330
1F0
100
AcDbEntity
  8
1
100
AcDbLine
 10
6.1916425558
 20
8.9536082474
 30
0.0
 11
23.2453091772
 21
8.9536082474
 31
0.0
  0
LINE
  5
1FD
330
1F0
100
AcDbEntity
  8
1
100
AcDbLine
 10
34.7367474185
 20
8.9536082474
 30
0.0
 11
25.3773680487
 21
8.9536082474
 31
0.0
  0
MTEXT
  5
1FE
330
1F0
100
AcDbEntity
  8
1
100
AcDbMText
 10
23.5557830812
 20
9.5735725672
 30
0.0039370079
 40
0.375
 41
0.0
 71
     1
 72
     1
  1
28
  7
SLDTEXTSTYLE0
 73
     1
 44
1.0
  0
MTEXT
  5
1FF
330
1F0
100
AcDbEntity
  8
1
100
AcDbMText
 10
24.2203664097
 20
9.8164877844
 30
0.0039370079
 40
0.375
 41
0.0
 71
     1
 72
     1
  1
1
  7
SLDTEXTSTYLE0
 73
     1
 44
1.0
  0
MTEXT
  5
200
330
1F0
100
AcDbEntity
  8
1
100
AcDbMText
 10
24.2203664097
 20
9.3054461249
 30
0.0039370079
 40
0.375
 41
0.0
 71
     1
 72
     1
  1
2
  7
SLDTEXTSTYLE0
 73
     1
 44
1.0
  0
MTEXT
  5
201
330
1F0
100
AcDbEntity
  8
1
100
AcDbMText
 10
24.6078663675
 20
9.5735725672
 30
0.0039370079
 40
0.375
 41
0.0
 71
     1
 72
     1
  1
"
  7
SLDTEXTSTYLE0
 73
     1
 44
1.0
  0
MTEXT
  5
202
330
1F0
100
AcDbEntity
  8
1
100
AcDbMText
 10
23.5495331367
 20
8.6335711295
 30
0.0039370079
 40
0.375
 41
0.0
 71
     1
 72
     1
  1
725.05
  7
SLDTEXTSTYLE0
 73
     1
 44
1.0
  0
ENDBLK
  5
1F2
330
1F0
100
AcDbEntity
  8
0
100
AcDbBlockEnd
  0
BLOCK
  5
205
330
204
100
AcDbEntity
  8
0
100
AcDbBlockBegin
  2
_D_13
 70
     0
 10
0.0
 20
0.0
 30
0.0
  3
_D_13
  1

  0
SOLID
  5
207
330
204
100
AcDbEntity
  8
1
100
AcDbTrace
 10
28.3773195876
 20
20.7179022377
 30
0.0
 11
28.3196272799
 21
20.3429022377
 31
0.0
 12
28.4350118953
 22
20.3429022377
 32
0.0
 13
28.4350118953
 23
20.3429022377
 33
0.0
  0
SOLID
  5
208
330
204
100
AcDbEntity
  8
1
100
AcDbTrace
 10
28.3773195876
 20
6.0364723207
 30
0.0
 11
28.4350118953
 21
6.4114723207
 31
0.0
 12
28.3196272799
 22
6.4114723207
 32
0.0
 13
28.3196272799
 23
6.4114723207
 33
0.0
  0
LINE
  5
209
330
204
100
AcDbEntity
  8
1
100
AcDbLine
 10
28.2311390497
 20
14.9744598197
 30
0.0
 11
28.6186390532
 21
14.9744598197
 31
0.0
  0
LINE
  5
20A
330
204
100
AcDbEntity
  8
1
100
AcDbLine
 10
27.5204620232
 20
14.354251475
 30
0.0
 11
27.4444203554
 21
14.354251475
 31
0.0
  0
LINE
  5
20B
330
204
100
AcDbEntity
  8
1
100
AcDbLine
 10
27.4444203554
 20
14.354251475
 30
0.0
 11
27.4444203554
 21
13.7584181315
 31
0.0
  0
LINE
  5
20C
330
204
100
AcDbEntity
  8
1
100
AcDbLine
 10
27.4444203554
 20
13.7584181315
 30
0.0
 11
27.5204620232
 21
13.7584181315
 31
0.0
  0
LINE
  5
20D
330
204
100
AcDbEntity
  8
1
100
AcDbLine
 10
29.2341772254
 20
14.354251475
 30
0.0
 11
29.3102188932
 21
14.354251475
 31
0.0
  0
LINE
  5
20E
330
204
100
AcDbEntity
  8
1
100
AcDbLine
 10
29.3102188932
 20
14.354251475
 30
0.0
 11
29.3102188932
 21
13.7584181315
 31
0.0
  0
LINE
  5
20F
330
204
100
AcDbEntity
  8
1
100
AcDbLine
 10
29.3102188932
 20
13.7584181315
 30
0.0
 11
29.2341772254
 21
13.7584181315
 31
0.0
  0
LINE
  5
210
330
204
100
AcDbEntity
  8
1
100
AcDbLine
 10
30.7016015594
 20
20.7179022377
 30
0.0
 11
28.2523195876
 21
20.7179022377
 31
0.0
  0
LINE
  5
211
330
204
100
AcDbEntity
  8
1
100
AcDbLine
 10
28.3773195876
 20
20.7179022377
 30
0.0
 11
28.3773195876
 21
15.441334817
 31
0.0
  0
LINE
  5
212
330
204
100
AcDbEntity
  8
1
100
AcDbLine
 10
28.3773195876
 20
6.0364723207
 30
0.0
 11
28.3773195876
 21
13.6823765233
 31
0.0
  0
MTEXT
  5
213
330
204
100
AcDbEntity
  8
1
100
AcDbMText
 10
27.6217640559
 20
15.1818199899
 30
0.0039370079
 40
0.375
 41
0.0
 71
     1
 72
     1
  1
14
  7
SLDTEXTSTYLE0
 73
     1
 44
1.0
  0
MTEXT
  5
214
330
204
100
AcDbEntity
  8
1
100
AcDbMText
 10
28.2863473844
 20
15.4247352071
 30
0.0039370079
 40
0.375
 41
0.0
 71
     1
 72
     1
  1
1
  7
SLDTEXTSTYLE0
 73
     1
 44
1.0
  0
MTEXT
  5
215
330
204
100
AcDbEntity
  8
1
100
AcDbMText
 10
28.2863473844
 20
14.9136935475
 30
0.0039370079
 40
0.375
 41
0.0
 71
     1
 72
     1
  1
2
  7
SLDTEXTSTYLE0
 73
     1
 44
1.0
  0
MTEXT
  5
216
330
204
100
AcDbEntity
  8
1
100
AcDbMText
 10
28.6738473421
 20
15.1818199899
 30
0.0039370079
 40
0.375
 41
0.0
 71
     1
 72
     1
  1
"
  7
SLDTEXTSTYLE0
 73
     1
 44
1.0
  0
MTEXT
  5
217
330
204
100
AcDbEntity
  8
1
100
AcDbMText
 10
27.6155141114
 20
14.2418185522
 30
0.0039370079
 40
0.375
 41
0.0
 71
     1
 72
     1
  1
372.91
  7
SLDTEXTSTYLE0
 73
     1
 44
1.0
  0
ENDBLK
  5
206
330
204
100
AcDbEntity
  8
0
100
AcDbBlockEnd
  0
BLOCK
  5
21A
330
219
100
AcDbEntity
  8
0
100
AcDbBlockBegin
  2
_D_14
 70
     0
 10
0.0
 20
0.0
 30
0.0
  3
_D_14
  1

  0
SOLID
  5
21C
330
219
100
AcDbEntity
  8
1
100
AcDbTrace
 10
33.0609018483
 20
6.3150613283
 30
0.0
 11
32.9532662158
 21
6.6788854245
 31
0.0
 12
32.8488860543
 22
6.6297082819
 32
0.0
 13
32.8488860543
 23
6.6297082819
 33
0.0
  0
LINE
  5
21D
330
219
100
AcDbEntity
  8
1
100
AcDbLine
 10
31.7600345906
 20
7.5994630849
 30
0.0
 11
31.6839929228
 21
7.5994630849
 31
0.0
  0
LINE
  5
21E
330
219
100
AcDbEntity
  8
1
100
AcDbLine
 10
31.6839929228
 20
7.5994630849
 30
0.0
 11
31.6839929228
 21
7.0036297413
 31
0.0
  0
LINE
  5
21F
330
219
100
AcDbEntity
  8
1
100
AcDbLine
 10
31.6839929228
 20
7.0036297413
 30
0.0
 11
31.7600345906
 21
7.0036297413
 31
0.0
  0
LINE
  5
220
330
219
100
AcDbEntity
  8
1
100
AcDbLine
 10
33.1966665137
 20
7.5994630849
 30
0.0
 11
33.2727081815
 21
7.5994630849
 31
0.0
  0
LINE
  5
221
330
219
100
AcDbEntity
  8
1
100
AcDbLine
 10
33.2727081815
 20
7.5994630849
 30
0.0
 11
33.2727081815
 21
7.0036297413
 31
0.0
  0
LINE
  5
222
330
219
100
AcDbEntity
  8
1
100
AcDbLine
 10
33.2727081815
 20
7.0036297413
 30
0.0
 11
33.1966665137
 21
7.0036297413
 31
0.0
  0
LINE
  5
223
330
219
100
AcDbEntity
  8
1
100
AcDbLine
 10
31.8159225977
 20
8.9575722299
 30
0.0
 11
32.1843819358
 21
8.1755047237
 31
0.0
  0
LINE
  5
224
330
219
100
AcDbEntity
  8
1
100
AcDbLine
 10
33.0609018483
 20
6.3150613283
 30
0.0
 11
32.7723190952
 21
6.9275880598
 31
0.0
  0
MTEXT
  5
225
330
219
100
AcDbEntity
  8
1
100
AcDbMText
 10
31.9585588535
 20
8.1589051505
 30
0.0039370079
 40
0.375
 41
0.0
 71
     1
 72
     1
  1
R3"
  7
SLDTEXTSTYLE0
 73
     1
 44
1.0
  0
MTEXT
  5
226
330
219
100
AcDbEntity
  8
1
100
AcDbMText
 10
31.8550866788
 20
7.4870301621
 30
0.0039370079
 40
0.375
 41
0.0
 71
     1
 72
     1
  1
74.20
  7
SLDTEXTSTYLE0
 73
     1
 44
1.0
  0
ENDBLK
  5
21B
330
219
100
AcDbEntity
  8
0
100
AcDbBlockEnd
  0
BLOCK
  5
229
330
228
100
AcDbEntity
  8
0
100
AcDbBlockBegin
  2
_D_15
 70
     0
 10
0.0
 20
0.0
 30
0.0
  3
_D_15
  1

  0
SOLID
  5
22B
330
228
100
AcDbEntity
  8
1
100
AcDbTrace
 10
18.161642588
 20
22.7376925267
 30
0.0
 11
17.9802135258
 21
22.404470532
 31
0.0
 12
18.0887625213
 22
22.3653460507
 32
0.0
 13
18.0887625213
 23
22.3653460507
 33
0.0
  0
LINE
  5
22C
330
228
100
AcDbEntity
  8
1
100
AcDbLine
 10
16.8467910778
 20
21.5149270024
 30
0.0
 11
16.77074941
 21
21.5149270024
 31
0.0
  0
LINE
  5
22D
330
228
100
AcDbEntity
  8
1
100
AcDbLine
 10
16.77074941
 20
21.5149270024
 30
0.0
 11
16.77074941
 21
20.9190936589
 31
0.0
  0
LINE
  5
22E
330
228
100
AcDbEntity
  8
1
100
AcDbLine
 10
16.77074941
 20
20.9190936589
 30
0.0
 11
16.8467910778
 21
20.9190936589
 31
0.0
  0
LINE
  5
22F
330
228
100
AcDbEntity
  8
1
100
AcDbLine
 10
18.56050628
 20
21.5149270024
 30
0.0
 11
18.6365479478
 21
21.5149270024
 31
0.0
  0
LINE
  5
230
330
228
100
AcDbEntity
  8
1
100
AcDbLine
 10
18.6365479478
 20
21.5149270024
 30
0.0
 11
18.6365479478
 21
20.9190936589
 31
0.0
  0
LINE
  5
231
330
228
100
AcDbEntity
  8
1
100
AcDbLine
 10
18.6365479478
 20
20.9190936589
 30
0.0
 11
18.56050628
 21
20.9190936589
 31
0.0
  0
LINE
  5
232
330
228
100
AcDbEntity
  8
1
100
AcDbLine
 10
15.8304755722
 20
16.2699815449
 30
0.0
 11
17.478754381
 21
20.8430519773
 31
0.0
  0
LINE
  5
233
330
228
100
AcDbEntity
  8
1
100
AcDbLine
 10
18.161642588
 20
22.7376925267
 30
0.0
 11
17.9285429034
 21
22.0909686413
 31
0.0
  0
MTEXT
  5
234
330
228
100
AcDbEntity
  8
1
100
AcDbMText
 10
17.1838569802
 20
22.074369068
 30
0.0039370079
 40
0.375
 41
0.0
 71
     1
 72
     1
  1
R7"
  7
SLDTEXTSTYLE0
 73
     1
 44
1.0
  0
MTEXT
  5
235
330
228
100
AcDbEntity
  8
1
100
AcDbMText
 10
16.941843166
 20
21.4024940796
 30
0.0039370079
 40
0.375
 41
0.0
 71
     1
 72
     1
  1
174.63
  7
SLDTEXTSTYLE0
 73
     1
 44
1.0
  0
ENDBLK
  5
22A
330
228
100
AcDbEntity
  8
0
100
AcDbBlockEnd
  0
BLOCK
  5
238
330
237
100
AcDbEntity
  8
0
100
AcDbBlockBegin
  2
SW_NOTE_0
 70
     0
 10
0.0
 20
0.0
 30
0.0
  3
SW_NOTE_0
  1

  0
MTEXT
  5
23A
330
237
100
AcDbEntity
  8
1
 62
     0
100
AcDbMText
 10
0.0216812531
 20
0.62286493
 30
0.0
 40
0.4814814815
 41
0.0
 71
     1
 72
     1
  1
TEMPLATE OUTLINE
  7
SLDTEXTSTYLE0
 73
     1
 44
1.0
  0
MTEXT
  5
23B
330
237
100
AcDbEntity
  8
1
 62
     0
100
AcDbMText
 10
0.0216812531
 20
0.0002826087
 30
0.0
 40
0.4814814815
 41
0.0
 71
     1
 72
     1
  1
FOR 1/2" REVEAL
  7
SLDTEXTSTYLE0
 73
     1
 44
1.0
  0
ENDBLK
  5
239
330
237
100
AcDbEntity
  8
0
100
AcDbBlockEnd
  0
BLOCK
  5
240
330
23F
100
AcDbEntity
  8
0
100
AcDbBlockBegin
  2
SW_NOTE_1
 70
     0
 10
0.0
 20
0.0
 30
0.0
  3
SW_NOTE_1
  1

  0
MTEXT
  5
242
330
23F
100
AcDbEntity
  8
1
 62
     0
100
AcDbMText
 10
-0.1038507143
 20
0.6228780025
 30
0.0
 40
0.4814814815
 41
0.0
 71
     3
 72
     1
  1
TEMPLATE OUTLINE
  7
SLDTEXTSTYLE0
 73
     1
 44
1.0
  0
MTEXT
  5
243
330
23F
100
AcDbEntity
  8
1
 62
     0
100
AcDbMText
 10
-0.1446427542
 20
0.0002956813
 30
0.0
 40
0.4814814815
 41
0.0
 71
     3
 72
     1
  1
FOR 1/8" REVEAL
  7
SLDTEXTSTYLE0
 73
     1
 44
1.0
  0
ENDBLK
  5
241
330
23F
100
AcDbEntity
  8
0
100
AcDbBlockEnd
  0
ENDSEC
  0
SECTION
  2
ENTITIES
  0
LINE
  5
FA
330
1F
100
AcDbEntity
  8
1
  6
Continuous
 62
     7
370
     0
100
AcDbLine
 10
9.0660992434
 20
5.4114723207
 30
0.0
 11
31.8151202519
 21
5.4114723207
 31
0.0
  0
LINE
  5
FB
330
1F
100
AcDbEntity
  8
1
  6
Continuous
 62
     7
370
     0
100
AcDbLine
 10
35.3617230023
 20
15.8866322856
 30
0.0
 11
35.3617230023
 21
8.9114777572
 31
0.0
  0
LINE
  5
FC
330
1F
100
AcDbEntity
  8
1
  6
Continuous
 62
     7
370
     0
100
AcDbLine
 10
30.8079434999
 20
21.3432361048
 30
0.0
 11
22.600364645
 21
21.2961015543
 31
0.0
  0
LINE
  5
FD
330
1F
100
AcDbEntity
  8
1
  6
Continuous
 62
     7
370
     0
100
AcDbLine
 10
5.5666425558
 20
16.3377511634
 30
0.0
 11
5.5666425558
 21
8.9114777572
 31
0.0
  0
LINE
  5
FE
330
1F
100
AcDbEntity
  8
1
100
AcDbLine
 10
5.5666425558
 20
12.6246144603
 30
0.0
 11
7.6237896135
 21
12.6246144603
 31
0.0
  0
LINE
  5
FF
330
1F
100
AcDbEntity
  8
1
100
AcDbLine
 10
20.4406097477
 20
5.4114723207
 30
0.0
 11
20.4406097477
 21
7.4105493814
 31
0.0
  0
LINE
  5
100
330
1F
100
AcDbEntity
  8
1
100
AcDbLine
 10
20.6661105998
 20
22.0029244087
 30
0.0
 11
20.6661105998
 21
18.743683684
 31
0.0
  0
LINE
  5
101
330
1F
100
AcDbEntity
  8
1
100
AcDbLine
 10
35.3617230023
 20
12.3990550214
 30
0.0
 11
33.4217277577
 21
12.3990550214
 31
0.0
  0
LINE
  5
102
330
1F
100
AcDbEntity
  8
1
100
AcDbLine
 10
30.7516015594
 20
20.7179022377
 30
0.0
 11
22.6022441012
 21
20.6711020415
 31
0.0
  0
LINE
  5
103
330
1F
100
AcDbEntity
  8
1
100
AcDbLine
 10
6.1916425558
 20
16.3377511634
 30
0.0
 11
6.1916425558
 21
8.9114777572
 31
0.0
  0
LINE
  5
104
330
1F
100
AcDbEntity
  8
1
100
AcDbLine
 10
34.7367474185
 20
15.8866322856
 30
0.0
 11
34.7367474185
 21
8.9114777572
 31
0.0
  0
LINE
  5
105
330
1F
100
AcDbEntity
  8
1
100
AcDbLine
 10
9.0660992434
 20
6.0364723207
 30
0.0
 11
31.8151202519
 21
6.0364723207
 31
0.0
  0
ARC
  5
106
330
1F
100
AcDbEntity
  8
1
  6
Continuous
 62
     7
370
     0
100
AcDbCircle
 10
31.8159225977
 20
8.9575722299
 30
0.0
 40
3.546099999999997
100
AcDbArc
 50
269.9870361737
 51
359.2552118874
  0
ARC
  5
107
330
1F
100
AcDbEntity
  8
1
  6
Continuous
 62
     7
370
     0
100
AcDbCircle
 10
29.8156230023
 20
15.8866322856
 30
0.0
 40
5.546099999999998
100
AcDbArc
 50
0.0
 51
79.6930118121
  0
ARC
  5
108
330
1F
100
AcDbEntity
  8
1
  6
Continuous
 62
     7
370
     0
100
AcDbCircle
 10
22.6003646108
 20
24.2961015543
 30
0.0
 40
2.999999999999997
100
AcDbArc
 50
229.8529658665
 51
270.0000006538
  0
ARC
  5
109
330
1F
100
AcDbEntity
  8
1
  6
Continuous
 62
     7
370
     0
100
AcDbCircle
 10
15.8304755722
 20
16.2699815449
 30
0.0
 40
7.500000000000006
100
AcDbArc
 50
49.8529658665
 51
87.8798821032
  0
ARC
  5
10A
330
1F
100
AcDbEntity
  8
1
100
AcDbCircle
 10
13.0666425558
 20
16.3377501375
 30
0.0
 40
7.500000000000083
100
AcDbArc
 50
98.2048849968
 51
179.9999921627
  0
ARC
  5
10B
330
1F
100
AcDbEntity
  8
1
100
AcDbCircle
 10
13.0666425558
 20
16.3377501375
 30
0.0
 40
6.875000000000083
100
AcDbArc
 50
98.2048815364
 51
179.9999921627
  0
ARC
  5
10C
330
1F
100
AcDbEntity
  8
1
100
AcDbCircle
 10
15.8304755722
 20
16.2699815449
 30
0.0
 40
6.875000000000002
100
AcDbArc
 50
49.8529658665
 51
88.1459084787
  0
ARC
  5
10D
330
1F
100
AcDbEntity
  8
1
100
AcDbCircle
 10
22.6003646108
 20
24.2961015543
 30
0.0
 40
3.624999999999998
100
AcDbArc
 50
229.8529658665
 51
270.0297067226
  0
ARC
  5
10E
330
1F
100
AcDbEntity
  8
1
100
AcDbCircle
 10
29.8156230023
 20
15.8866322856
 30
0.0
 40
4.921099999999999
100
AcDbArc
 50
0.0
 51
79.0357176957
  0
ARC
  5
10F
330
1F
100
AcDbEntity
  8
1
100
AcDbCircle
 10
31.8159225977
 20
8.9575722299
 30
0.0
 40
2.92110205228004
100
AcDbArc
 50
269.9870361737
 51
359.2552118874
  0
SPLINE
  5
110
330
1F
100
AcDbEntity
  8
1
  6
Continuous
 62
     5
370
     0
100
AcDbSpline
210
0.0
220
0.0
230
1.0
 70
     8
 71
     3
 72
    10
 73
     6
 74
     0
 42
0.00000001
 43
0.00000001
 12
1.0
 22
0.0
 32
0.0
 13
1.0
 23
0.0
 33
0.0
 40
0.0065648063650377
 40
0.0065648063650377
 40
0.0065648063650377
 40
0.0065648063650377
 40
0.254923500443961
 40
0.5032821945228843
 40
0.9999995826807307
 40
0.9999995826807307
 40
0.9999995826807307
 40
0.9999995826807307
 10
16.10793502837905
 20
23.76484753771323
 30
0.0
 10
15.76786857349047
 20
23.81322814350989
 30
0.0
 10
15.08397662278402
 20
23.88582692712118
 30
0.0
 10
13.71016203777261
 20
23.93359944786349
 30
0.0
 10
12.67669775158376
 20
23.85908867135105
 30
0.0
 10
11.99629264979806
 20
23.76098063904695
 30
0.0
  0
SPLINE
  5
111
330
1F
100
AcDbEntity
  8
1
  6
Continuous
 62
     5
370
     0
100
AcDbSpline
210
0.0
220
0.0
230
1.0
 70
     8
 71
     3
 72
    23
 73
    19
 74
     0
 42
0.00000001
 43
0.00000001
 12
1.0
 22
0.0
 32
0.0
 13
1.0
 23
0.0
 33
0.0
 40
0.0
 40
0.0
 40
0.0
 40
0.0
 40
0.0624939110526634
 40
0.1249878221053269
 40
0.1874817331579903
 40
0.2499756442106538
 40
0.3124695552633172
 40
0.3749634663159807
 40
0.4374573773686441
 40
0.4999512884213075
 40
0.562445199473971
 40
0.6249391105266344
 40
0.7499269326319613
 40
0.8124208436846247
 40
0.8749147547372882
 40
0.9374086657899516
 40
0.9686556213162834
 40
0.9999025768426151
 40
0.9999025768426151
 40
0.9999025768426151
 40
0.9999025768426151
 10
5.566642555758366
 20
8.911477757166647
 30
0.0
 10
5.566642318017371
 20
8.796441967290319
 30
0.0
 10
5.578071454091902
 20
8.566043700484073
 30
0.0
 10
5.6288152510846
 20
8.224928773551225
 30
0.0
 10
5.713471283637013
 20
7.888970842891822
 30
0.0
 10
5.829098602680984
 20
7.56723904940209
 30
0.0
 10
5.975273549336396
 20
7.258259911386357
 30
0.0
 10
6.153897153184016
 20
6.960646571628812
 30
0.0
 10
6.358685730116152
 20
6.685219113818929
 30
0.0
 10
6.588158534511185
 20
6.432348563967552
 30
0.0
 10
6.843279295884492
 20
6.200977970862449
 30
0.0
 10
7.214300702694699
 20
5.926413698180816
 30
0.0
 10
7.614803279212163
 20
5.712250515156429
 30
0.0
 10
8.051033119404346
 20
5.556150752509419
 30
0.0
 10
8.38320832498941
 20
5.473189055077119
 30
0.0
 10
8.665222497118783
 20
5.431314477708868
 30
0.0
 10
8.89310052546243
 20
5.414375142911719
 30
0.0
 10
9.008540240670326
 20
5.411481359133587
 30
0.0
 10
9.06609924343733
 20
5.411472320681881
 30
0.0
  0
SPLINE
  5
112
330
1F
100
AcDbEntity
  8
1
100
AcDbSpline
210
0.0
220
0.0
230
1.0
 70
     8
 71
     3
 72
    15
 73
    11
 74
     0
 42
0.00000001
 43
0.00000001
 12
1.0
 22
0.0
 32
0.0
 13
1.0
 23
0.0
 33
0.0
 40
-0.0014706724163042
 40
-0.0014706724163042
 40
-0.0014706724163042
 40
-0.0014706724163042
 40
0.4992645073335096
 40
0.7496320972084164
 40
0.8748158921458699
 40
0.9374077896145966
 40
0.96870373834896
 40
0.9843517127161416
 40
0.9921756998997324
 40
0.9999996870833233
 40
0.9999996870833233
 40
0.9999996870833233
 40
0.9999996870833233
 10
12.08548888626849
 20
23.14237815651092
 30
0.0
 10
12.74183351401913
 20
23.23701689418792
 30
0.0
 10
13.73890829817632
 20
23.30832584469529
 30
0.0
 10
14.89833991822627
 20
23.26632438009592
 30
0.0
 10
15.47605752396393
 20
23.21425985430553
 30
0.0
 10
15.76427613097541
 20
23.18045869546315
 30
0.0
 10
15.90777591226682
 20
23.16167153774916
 30
0.0
 10
15.97993738366565
 20
23.15173479063023
 30
0.0
 10
16.02036927476394
 20
23.1460178395822
 30
0.0
 10
16.04219872175405
 20
23.14290633630815
 30
0.0
 10
16.05291175756898
 20
23.14138221313987
 30
0.0
  0
SPLINE
  5
113
330
1F
100
AcDbEntity
  8
1
100
AcDbSpline
210
0.0
220
0.0
230
1.0
 70
     8
 71
     3
 72
    23
 73
    19
 74
     0
 42
0.00000001
 43
0.00000001
 12
1.0
 22
0.0
 32
0.0
 13
1.0
 23
0.0
 33
0.0
 40
0.0
 40
0.0
 40
0.0
 40
0.0
 40
0.0624939110526634
 40
0.1249878221053269
 40
0.1874817331579903
 40
0.2499756442106538
 40
0.3124695552633172
 40
0.3749634663159807
 40
0.4374573773686441
 40
0.4999512884213075
 40
0.562445199473971
 40
0.6249391105266344
 40
0.7499269326319613
 40
0.8124208436846247
 40
0.8749147547372882
 40
0.9374086657899516
 40
0.9686556213162834
 40
0.9999025768426151
 40
0.9999025768426151
 40
0.9999025768426151
 40
0.9999025768426151
 10
6.191640503476989
 20
8.911476465502243
 30
0.0
 10
6.191640308145963
 20
8.816961597053966
 30
0.0
 10
6.201059246852727
 20
8.627553105350142
 30
0.0
 10
6.242657505112958
 20
8.34778703546716
 30
0.0
 10
6.312295330090423
 20
8.071384497810273
 30
0.0
 10
6.407297757313324
 20
7.807162267005694
 30
0.0
 10
6.527114667157923
 20
7.553804291733934
 30
0.0
 10
6.674239329297405
 20
7.308685509508428
 30
0.0
 10
6.842173255757181
 20
7.082849960249231
 30
0.0
 10
7.030766972682342
 20
6.875040927348238
 30
0.0
 10
7.240035004731942
 20
6.685183777594023
 30
0.0
 10
7.545899814245427
 20
6.458946954800188
 30
0.0
 10
7.872848988409622
 20
6.284030661938465
 30
0.0
 10
8.23301861733901
 20
6.155110879792712
 30
0.0
 10
8.504927307528652
 20
6.087249150210912
 30
0.0
 10
8.736997545170096
 20
6.052756822276262
 30
0.0
 10
8.92407408759741
 20
6.038860006035184
 30
0.0
 10
9.018917021315708
 20
6.036477685100286
 30
0.0
 10
9.066197386445825
 20
6.036470260696173
 30
0.0
  0
DIMENSION
  5
114
330
1F
100
AcDbEntity
  8
1
100
AcDbDimension
  2
_D
 10
31.8159225977
 20
8.9575722299
 30
0.0
 11
37.5851802088
 21
3.2199504217
 31
0.0
 70
   164
  1
<>
 71
     1
 42
-1.0
  3
SLDDIMSTYLE0
100
AcDbRadialDimension
 15
34.0761724263
 25
6.2251564632
 35
0.0
 40
0.0
  0
DIMENSION
  5
129
330
1F
100
AcDbEntity
  8
1
100
AcDbDimension
  2
_D_1
 10
35.3617230023
 20
2.7607006976
 30
0.0
 11
20.4682117548
 21
2.7607006976
 31
0.0
 70
   160
  1
<>
 71
     2
 42
-1.0
  3
SLDDIMSTYLE1
100
AcDbAlignedDimension
 13
5.5666425558
 23
8.9114777572
 33
0.0
 14
35.3617230023
 24
8.9114777572
 34
0.0
 50
0.0
100
AcDbRotatedDimension
  0
DIMENSION
  5
13C
330
1F
100
AcDbEntity
  8
1
100
AcDbDimension
  2
_D_2
 10
38.0134890957
 20
5.4114723207
 30
0.0
 11
38.0134890957
 21
11.5701996778
 31
0.0
 70
   160
  1
<>
 71
     2
 42
-1.0
  3
SLDDIMSTYLE1
100
AcDbAlignedDimension
 13
30.8079434999
 23
21.3432361048
 33
0.0
 14
31.8151202519
 24
5.4114723207
 34
0.0
 50
90.0
100
AcDbRotatedDimension
  0
DIMENSION
  5
14E
330
1F
100
AcDbEntity
  8
1
100
AcDbDimension
  2
_D_3
 10
2.8217138788
 20
5.4114723207
 30
0.0
 11
2.8217138788
 21
14.1168784665
 31
0.0
 70
   160
  1
<>
 71
     2
 42
-1.0
  3
SLDDIMSTYLE1
100
AcDbAlignedDimension
 13
11.9962926498
 23
23.760980639
 33
0.0
 14
9.0660992434
 24
5.4114723207
 34
0.0
 50
90.0
100
AcDbRotatedDimension
  0
DIMENSION
  5
164
330
1F
100
AcDbEntity
  8
1
100
AcDbDimension
  2
_D_4
 10
15.8304755722
 20
16.2699815449
 30
0.0
 11
21.6443942462
 21
25.4385290448
 31
0.0
 70
   164
  1
<>
 71
     1
 42
-1.0
  3
SLDDIMSTYLE0
100
AcDbRadialDimension
 15
19.151080854
 25
22.9948295404
 35
0.0
 40
0.0
  0
DIMENSION
  5
177
330
1F
100
AcDbEntity
  8
1
100
AcDbDimension
  2
_D_5
 10
22.6003646108
 20
24.2961015543
 30
0.0
 11
22.0523232067
 21
22.903359518
 31
0.0
 70
   164
  1
<>
 71
     1
 42
-1.0
  3
SLDDIMSTYLE0
100
AcDbRadialDimension
 15
21.5018570564
 25
21.5044566712
 35
0.0
 40
0.0
  0
DIMENSION
  5
186
330
1F
100
AcDbEntity
  8
1
100
AcDbDimension
  2
_D_6
 10
29.8156230023
 20
15.8866322856
 30
0.0
 11
35.7080363488
 21
22.9033596237
 31
0.0
 70
   164
  1
<>
 71
     1
 42
-1.0
  3
SLDDIMSTYLE0
100
AcDbRadialDimension
 15
32.8519777443
 25
20.5277286098
 35
0.0
 40
0.0
  0
DIMENSION
  5
199
330
1F
100
AcDbEntity
  8
1
100
AcDbDimension
  2
_D_7
 10
13.0666425558
 20
16.3377501375
 30
0.0
 11
5.7815398194
 21
22.7258527598
 31
0.0
 70
   164
  1
<>
 71
     1
 42
-1.0
  3
SLDDIMSTYLE0
100
AcDbRadialDimension
 15
7.9516906552
 25
21.8229362834
 35
0.0
 40
0.0
  0
DIMENSION
  5
1AC
330
1F
100
AcDbEntity
  8
1
100
AcDbDimension
  2
_D_8
 10
29.8156230023
 20
15.8866322856
 30
0.0
 11
31.3566664978
 21
18.697938538
 31
0.0
 70
   164
  1
<>
 71
     1
 42
-1.0
  3
SLDDIMSTYLE0
100
AcDbRadialDimension
 15
32.1810921776
 25
20.2019284273
 35
0.0
 40
0.0
  0
DIMENSION
  5
1BB
330
1F
100
AcDbEntity
  8
1
100
AcDbDimension
  2
_D_9
 10
22.6003646108
 20
24.2961015543
 30
0.0
 11
18.813248175
 21
19.549649136
 31
0.0
 70
   164
  1
<>
 71
     1
 42
-1.0
  3
SLDDIMSTYLE0
100
AcDbRadialDimension
 15
20.7878646108
 25
21.1567594655
 35
0.0
 40
0.0
  0
DIMENSION
  5
1CE
330
1F
100
AcDbEntity
  8
1
100
AcDbDimension
  2
_D_10
 10
13.0666425558
 20
16.3377501375
 30
0.0
 11
10.4928458612
 21
19.5496504371
 31
0.0
 70
   164
  1
<>
 71
     1
 42
-1.0
  3
SLDDIMSTYLE2
100
AcDbRadialDimension
 15
8.7675092094
 25
21.7027363882
 35
0.0
 40
0.0
  0
DIMENSION
  5
1DE
330
1F
100
AcDbEntity
  8
1
100
AcDbDimension
  2
_D_11
 10
14.5670109894
 20
6.0364723207
 30
0.0
 11
14.5670109894
 21
17.2958762887
 31
0.0
 70
   160
  1
<>
 71
     2
 42
-1.0
  3
SLDDIMSTYLE1
100
AcDbAlignedDimension
 13
12.0854888863
 23
23.1423781565
 33
0.0
 14
9.0660992434
 24
6.0364723207
 34
0.0
 50
90.0
100
AcDbRotatedDimension
  0
DIMENSION
  5
1EF
330
1F
100
AcDbEntity
  8
1
100
AcDbDimension
  2
_D_12
 10
34.7367474185
 20
8.9536082474
 30
0.0
 11
24.311338613
 21
8.9536082474
 31
0.0
 70
   160
  1
<>
 71
     2
 42
-1.0
  3
SLDDIMSTYLE1
100
AcDbAlignedDimension
 13
6.1916425558
 23
8.9114777572
 33
0.0
 14
34.7367474185
 24
8.9114777572
 34
0.0
 50
0.0
100
AcDbRotatedDimension
  0
DIMENSION
  5
203
330
1F
100
AcDbEntity
  8
1
100
AcDbDimension
  2
_D_13
 10
28.3773195876
 20
6.0364723207
 30
0.0
 11
28.3773195876
 21
14.5618556701
 31
0.0
 70
   160
  1
<>
 71
     2
 42
-1.0
  3
SLDDIMSTYLE1
100
AcDbAlignedDimension
 13
30.7516015594
 23
20.7179022377
 33
0.0
 14
31.8151202519
 24
6.0364723207
 34
0.0
 50
90.0
100
AcDbRotatedDimension
  0
DIMENSION
  5
218
330
1F
100
AcDbEntity
  8
1
100
AcDbDimension
  2
_D_14
 10
31.8159225977
 20
8.9575722299
 30
0.0
 11
32.4783509092
 21
7.5515467855
 31
0.0
 70
   164
  1
<>
 71
     1
 42
-1.0
  3
SLDDIMSTYLE2
100
AcDbRadialDimension
 15
33.0609018483
 25
6.3150613283
 35
0.0
 40
0.0
  0
DIMENSION
  5
227
330
1F
100
AcDbEntity
  8
1
100
AcDbDimension
  2
_D_15
 10
15.8304755722
 20
16.2699815449
 30
0.0
 11
17.7036490359
 21
21.467010703
 31
0.0
 70
   164
  1
<>
 71
     1
 42
-1.0
  3
SLDDIMSTYLE0
100
AcDbRadialDimension
 15
18.161642588
 25
22.7376925267
 35
0.0
 40
0.0
  0
MTEXT
  5
236
330
1F
100
AcDbEntity
  8
1
100
AcDbMText
 10
17.7741183302
 20
13.1405245041
 30
0.0
 40
0.7291666667
 41
0.0
 71
     1
 72
     1
  1
0000000786
  7
SLDTEXTSTYLE0
 73
     1
 44
1.0
  0
INSERT
  5
23C
102
{ACAD_REACTORS
330
23E
102
}
330
1F
100
AcDbEntity
  8
1
100
AcDbBlockReference
  2
SW_NOTE_0
 10
14.848582574
 20
27.4945562997
 30
0.0
  0
LEADER
  5
23E
330
1F
100
AcDbEntity
  8
1
100
AcDbLeader
  3
SLDDIMSTYLE3
 73
     2
 76
     3
 10
13.3426950334
 20
23.8913127858
 30
0.0
 10
14.598582574
 20
27.4945562997
 30
0.0
 10
14.848582574
 20
27.4945562997
 30
0.0
340
23C
  0
INSERT
  5
244
102
{ACAD_REACTORS
330
245
102
}
330
1F
100
AcDbEntity
  8
1
100
AcDbBlockReference
  2
SW_NOTE_1
 10
12.5298758527
 20
10.0463359511
 30
0.0
  0
LEADER
  5
245
330
1F
100
AcDbEntity
  8
1
100
AcDbLeader
  3
SLDDIMSTYLE3
 73
     2
 76
     3
 10
14.1113402062
 20
6.0364723207
 30
0.0
 10
12.7798758527
 20
10.0463359511
 30
0.0
 10
12.5298758527
 20
10.0463359511
 30
0.0
340
244
  0
ENDSEC
  0
SECTION
  2
OBJECTS
  0
DICTIONARY
  5
C
330
0
100
AcDbDictionary
281
     1
  3
ACAD_GROUP
350
D
  3
ACAD_LAYOUT
350
1A
  3
ACAD_MLINESTYLE
350
17
  3
ACAD_PLOTSETTINGS
350
19
  3
ACAD_PLOTSTYLENAME
350
E
  0
DICTIONARY
  5
D
102
{ACAD_REACTORS
330
C
102
}
330
C
100
AcDbDictionary
281
     1
  0
DICTIONARY
  5
1A
102
{ACAD_REACTORS
330
C
102
}
330
C
100
AcDbDictionary
281
     1
  3
Layout1
350
1E
  3
Layout2
350
26
  3
Model
350
22
  0
DICTIONARY
  5
17
102
{ACAD_REACTORS
330
C
102
}
330
C
100
AcDbDictionary
281
     1
  3
Standard
350
18
  0
DICTIONARY
  5
19
102
{ACAD_REACTORS
330
C
102
}
330
C
100
AcDbDictionary
281
     1
  0
ACDBDICTIONARYWDFLT
  5
E
102
{ACAD_REACTORS
330
C
102
}
330
C
100
AcDbDictionary
281
     1
  3
Normal
350
F
100
AcDbDictionaryWithDefault
340
F
  0
LAYOUT
  5
1E
102
{ACAD_REACTORS
330
1A
102
}
330
1A
100
AcDbPlotSettings
  1

  2
none_device
  4

  6

 40
0.0
 41
0.0
 42
0.0
 43
0.0
 44
0.0
 45
0.0
 46
0.0
 47
0.0
 48
0.0
 49
0.0
140
0.0
141
0.0
142
1.0
143
1.0
 70
   688
 72
     0
 73
     0
 74
     5
  7

 75
    16
147
1.0
148
0.0
149
0.0
100
AcDbLayout
  1
Layout1
 70
     1
 71
     1
 10
0.0
 20
0.0
 11
12.0
 21
9.0
 12
0.0
 22
0.0
 32
0.0
 14
1.0000000000E+20
 24
1.0000000000E+20
 34
1.0000000000E+20
 15
-1.0000000000E+20
 25
-1.0000000000E+20
 35
-1.0000000000E+20
146
0.0
 13
0.0
 23
0.0
 33
0.0
 16
1.0
 26
0.0
 36
0.0
 17
0.0
 27
1.0
 37
0.0
 76
     0
330
1B
  0
LAYOUT
  5
26
102
{ACAD_REACTORS
330
1A
102
}
330
1A
100
AcDbPlotSettings
  1

  2
none_device
  4

  6

 40
0.0
 41
0.0
 42
0.0
 43
0.0
 44
0.0
 45
0.0
 46
0.0
 47
0.0
 48
0.0
 49
0.0
140
0.0
141
0.0
142
1.0
143
1.0
 70
   688
 72
     0
 73
     0
 74
     5
  7

 75
    16
147
1.0
148
0.0
149
0.0
100
AcDbLayout
  1
Layout2
 70
     1
 71
     2
 10
0.0
 20
0.0
 11
0.0
 21
0.0
 12
0.0
 22
0.0
 32
0.0
 14
0.0
 24
0.0
 34
0.0
 15
0.0
 25
0.0
 35
0.0
146
0.0
 13
0.0
 23
0.0
 33
0.0
 16
1.0
 26
0.0
 36
0.0
 17
0.0
 27
1.0
 37
0.0
 76
     0
330
23
  0
LAYOUT
  5
22
102
{ACAD_REACTORS
330
1A
102
}
330
1A
100
AcDbPlotSettings
  1

  2
none_device
  4

  6

 40
0.0
 41
0.0
 42
0.0
 43
0.0
 44
0.0
 45
0.0
 46
0.0
 47
0.0
 48
0.0
 49
0.0
140
0.0
141
0.0
142
1.0
143
1.0
 70
  1712
 72
     0
 73
     0
 74
     0
  7

 75
     0
147
1.0
148
0.0
149
0.0
100
AcDbLayout
  1
Model
 70
     1
 71
     0
 10
0.0
 20
0.0
 11
40.0
 21
30.0
 12
0.0
 22
0.0
 32
0.0
 14
0.0
 24
0.0
 34
0.0
 15
40.0
 25
30.0
 35
0.0
146
0.0
 13
0.0
 23
0.0
 33
0.0
 16
1.0
 26
0.0
 36
0.0
 17
0.0
 27
1.0
 37
0.0
 76
     0
330
1F
331
29
  0
MLINESTYLE
  5
18
102
{ACAD_REACTORS
330
17
102
}
330
17
100
AcDbMlineStyle
  2
Standard
 70
     0
  3

 62
   256
 51
90.0
 52
90.0
 71
     2
 49
0.5
 62
   256
  6
BYLAYER
 49
-0.5
 62
   256
  6
BYLAYER
  0
ACDBPLACEHOLDER
  5
F
102
{ACAD_REACTORS
330
E
102
}
330
E
  0
ENDSEC
  0
EOF
